VERSION	0.00.00	1.03.00
FES_MODE	0
BPM_DEF	222.000	222.000	333.000	222.000
MET_DEF	4	4
RESOLUTION	384
CLK_DEF	384
COMPATIBLE_CODE	MA2

BPM	0	0	222.000
BPM	67	0	333.000
BPM	153	0	222.000
MET	0	0	4	4

HLD	2	0	6	1344
TTP	2	192	4	B	0	M1
TTP	3	0	3	E	0	M1
TTP	3	192	0	C	0	M1
TTP	4	0	2	E	0	M1
TTP	4	192	7	B	0	M1
TTP	5	0	1	E	0	M1
TTP	5	192	0	C	0	M1
TTP	5	192	4	B	0	M1
HLD	6	0	1	1344
TTP	6	192	3	B	0	M1
TTP	7	0	5	E	0	M1
TTP	7	192	0	C	0	M1
TTP	8	0	6	E	0	M1
TTP	8	192	0	B	0	M1
TTP	9	0	7	E	0	M1
TTP	9	192	0	C	0	M1
TTP	9	192	3	B	0	M1
XTP	10	0	6
TTP	10	192	4	B	0	M1
XTP	10	192	6
TTP	11	0	3	E	0	M1
XTP	11	0	6
TTP	11	192	0	C	0	M1
XTP	11	192	6
TTP	12	0	2	E	0	M1
XTP	12	0	6
XTP	12	192	6
TTP	12	192	7	B	0	M1
TTP	13	0	1	E	0	M1
XTP	13	0	6
TTP	13	192	0	C	0	M1
TTP	13	192	4	B	0	M1
XTP	13	192	6
XTP	14	0	1
XTP	14	192	1
TTP	14	192	3	B	0	M1
XTP	15	0	1
TTP	15	0	5	E	0	M1
TTP	15	192	0	C	0	M1
XTP	15	192	1
HLD	16	0	1	192
HLD	16	0	6	192
STR	17	0	0
SI_	17	0	0	96	144	3
STR	17	0	7
SI_	17	0	7	96	144	4
TAP	18	0	1
TAP	18	0	7
TAP	18	96	1
TAP	18	96	7
TAP	18	192	0
TAP	18	192	5
TAP	18	288	0
TAP	18	288	5
TAP	19	0	3
TAP	19	0	5
TAP	19	96	4
TAP	19	144	3
TAP	19	192	2
TAP	19	192	5
TAP	19	288	1
TAP	19	288	4
TAP	20	0	0
TAP	20	48	0
TAP	20	96	0
TAP	20	96	7
TAP	20	192	6
TAP	20	240	6
TAP	20	288	4
TAP	20	288	6
TAP	21	0	1
TAP	21	48	1
TAP	21	96	1
TAP	21	96	3
XTP	21	192	2
XTP	21	192	6
XTP	21	288	7
TAP	22	0	0
TAP	22	0	6
TAP	22	96	0
TAP	22	96	6
TAP	22	192	2
TAP	22	192	7
TAP	22	288	2
TAP	22	288	7
XTP	23	0	1
XTP	23	0	3
XTP	23	72	3
XTP	23	72	4
XTP	23	144	4
XTP	23	144	6
XTP	23	192	4
XTP	23	192	6
TAP	23	288	0
TAP	23	288	7
HLD	24	0	1	96
HLD	24	96	3	96
HLD	24	192	4	96
HLD	24	288	6	96
HLD	25	0	7	96
TAP	25	96	3
BRK	25	192	1
BRK	25	192	5
TAP	26	0	0
TAP	26	0	6
TAP	26	96	0
TAP	26	96	6
TAP	26	192	2
TAP	26	192	7
TAP	26	288	2
TAP	26	288	7
TAP	27	0	2
TAP	27	0	4
TAP	27	96	3
TAP	27	144	4
TAP	27	192	2
TAP	27	192	5
TAP	27	288	3
TAP	27	288	6
TAP	28	0	7
TAP	28	48	7
TAP	28	96	0
TAP	28	96	7
TAP	28	192	1
TAP	28	240	1
TAP	28	288	1
TAP	28	288	3
TAP	29	0	6
TAP	29	48	6
TAP	29	96	4
TAP	29	96	6
XTP	29	192	1
XTP	29	192	5
XTP	29	288	0
TAP	30	0	1
TAP	30	0	7
TAP	30	96	1
TAP	30	96	7
TAP	30	192	0
TAP	30	192	5
TAP	30	288	0
TAP	30	288	5
XTP	31	0	4
XTP	31	0	6
XTP	31	72	3
XTP	31	72	4
XTP	31	144	1
XTP	31	144	3
XTP	31	192	1
XTP	31	192	3
TAP	31	288	0
TAP	31	288	7
TAP	32	0	6
TAP	32	48	6
TAP	32	96	0
TAP	32	144	0
TAP	32	192	7
TAP	32	240	7
TAP	32	288	1
TAP	32	336	1
TAP	33	0	7
TAP	33	48	7
TAP	33	96	0
TAP	33	96	7
BRK	33	192	1
BRK	33	192	5
TAP	34	0	6
STR	34	96	6
SCL	34	96	6	96	96	3
TAP	34	240	2
TAP	34	288	2
TAP	35	0	1
STR	35	96	1
SCR	35	96	1	96	96	4
TAP	35	240	5
TAP	35	288	5
TAP	36	0	7
STR	36	96	7
SCL	36	96	7	96	96	4
TAP	36	240	1
TAP	36	288	1
TAP	37	0	0
STR	37	96	0
SCR	37	96	0	96	96	3
TAP	37	240	6
TAP	37	288	6
TAP	38	0	5
STR	38	96	6
SCR	38	96	6	96	96	1
TAP	38	240	3
TAP	38	288	3
TAP	39	0	2
STR	39	96	1
SCL	39	96	1	96	96	6
TAP	39	240	4
TAP	39	288	4
TAP	40	0	5
STR	40	96	6
SCR	40	96	6	96	96	1
TAP	40	240	3
TAP	40	288	3
XTP	41	0	0
XTP	41	0	7
TAP	41	96	1
TAP	41	96	3
TAP	41	144	1
TAP	41	144	3
TAP	41	240	4
TAP	41	240	6
BRK	41	288	4
BRK	41	288	6
TAP	42	0	0
TAP	42	0	6
TAP	42	96	1
TAP	42	96	7
TAP	42	192	2
TAP	42	192	4
TAP	42	288	3
TAP	42	288	5
TAP	43	0	0
TAP	43	0	6
TAP	43	96	1
TAP	43	96	7
TAP	43	192	2
TAP	43	192	4
TAP	43	288	3
TAP	43	288	5
TAP	44	0	6
TAP	44	0	7
TAP	44	96	4
TAP	44	96	5
TAP	44	192	2
TAP	44	192	3
TAP	44	288	0
TAP	44	288	1
TAP	45	0	6
TAP	45	0	7
TAP	45	96	4
TAP	45	96	5
TAP	45	192	2
TAP	45	192	3
TAP	45	288	0
TAP	45	288	1
TAP	46	0	7
TAP	46	48	7
TAP	46	96	6
TAP	46	144	6
TAP	46	192	5
TAP	46	240	5
TAP	46	288	4
TAP	46	336	4
TAP	47	0	3
TAP	47	48	3
TAP	47	96	2
TAP	47	144	2
TAP	47	192	1
TAP	47	240	1
TAP	47	288	0
TAP	47	336	0
BRK	48	0	7
BRK	48	48	7
BRK	48	96	7
BRK	48	144	7
BRK	48	192	7
BRK	48	240	7
BRK	48	288	7
BRK	48	336	7
BRK	49	0	0
BRK	49	48	0
BRK	49	96	0
BRK	49	144	0
BRK	49	192	0
BRK	49	240	0
BRK	49	288	0
BRK	49	336	0
BRK	50	0	1
BRK	50	0	6
TTP	50	192	0	E	0	M1
TTP	51	0	1	E	0	M1
TTP	51	192	2	E	0	M1
TTP	52	0	3	E	0	M1
TTP	52	192	4	E	0	M1
TTP	53	0	5	E	0	M1
TTP	53	192	6	E	0	M1
TTP	54	0	0	C	0	M1
TTP	54	192	0	E	0	M1
TTP	54	192	7	B	0	M1
TTP	55	0	6	B	0	M1
TTP	55	0	7	E	0	M1
TTP	55	192	5	B	0	M1
TTP	55	192	6	E	0	M1
TTP	56	0	4	B	0	M1
TTP	56	0	5	E	0	M1
TTP	56	192	3	B	0	M1
TTP	56	192	4	E	0	M1
TTP	57	0	2	B	0	M1
TTP	57	0	3	E	0	M1
TTP	57	192	1	B	0	M1
TTP	57	192	2	E	0	M1
HLD	58	0	6	768
TAP	58	96	7
TAP	58	192	7
TAP	58	288	7
TAP	59	0	7
TAP	59	96	7
TAP	59	192	7
TAP	59	288	7
HLD	60	0	1	768
TAP	60	96	0
TAP	60	192	0
TAP	60	288	0
TAP	61	0	0
TAP	61	96	0
TAP	61	192	0
TAP	61	288	0
HLD	62	0	5	384
TAP	62	96	4
TAP	62	192	4
TAP	62	288	4
HLD	63	0	2	384
TAP	63	96	3
TAP	63	192	3
TAP	63	288	3
HLD	64	0	6	384
TAP	64	96	4
TAP	64	192	4
TAP	64	288	4
HLD	65	0	1	384
TAP	65	96	3
TAP	65	192	3
TAP	65	288	3
HLD	66	0	5	192
TAP	66	96	4
HLD	66	192	2	192
TAP	66	288	3
HLD	67	0	6	288
TAP	67	144	7
HLD	67	288	1	288
TAP	68	48	0
XTP	68	192	7
XTP	68	288	6
XTP	69	0	5
XTP	69	96	4
XTP	69	192	3
XTP	69	288	2
XTP	70	0	1
XTP	70	96	0
XTP	70	192	7
XTP	70	288	6
XST	71	0	5
SXR	71	0	5	96	672	7
XTP	73	0	0
XTP	73	192	0
XTP	74	0	7
XTP	74	96	7
BRK	74	192	1
BRK	74	192	6
TAP	75	0	0
TAP	75	0	1
TAP	75	96	2
TAP	75	192	0
TAP	75	192	1
TAP	75	288	2
TAP	76	0	1
TAP	76	0	3
TAP	76	96	2
TAP	76	96	4
XTP	76	192	3
XTP	76	192	5
TAP	77	0	6
STR	77	96	6
SI_	77	96	6	96	96	3
TAP	77	192	1
STR	77	288	1
SI_	77	288	1	96	96	4
TAP	78	0	7
STR	78	96	7
SI_	78	96	7	96	96	3
BRK	78	192	0
TAP	79	0	6
TAP	79	0	7
TAP	79	96	5
TAP	79	192	6
TAP	79	192	7
TAP	79	288	5
XTP	80	0	3
XTP	80	72	3
XTP	80	144	3
XTP	80	192	2
XTP	80	192	4
TAP	81	0	1
STR	81	96	1
SI_	81	96	1	96	96	4
TAP	81	192	6
STR	81	288	6
SI_	81	288	6	96	96	3
TAP	82	0	0
TAP	82	96	0
BRK	82	192	2
BRK	82	192	6
TAP	83	0	6
TAP	83	0	7
TAP	83	96	5
TAP	83	192	6
TAP	83	192	7
TAP	83	288	5
TAP	84	0	4
TAP	84	0	6
TAP	84	96	3
TAP	84	96	5
XTP	84	192	2
XTP	84	192	4
TAP	85	0	1
STR	85	96	1
SI_	85	96	1	96	96	4
TAP	85	192	6
STR	85	288	6
SI_	85	288	6	96	96	3
TAP	86	0	0
STR	86	96	0
SI_	86	96	0	96	96	4
BRK	86	192	7
TAP	87	0	0
TAP	87	0	1
TAP	87	96	2
TAP	87	192	0
TAP	87	192	1
TAP	87	288	2
XTP	88	0	4
XTP	88	72	4
XTP	88	144	4
XTP	88	192	3
XTP	88	192	5
TAP	89	0	6
TAP	89	0	7
TAP	89	96	6
TAP	89	96	7
TAP	89	192	0
TAP	89	192	7
TAP	89	288	0
TAP	89	288	7
TAP	90	0	0
TAP	90	0	1
TAP	90	96	0
TAP	90	96	1
BRK	90	192	2
BRK	90	192	7
TAP	91	0	5
TAP	91	96	4
TAP	91	192	3
TAP	91	288	2
HLD	92	0	1	96
TAP	92	96	7
TAP	92	144	7
TAP	92	240	0
TAP	92	288	0
TAP	93	0	2
TAP	93	96	3
TAP	93	192	4
TAP	93	288	5
HLD	94	0	6	96
TAP	94	96	0
TAP	94	144	0
TAP	94	240	7
TAP	94	288	7
TAP	95	0	5
TAP	95	96	4
TAP	95	192	3
TAP	95	288	2
HLD	96	0	1	96
TAP	96	96	7
TAP	96	144	7
TAP	96	240	0
TAP	96	288	0
XTP	97	0	6
XTP	97	48	5
XTP	97	96	4
XTP	97	144	3
XTP	97	192	0
XTP	97	240	1
XTP	97	288	2
XTP	97	336	3
XST	98	0	7
SI_	98	0	7	96	144	3
BRK	98	192	0
TAP	99	0	1
TAP	99	96	0
TAP	99	192	7
TAP	99	288	6
TAP	100	0	4
TAP	100	0	5
TAP	100	96	3
TAP	100	144	3
TAP	100	240	4
TAP	100	288	4
TAP	101	0	6
TAP	101	96	7
TAP	101	192	0
TAP	101	288	1
TAP	102	0	2
TAP	102	0	3
TAP	102	96	4
TAP	102	144	4
TAP	102	240	3
TAP	102	288	3
TAP	103	0	1
TAP	103	96	1
TAP	103	192	0
TAP	103	192	7
TAP	103	288	0
TAP	103	288	7
TAP	104	0	1
TAP	104	0	6
TAP	104	96	0
TAP	104	144	0
TAP	104	240	7
TAP	104	288	7
STR	105	0	2
SCL	105	0	2	96	288	4
HLD	105	0	6	384
BRK	106	192	1
BRK	106	192	5
TTP	107	0	1	E	0	M1
TTP	107	96	7	B	0	M1
TTP	107	192	3	E	0	M1
TTP	107	288	4	B	0	M1
TTP	108	0	0	B	0	M1
TTP	108	96	7	E	0	M1
TTP	108	192	3	B	0	M1
TTP	108	288	5	E	0	M1
TTP	109	0	2	E	0	M1
TTP	109	96	1	E	0	M1
TTP	109	192	0	E	0	M1
TTP	109	288	7	E	0	M1
TTP	110	0	6	E	0	M1
TTP	110	96	5	E	0	M1
TTP	110	192	4	E	0	M1
TTP	110	288	3	E	0	M1
TTP	111	0	0	E	0	M1
TTP	111	48	7	B	0	M1
TTP	111	96	6	B	0	M1
TTP	111	144	6	E	0	M1
TTP	111	192	2	E	0	M1
TTP	111	240	2	B	0	M1
TTP	111	288	3	B	0	M1
TTP	111	336	4	E	0	M1
TTP	112	0	7	E	0	M1
TTP	112	48	6	B	0	M1
TTP	112	96	5	B	0	M1
TTP	112	144	5	E	0	M1
TTP	112	192	1	E	0	M1
TTP	112	240	1	B	0	M1
TTP	112	288	2	B	0	M1
TTP	112	336	3	E	0	M1
TTP	113	0	6	E	0	M1
TTP	113	48	5	B	0	M1
TTP	113	96	4	B	0	M1
TTP	113	144	4	E	0	M1
TTP	113	192	0	E	0	M1
TTP	113	240	0	B	0	M1
TTP	113	288	1	B	0	M1
TTP	113	336	2	E	0	M1
THO	114	0	0	192	C	1	M1
XTP	115	0	0
XTP	115	96	0
XTP	115	192	0
XTP	115	192	7
XTP	115	288	0
XTP	115	288	7
TAP	116	0	6
TAP	116	96	6
TAP	116	192	4
TAP	116	192	5
TAP	116	288	4
TAP	116	288	5
TAP	117	0	3
TAP	117	96	3
TAP	117	192	2
TAP	117	192	4
TAP	117	288	2
TAP	117	288	4
TAP	118	0	1
TAP	118	96	0
TAP	118	96	7
BRK	118	192	1
BRK	118	192	6
HLD	119	0	1	96
HLD	119	96	0	96
HLD	119	192	2	96
HLD	119	288	3	96
HLD	120	0	7	96
HLD	120	96	6	96
HLD	120	192	4	96
HLD	120	288	5	96
HLD	121	0	0	96
HLD	121	96	1	96
HLD	121	192	2	96
HLD	121	288	3	96
HLD	122	0	4	96
TAP	122	96	5
BRK	122	192	1
BRK	122	192	6
STR	123	0	3
SXR	123	0	3	96	1056	7
STR	123	0	4
SXL	123	0	4	96	1056	0
XTP	127	0	0
XTP	127	48	1
XTP	127	96	2
XTP	127	144	3
XTP	127	192	4
XTP	127	240	5
XTP	127	288	6
XTP	127	336	7
XTP	128	0	0
XTP	128	48	1
XTP	128	96	2
XTP	128	144	3
XTP	128	192	4
XTP	128	240	5
XTP	128	288	6
XTP	128	336	7
XST	129	0	0
SCL	129	0	0	96	384	3
BRK	130	192	7
TAP	131	0	0
TAP	131	0	1
TAP	131	96	2
TAP	131	192	6
TAP	131	192	7
TAP	131	288	5
TAP	132	0	1
TAP	132	0	3
TAP	132	96	2
TAP	132	96	4
XTP	132	192	3
XTP	132	192	5
TAP	133	0	2
STR	133	96	2
SI_	133	96	2	96	96	7
TAP	133	192	6
STR	133	288	6
SI_	133	288	6	96	96	3
TAP	134	0	0
STR	134	96	0
SI_	134	96	0	96	96	4
BRK	134	192	7
TAP	135	0	6
TAP	135	0	7
TAP	135	96	5
TAP	135	192	0
TAP	135	192	1
TAP	135	288	2
XTP	136	0	4
XTP	136	0	5
XTP	136	72	4
XTP	136	72	5
XTP	136	144	4
XTP	136	144	5
XTP	136	192	3
XTP	136	192	6
TAP	137	0	1
STR	137	96	1
SI_	137	96	1	96	96	6
TAP	137	192	5
STR	137	288	5
SI_	137	288	5	96	96	2
TAP	138	0	0
TAP	138	96	0
BRK	138	192	1
BRK	138	192	5
TAP	139	0	6
TAP	139	0	7
TAP	139	96	5
TAP	139	192	0
TAP	139	192	1
TAP	139	288	2
TAP	140	0	4
TAP	140	0	6
TAP	140	96	3
TAP	140	96	5
XTP	140	192	2
XTP	140	192	4
TAP	141	0	5
STR	141	96	5
SI_	141	96	5	96	96	0
TAP	141	192	1
STR	141	288	1
SI_	141	288	1	96	96	4
TAP	142	0	7
STR	142	96	7
SI_	142	96	7	96	96	3
BRK	142	192	0
TAP	143	0	0
TAP	143	0	1
TAP	143	96	2
TAP	143	192	6
TAP	143	192	7
TAP	143	288	5
XTP	144	0	2
XTP	144	0	3
XTP	144	72	2
XTP	144	72	3
XTP	144	144	2
XTP	144	144	3
XTP	144	192	1
XTP	144	192	4
TAP	145	0	6
TAP	145	0	7
TAP	145	96	6
TAP	145	96	7
TAP	145	192	0
TAP	145	192	7
TAP	145	288	0
TAP	145	288	7
TAP	146	0	0
TAP	146	0	1
TAP	146	96	0
TAP	146	96	1
BRK	146	192	2
BRK	146	192	7
STR	147	0	0
SXL	147	0	0	96	384	3
STR	147	0	4
SXL	147	0	4	96	384	7
BRK	148	192	2
BRK	148	192	6
TAP	149	0	2
TAP	149	48	3
TAP	149	96	2
TAP	149	144	3
BRK	149	192	1
TAP	150	0	5
TAP	150	48	4
TAP	150	96	5
TAP	150	144	4
BRK	150	192	6
TAP	151	0	0
TAP	151	48	7
TAP	151	96	0
TAP	151	144	7
TAP	151	192	0
TAP	151	240	7
TAP	151	288	0
TAP	151	336	7
TAP	152	0	1
TAP	152	48	1
TAP	152	96	6
TAP	152	144	6
TAP	152	192	0
TAP	152	240	0
TAP	152	288	7
TAP	152	336	7
BST	153	0	1
SF_	153	0	1	96	2208	5

T_REC_TAP	398
T_REC_BRK	50
T_REC_XTP	114
T_REC_HLD	36
T_REC_XHO	0
T_REC_STR	30
T_REC_BST	1
T_REC_XST	3
T_REC_TTP	89
T_REC_THO	1
T_REC_SLD	34
T_REC_ALL	756
T_NUM_TAP	634
T_NUM_BRK	51
T_NUM_HLD	37
T_NUM_SLD	34
T_NUM_ALL	756
T_JUDGE_TAP	685
T_JUDGE_HLD	174
T_JUDGE_SLD	34
T_JUDGE_ALL	893
TTM_EACHPAIRS	141
TTM_SCR_TAP	317000
TTM_SCR_BRK	132600
TTM_SCR_HLD	37000
TTM_SCR_SLD	51000
TTM_SCR_ALL	537600
TTM_SCR_S	516550
TTM_SCR_SS	532500
TTM_RAT_ACV	10095

