VERSION	0.00.00	1.03.00
FES_MODE	0
BPM_DEF	222.000	222.000	333.000	222.000
MET_DEF	4	4
RESOLUTION	384
CLK_DEF	384
COMPATIBLE_CODE	MA2

BPM	0	0	222.000
BPM	67	0	333.000
BPM	153	0	222.000
MET	0	0	4	4

TTP	2	0	5	B	0	L1
TTP	3	0	4	B	0	L1
TTP	4	0	3	B	0	L1
TTP	5	0	2	B	0	L1
TTP	6	0	1	B	0	L1
TTP	7	0	0	B	0	L1
TTP	8	0	7	B	0	L1
TTP	9	0	1	B	0	L1
TTP	9	0	6	B	0	L1
TTP	10	0	6	E	0	L1
TTP	10	192	5	B	0	L1
TTP	11	0	4	B	0	L1
TTP	11	192	4	E	0	L1
TTP	12	0	3	E	0	L1
TTP	12	192	2	B	0	L1
TTP	13	0	1	B	0	L1
TTP	14	0	4	B	0	L1
TTP	14	0	5	E	0	L1
TTP	15	0	1	B	0	L1
TTP	15	0	2	B	0	L1
THO	16	0	0	384	C	1	L1
TAP	18	0	0
TAP	18	96	0
TAP	18	192	1
TAP	18	288	2
TAP	19	0	2
TAP	19	0	3
TAP	19	96	2
TAP	19	96	3
TAP	19	192	2
TAP	19	192	3
TAP	20	0	4
TAP	20	96	4
TAP	20	192	5
TAP	20	288	6
TAP	21	0	6
TAP	21	0	7
TAP	21	96	6
TAP	21	96	7
XTP	21	192	6
XTP	21	192	7
TAP	22	0	5
TAP	22	96	5
TAP	22	192	4
TAP	22	192	5
TAP	23	0	2
TAP	23	96	2
TAP	23	192	2
TAP	23	192	3
HLD	24	0	4	192
HLD	24	192	5	192
TAP	25	0	6
TAP	25	96	6
XTP	25	192	0
XTP	25	192	6
TAP	26	0	7
TAP	26	96	7
TAP	26	192	6
TAP	26	288	5
TAP	27	0	4
TAP	27	0	5
TAP	27	96	4
TAP	27	96	5
TAP	27	192	4
TAP	27	192	5
TAP	28	0	3
TAP	28	96	3
TAP	28	192	2
TAP	28	288	1
TAP	29	0	0
TAP	29	0	1
TAP	29	96	0
TAP	29	96	1
XTP	29	192	0
XTP	29	192	1
TAP	30	0	6
TAP	30	96	6
TAP	30	192	6
TAP	30	192	7
TAP	31	0	1
TAP	31	96	1
TAP	31	192	0
TAP	31	192	1
HLD	32	0	0	192
HLD	32	0	7	192
TAP	33	0	0
TAP	33	0	7
TAP	33	96	0
TAP	33	96	7
BRK	33	192	1
BRK	33	192	6
HLD	34	0	2	192
TAP	34	192	3
HLD	35	0	4	192
TAP	35	192	3
HLD	36	0	5	192
TAP	36	192	4
TAP	37	0	3
TAP	37	96	4
TAP	37	192	3
TAP	37	192	4
HLD	38	0	1	192
TAP	38	192	0
HLD	39	0	7	192
TAP	39	192	0
HLD	40	0	6	192
HLD	40	0	7	192
TAP	41	0	0
TAP	41	0	5
TAP	41	96	0
TAP	41	96	5
XTP	41	192	0
XTP	41	192	5
HLD	42	0	1	192
TAP	42	192	3
TAP	43	0	4
TAP	43	96	4
TAP	43	192	2
TAP	43	192	4
HLD	44	0	6	192
TAP	44	192	4
TAP	45	0	3
TAP	45	96	3
TAP	45	192	3
TAP	45	192	5
TAP	46	0	1
TAP	46	96	1
TAP	46	192	1
TAP	46	192	3
TAP	47	0	3
TAP	47	96	3
TAP	47	192	3
TAP	47	192	4
TAP	48	0	5
TAP	48	96	5
TAP	48	192	4
TAP	48	192	6
XTP	49	0	0
XTP	49	0	7
XTP	49	192	2
XTP	49	192	5
BST	50	0	6
SCL	50	0	6	96	480	3
STR	52	0	2
SCL	52	0	2	96	480	7
STR	54	0	6
SCL	54	0	6	96	480	2
TAP	56	0	1
TAP	56	192	1
TAP	57	0	2
TAP	57	192	2
STR	58	0	2
SCR	58	0	2	96	480	5
STR	60	0	6
SCR	60	0	6	96	480	1
HLD	62	0	2	384
HLD	63	0	3	384
HLD	64	0	4	384
HLD	65	0	5	384
TAP	66	0	6
TAP	66	192	6
STR	67	0	7
SCL	67	0	7	96	1056	0
THO	71	0	0	768	C	1	L1
XTP	75	0	0
XTP	75	96	0
XTP	75	192	0
TAP	76	0	1
TAP	76	192	2
TAP	76	192	4
TAP	77	0	5
TAP	77	96	5
TAP	77	192	5
XTP	78	0	4
XTP	78	0	6
TAP	79	0	6
TAP	79	96	6
TAP	79	192	6
XTP	80	0	5
XTP	80	192	3
XTP	80	192	4
HLD	81	0	2	192
HLD	81	0	3	192
TAP	82	0	1
TAP	82	0	4
XTP	82	192	1
XTP	82	192	4
TAP	83	0	2
TAP	83	96	2
TAP	83	192	2
TAP	84	0	3
TAP	84	0	4
TAP	84	192	4
TAP	84	192	5
TAP	85	0	6
TAP	85	96	6
TAP	85	192	6
XTP	86	0	6
XTP	86	0	7
XTP	87	0	0
XTP	87	96	0
XTP	87	192	0
TAP	88	0	1
TAP	88	0	7
XTP	88	192	2
XTP	88	192	6
THO	89	0	0	384	C	1	L1
XST	91	0	0
SCR	91	0	0	96	480	3
STR	93	0	4
SCR	93	0	4	96	480	7
STR	95	0	0
SI_	95	0	0	96	480	4
TAP	97	0	5
TAP	97	192	4
TAP	97	192	5
TAP	98	0	3
TAP	98	0	6
XST	99	0	5
SCL	99	0	5	96	480	2
STR	101	0	1
SCL	101	0	1	96	480	6
STR	103	0	4
SI_	103	0	4	96	480	0
TAP	105	0	1
TAP	105	192	0
TAP	105	192	1
BRK	106	0	2
BRK	106	0	7
HLD	107	0	5	192
TAP	107	192	4
HLD	108	0	2	192
TAP	108	192	3
HLD	109	0	6	192
TAP	109	192	4
TAP	110	0	2
TAP	110	192	1
TAP	110	192	4
TAP	111	0	6
TAP	111	96	6
TAP	111	192	6
TAP	112	0	0
TAP	112	96	0
TAP	112	192	0
TAP	113	0	7
TAP	113	96	7
TAP	113	192	7
TAP	113	288	7
TAP	114	0	7
BRK	114	192	1
BRK	114	192	6
TAP	115	0	2
TAP	115	96	2
TAP	115	192	2
TAP	116	0	2
TAP	116	0	3
TAP	116	192	3
TAP	116	192	4
TAP	117	0	5
TAP	117	96	5
TAP	117	192	5
XTP	118	0	4
XTP	118	0	6
HLD	119	0	5	192
HLD	119	192	4	192
HLD	120	0	3	192
TAP	120	192	2
TAP	121	0	0
TAP	121	0	1
TAP	121	96	0
TAP	121	96	1
TAP	121	192	0
TAP	121	192	1
BRK	122	0	2
BRK	122	0	7
TTP	123	0	1	E	0	L1
TTP	124	0	3	B	0	L1
TTP	124	0	5	E	0	L1
TTP	125	0	6	E	0	L1
TTP	126	0	3	E	0	L1
TTP	126	0	4	B	0	L1
THO	127	0	0	768	C	1	L1
TAP	130	0	0
TAP	130	0	7
XTP	130	192	0
XTP	130	192	7
TAP	131	0	6
TAP	131	96	6
TAP	131	192	6
TAP	132	0	4
TAP	132	96	4
TAP	132	192	4
TAP	133	0	3
TAP	133	96	3
TAP	133	192	4
TAP	133	288	4
TAP	134	0	2
TAP	134	96	2
XTP	134	192	2
XTP	134	192	4
TAP	135	0	1
TAP	135	96	1
TAP	135	192	1
TAP	136	0	4
TAP	136	96	4
TAP	136	192	3
TAP	136	192	4
TAP	137	0	7
TAP	137	96	7
TAP	137	192	0
TAP	137	288	0
TAP	138	0	6
TAP	138	96	6
BRK	138	192	0
BRK	138	192	6
TAP	139	0	1
TAP	139	96	1
TAP	139	192	2
TAP	139	288	2
TAP	140	0	3
TAP	140	0	4
TAP	140	96	3
TAP	140	96	4
BRK	140	192	3
BRK	140	192	4
TAP	141	0	7
TAP	141	96	7
TAP	141	192	6
TAP	141	288	6
XTP	142	0	4
XTP	142	0	5
XTP	142	96	4
XTP	142	96	5
BRK	142	192	4
BRK	142	192	5
TAP	143	0	2
TAP	143	96	2
TAP	143	192	1
TAP	143	288	1
TAP	144	0	0
TAP	144	0	7
TAP	144	96	0
TAP	144	96	7
BRK	144	192	0
BRK	144	192	7
XTP	145	0	1
XTP	145	0	6
XTP	145	192	2
XTP	145	192	3
XTP	146	0	4
XTP	146	0	5
XST	146	192	3
SUR	146	192	3	96	672	4
XTP	146	192	4
TAP	149	0	3
TAP	149	0	5
TAP	149	96	3
TAP	149	96	5
BRK	149	192	3
BRK	149	192	5
TAP	150	0	2
TAP	150	0	4
TAP	150	96	2
TAP	150	96	4
BRK	150	192	2
BRK	150	192	4
TAP	151	0	0
TAP	151	0	7
TAP	151	96	0
TAP	151	96	7
TAP	151	192	1
TAP	151	192	6
TAP	151	288	1
TAP	151	288	6
TAP	152	0	2
TAP	152	0	5
TAP	152	96	2
TAP	152	96	5
TAP	152	192	3
TAP	152	192	4
TAP	152	288	3
TAP	152	288	4
BRK	153	0	3
BST	153	0	4
SCR	153	0	4	96	1056	3
THO	157	192	0	528	C	0	L1

T_REC_TAP	235
T_REC_BRK	21
T_REC_XTP	46
T_REC_HLD	25
T_REC_XHO	0
T_REC_STR	9
T_REC_BST	2
T_REC_XST	3
T_REC_TTP	26
T_REC_THO	5
T_REC_SLD	14
T_REC_ALL	386
T_NUM_TAP	319
T_NUM_BRK	23
T_NUM_HLD	30
T_NUM_SLD	14
T_NUM_ALL	386
T_JUDGE_TAP	342
T_JUDGE_HLD	139
T_JUDGE_SLD	14
T_JUDGE_ALL	495
TTM_EACHPAIRS	90
TTM_SCR_TAP	159500
TTM_SCR_BRK	59800
TTM_SCR_HLD	30000
TTM_SCR_SLD	21000
TTM_SCR_ALL	270300
TTM_SCR_S	260000
TTM_SCR_SS	268000
TTM_RAT_ACV	10085

