VERSION	0.00.00	1.03.00
FES_MODE	0
BPM_DEF	222.000	222.000	333.000	222.000
MET_DEF	4	4
RESOLUTION	384
CLK_DEF	384
COMPATIBLE_CODE	MA2

BPM	0	0	222.000
BPM	67	0	333.000
BPM	153	0	222.000
MET	0	0	4	4

HLD	2	0	3	768
TAP	5	0	3
TAP	5	0	4
HLD	6	0	4	768
TAP	9	0	3
TAP	9	0	4
TAP	10	0	3
TAP	11	0	3
TAP	12	0	2
TAP	13	0	2
TAP	14	0	1
TAP	15	0	1
BRK	16	0	0
BRK	16	0	7
TAP	18	0	0
TAP	18	96	0
TAP	18	192	0
TAP	18	288	0
TAP	19	0	1
TAP	19	96	1
TAP	19	192	1
TAP	20	0	2
TAP	20	96	2
TAP	20	192	2
TAP	20	288	2
HLD	21	0	2	192
HLD	21	0	3	192
TAP	22	0	4
TAP	22	96	4
TAP	22	192	4
TAP	22	288	4
TAP	23	0	5
TAP	23	96	5
TAP	23	192	5
TAP	24	0	6
TAP	24	0	7
TAP	24	192	6
TAP	24	192	7
HLD	25	0	0	192
HLD	25	0	5	192
TAP	26	0	7
TAP	26	96	7
TAP	26	192	7
TAP	26	288	7
TAP	27	0	6
TAP	27	96	6
TAP	27	192	6
TAP	28	0	5
TAP	28	96	5
TAP	28	192	5
TAP	28	288	5
HLD	29	0	4	192
HLD	29	0	5	192
TAP	30	0	3
TAP	30	96	3
TAP	30	192	3
TAP	30	288	3
TAP	31	0	2
TAP	31	96	2
TAP	31	192	2
TAP	32	0	0
TAP	32	0	1
TAP	32	192	0
TAP	32	192	1
HLD	33	0	2	192
HLD	33	0	7	192
TAP	34	0	0
TAP	34	192	0
TAP	35	0	1
TAP	35	192	1
TAP	36	0	2
TAP	36	192	2
TAP	37	0	3
TAP	37	192	3
TAP	38	0	4
TAP	38	192	4
TAP	39	0	5
TAP	39	192	5
TAP	40	0	6
TAP	40	192	6
BRK	41	0	0
BRK	41	0	7
TAP	42	0	7
TAP	42	96	7
TAP	42	192	7
TAP	43	0	6
TAP	43	96	6
TAP	43	192	6
TAP	44	0	5
TAP	44	96	5
TAP	44	192	5
TAP	45	0	4
TAP	45	96	4
TAP	45	192	4
TAP	46	0	3
TAP	46	96	3
TAP	46	192	3
TAP	47	0	2
TAP	47	96	2
TAP	47	192	2
TAP	48	0	1
TAP	48	96	1
TAP	48	192	1
TAP	49	0	0
TAP	49	96	0
TAP	49	192	0
TTP	50	0	1	B	0	L1
TTP	50	0	7	B	0	L1
TTP	51	0	6	B	0	L1
TTP	52	0	5	B	0	L1
TTP	53	0	4	B	0	L1
TTP	54	0	3	B	0	L1
TTP	54	0	5	B	0	L1
TTP	55	0	2	B	0	L1
TTP	56	0	1	B	0	L1
TTP	57	0	0	B	0	L1
TTP	58	0	6	B	0	L1
TTP	58	0	7	B	0	L1
TTP	59	0	5	B	0	L1
TTP	60	0	3	B	0	L1
TTP	60	0	4	B	0	L1
TTP	61	0	2	B	0	L1
TTP	62	0	0	B	0	L1
TTP	62	0	1	B	0	L1
TTP	63	0	2	B	0	L1
TTP	63	0	3	B	0	L1
TTP	64	0	4	B	0	L1
TTP	64	0	5	B	0	L1
TTP	65	0	6	B	0	L1
TTP	65	0	7	B	0	L1
THO	66	0	0	1920	C	1	L1
TAP	75	0	0
TAP	75	96	0
TAP	75	192	0
TAP	76	0	1
TAP	76	96	1
TAP	76	192	1
TAP	77	0	2
TAP	77	96	2
TAP	77	192	2
HLD	78	0	2	192
HLD	78	0	3	192
TAP	79	0	4
TAP	79	96	4
TAP	79	192	4
TAP	80	0	5
TAP	80	96	5
TAP	80	192	5
TAP	81	0	6
XTP	81	192	0
XTP	81	192	7
TAP	82	0	1
XTP	82	192	0
XTP	82	192	7
TAP	83	0	7
TAP	83	96	7
TAP	83	192	7
TAP	84	0	6
TAP	84	96	6
TAP	84	192	6
TAP	85	0	5
TAP	85	96	5
TAP	85	192	5
HLD	86	0	4	192
HLD	86	0	5	192
TAP	87	0	3
TAP	87	96	3
TAP	87	192	3
TAP	88	0	2
TAP	88	96	2
TAP	88	192	2
TAP	89	0	0
TAP	89	0	1
TAP	89	192	0
TAP	89	192	7
BRK	90	0	6
BRK	90	0	7
STR	91	0	0
SI_	91	0	0	96	672	3
STR	91	0	6
SI_	91	0	6	96	672	3
STR	95	0	1
SI_	95	0	1	96	672	4
STR	95	0	7
SI_	95	0	7	96	672	4
TAP	99	0	7
TAP	99	96	7
TAP	99	192	7
TAP	100	0	6
TAP	100	96	6
TAP	100	192	6
TAP	101	0	5
TAP	101	96	5
TAP	101	192	5
TAP	102	0	4
TAP	102	96	4
TAP	102	192	4
TAP	103	0	3
TAP	103	96	3
TAP	103	192	3
TAP	104	0	2
TAP	104	96	2
TAP	104	192	2
TAP	105	0	1
TAP	105	96	1
TAP	105	192	1
HLD	106	0	0	192
HLD	106	0	7	192
TAP	107	0	0
TAP	107	0	7
TAP	107	192	1
TAP	108	0	2
TAP	108	192	3
TAP	109	0	2
TAP	109	0	4
TAP	109	192	1
HLD	110	0	0	192
HLD	110	0	7	192
TAP	111	0	0
TAP	111	0	7
TAP	111	192	6
TAP	112	0	5
TAP	112	192	4
TAP	113	0	3
TAP	113	0	5
TAP	113	192	6
HLD	114	0	0	192
HLD	114	0	7	192
TTP	115	0	0	B	0	L1
TTP	115	0	7	B	0	L1
TTP	116	0	1	B	0	L1
TTP	116	0	6	B	0	L1
TTP	117	0	2	B	0	L1
TTP	117	0	5	B	0	L1
TTP	118	0	3	E	0	L1
TTP	118	0	5	E	0	L1
HLD	119	0	3	192
HLD	119	0	4	192
HLD	120	0	2	192
HLD	120	0	5	192
HLD	121	0	1	192
HLD	121	0	6	192
HLD	122	0	0	192
HLD	122	0	7	192
XST	123	0	0
SI_	123	0	0	96	1056	3
XST	123	0	7
SI_	123	0	7	96	1056	4
THO	127	0	0	768	C	1	L1
TAP	131	0	7
TAP	131	96	7
TAP	131	192	7
TAP	131	288	7
TAP	132	0	6
TAP	132	96	6
TAP	132	192	6
TAP	133	0	5
TAP	133	96	5
TAP	133	192	5
TAP	133	288	5
HLD	134	0	4	192
HLD	134	0	5	192
TAP	135	0	3
TAP	135	96	3
TAP	135	192	3
TAP	135	288	3
TAP	136	0	2
TAP	136	96	2
TAP	136	192	2
TAP	137	0	0
TAP	137	0	1
TAP	137	192	0
TAP	137	192	1
HLD	138	0	2	192
HLD	138	0	7	192
TAP	139	0	0
TAP	139	96	0
TAP	139	192	0
TAP	139	288	0
TAP	140	0	1
TAP	140	96	1
TAP	140	192	1
TAP	141	0	2
TAP	141	96	2
TAP	141	192	2
TAP	141	288	2
HLD	142	0	2	192
HLD	142	0	3	192
TAP	143	0	4
TAP	143	96	4
TAP	143	192	4
TAP	143	288	4
TAP	144	0	5
TAP	144	96	5
TAP	144	192	5
TAP	145	0	6
TAP	145	0	7
TAP	145	192	6
TAP	145	192	7
HLD	146	0	0	192
HLD	146	0	5	192
TTP	149	0	3	B	0	L1
TTP	149	0	3	E	0	L1
TTP	149	192	6	B	0	L1
TTP	149	192	7	B	0	L1
TTP	150	0	4	B	0	L1
TTP	150	0	5	E	0	L1
TTP	150	192	0	B	0	L1
TTP	150	192	1	B	0	L1
THO	151	0	0	768	C	1	L1

T_REC_TAP	209
T_REC_BRK	6
T_REC_XTP	4
T_REC_HLD	36
T_REC_XHO	0
T_REC_STR	4
T_REC_BST	0
T_REC_XST	2
T_REC_TTP	40
T_REC_THO	3
T_REC_SLD	6
T_REC_ALL	310
T_NUM_TAP	259
T_NUM_BRK	6
T_NUM_HLD	39
T_NUM_SLD	6
T_NUM_ALL	310
T_JUDGE_TAP	265
T_JUDGE_HLD	156
T_JUDGE_SLD	6
T_JUDGE_ALL	427
TTM_EACHPAIRS	41
TTM_SCR_TAP	129500
TTM_SCR_BRK	15600
TTM_SCR_HLD	39000
TTM_SCR_SLD	9000
TTM_SCR_ALL	193100
TTM_SCR_S	186750
TTM_SCR_SS	192500
TTM_RAT_ACV	10031

