VERSION	0.00.00	1.03.00
FES_MODE	0
BPM_DEF	160.000	160.000	160.000	160.000
MET_DEF	4	4
RESOLUTION	384
CLK_DEF	384
COMPATIBLE_CODE	MA2

BPM	0	0	160.000
MET	0	0	4	4

THO	1	0	0	288	C	0	M1
BRK	2	0	0
BRK	2	0	7
TAP	2	144	5
TAP	2	168	4
TAP	2	192	5
TAP	2	264	4
STR	2	336	3
SUR	2	336	3	96	240	4
TAP	3	288	5
TAP	3	336	6
TAP	4	0	0
TAP	4	0	7
TAP	4	144	2
TAP	4	168	3
TAP	4	192	2
TAP	4	264	4
TAP	4	336	3
STR	5	0	5
SCL	5	0	5	96	96	2
TAP	5	48	4
TAP	5	72	5
BRK	5	192	1
TAP	5	288	4
TAP	5	304	3
TAP	5	320	4
TAP	5	336	3
TAP	5	352	4
TAP	5	368	3
XTP	6	0	2
XTP	6	0	5
TAP	6	144	2
TAP	6	168	3
TAP	6	192	2
TAP	6	264	3
STR	6	336	4
SUL	6	336	4	96	240	3
TTP	7	72	0	E	0	M1
TTP	7	84	7	B	0	M1
TTP	7	96	6	B	0	M1
TAP	7	288	2
TAP	7	336	1
TAP	8	0	0
TAP	8	0	7
TAP	8	144	4
TAP	8	168	3
STR	8	192	4
SI_	8	192	4	96	48	1
SI_	8	192	4	96	48	7
BRK	8	288	4
XTP	9	0	0
XHO	9	0	6	72
TAP	9	48	1
TAP	9	72	1
HLD	9	96	6	72
TAP	9	120	2
TAP	9	144	2
HLD	9	192	6	72
TAP	9	216	3
TAP	9	264	4
TAP	9	288	6
TAP	9	336	0
TAP	9	336	7
HLD	10	0	1	72
TAP	10	0	7
TAP	10	48	6
TAP	10	72	6
HLD	10	96	1	72
TAP	10	120	5
TAP	10	144	5
HLD	10	192	1	72
TAP	10	216	4
TAP	10	264	3
TAP	10	288	1
TAP	10	336	0
TAP	10	336	7
TAP	11	0	3
TAP	11	0	6
TAP	11	48	7
TAP	11	72	0
TAP	11	96	6
TAP	11	120	0
TAP	11	144	7
TAP	11	192	1
TAP	11	192	4
TAP	11	240	0
TAP	11	264	7
TAP	11	288	1
TAP	11	312	7
TAP	11	336	0
TAP	12	0	2
TAP	12	0	5
TAP	12	48	7
TAP	12	72	1
TAP	12	96	5
TAP	12	120	1
TAP	12	144	7
TAP	12	156	6
TAP	12	168	5
TAP	12	180	4
TAP	12	192	2
HLD	12	192	3	96
TTP	12	288	0	C	1	M1
XTP	13	0	0
TAP	13	24	7
TAP	13	48	2
TAP	13	72	7
TAP	13	96	4
TAP	13	120	7
TAP	13	144	1
TAP	13	168	7
TAP	13	192	3
TAP	13	216	7
TAP	13	240	5
TAP	13	264	7
THO	13	288	0	48	C	0	M1
XTP	14	0	7
TAP	14	24	0
TAP	14	48	5
TAP	14	72	0
TAP	14	96	3
TAP	14	120	0
TAP	14	144	1
TAP	14	168	0
STR	14	192	7
SI_	14	192	7	96	48	3
TAP	14	216	0
TAP	14	264	0
TAP	14	288	7
BRK	14	336	1
XTP	15	0	4
XTP	15	0	6
TAP	15	48	6
TAP	15	72	5
TAP	15	96	6
TAP	15	120	5
TAP	15	144	6
XTP	15	192	1
XTP	15	192	3
TAP	15	240	1
TAP	15	264	2
TAP	15	288	1
TAP	15	312	2
TAP	15	336	1
XTP	16	0	6
TAP	16	16	5
TAP	16	32	4
XTP	16	48	7
TAP	16	64	6
TAP	16	80	5
XTP	16	96	0
TAP	16	112	7
TAP	16	128	6
XTP	16	144	1
TAP	16	160	0
TAP	16	176	7
XTP	16	192	2
TAP	16	208	1
TAP	16	224	0
XTP	16	240	3
TAP	16	256	2
TAP	16	272	1
XTP	16	288	4
TAP	16	304	3
TAP	16	320	2
XTP	16	336	5
TAP	16	352	4
TAP	16	368	3
BRK	17	0	2
BRK	17	0	5
TTP	17	96	3	E	0	M1
TTP	17	120	3	B	0	M1
TTP	17	144	4	B	0	M1
TTP	17	168	5	E	0	M1
TTP	17	192	2	B	0	M1
TTP	17	288	7	E	0	M1
TTP	17	312	7	B	0	M1
TTP	17	336	0	B	0	M1
TTP	17	360	1	E	0	M1
TTP	18	0	6	B	0	M1
TTP	18	48	3	E	0	M1
TTP	18	72	2	B	0	M1
TTP	18	120	5	E	0	M1
TTP	18	144	5	B	0	M1
TTP	18	192	3	B	0	M1
TTP	18	192	4	B	0	M1
TTP	18	288	1	E	0	M1
TTP	18	312	0	B	0	M1
TTP	18	336	7	B	0	M1
TTP	18	360	7	E	0	M1
TTP	19	0	1	B	0	M1
TTP	19	96	5	E	0	M1
TTP	19	120	4	B	0	M1
TTP	19	144	3	B	0	M1
TTP	19	168	3	E	0	M1
TTP	19	192	5	B	0	M1
TTP	19	288	2	E	0	M1
TTP	19	288	6	E	0	M1
TTP	20	0	6	B	0	M1
TTP	20	0	7	B	0	M1
TTP	20	72	0	B	0	M1
TTP	20	72	1	B	0	M1
TTP	20	144	5	E	0	M1
TTP	20	168	4	E	0	M1
TTP	20	192	3	E	0	M1
TTP	20	336	7	B	0	M1
TTP	20	360	0	B	0	M1
TTP	21	0	1	E	0	M1
TTP	21	96	6	E	0	M1
TTP	21	120	5	B	0	M1
TTP	21	144	4	B	0	M1
TTP	21	168	4	E	0	M1
TTP	21	192	0	E	0	M1
TTP	21	288	2	E	0	M1
TTP	21	312	2	B	0	M1
TTP	21	336	3	B	0	M1
TTP	21	360	4	E	0	M1
TTP	22	0	4	B	0	M1
TTP	22	0	5	E	0	M1
TTP	22	32	0	B	0	M1
TTP	22	32	1	E	0	M1
TTP	22	64	0	C	0	M1
TTP	22	96	2	B	0	M1
TTP	22	96	3	E	0	M1
TTP	22	128	6	B	0	M1
TTP	22	128	7	E	0	M1
TTP	22	160	0	C	0	M1
TTP	22	192	2	E	0	M1
TTP	22	192	6	E	0	M1
TTP	22	288	0	E	0	M1
TTP	22	336	0	C	0	M1
TTP	23	0	4	E	0	M1
TTP	23	96	7	E	0	M1
TTP	23	144	1	E	0	M1
TTP	23	240	3	B	0	M1
TTP	23	240	4	B	0	M1
TTP	23	288	3	E	0	M1
TTP	23	312	4	E	0	M1
TTP	23	336	5	E	0	M1
TTP	24	24	7	B	0	M1
TTP	24	48	0	B	0	M1
TTP	24	72	1	E	0	M1
TTP	24	96	5	E	0	M1
TTP	24	120	4	B	0	M1
TTP	24	144	3	B	0	M1
TTP	24	168	3	E	0	M1
TTP	24	192	0	C	0	M1
TAP	24	336	3
TAP	24	360	4
HLD	25	0	3	96
TAP	25	96	4
BRK	25	192	0
XTP	26	0	0
XTP	26	0	7
TAP	26	48	6
TAP	26	72	4
TAP	26	120	4
TAP	26	144	5
TAP	26	192	1
TAP	26	192	4
TAP	26	240	1
TAP	26	264	3
TAP	26	312	3
TAP	26	336	2
TAP	27	0	3
TAP	27	0	6
TAP	27	48	6
TAP	27	72	4
TAP	27	120	4
TAP	27	144	5
TAP	27	192	1
TAP	27	216	0
TAP	27	240	1
TAP	27	264	0
XTP	27	288	2
XTP	27	288	7
TAP	28	0	1
TAP	28	0	4
TAP	28	48	1
TAP	28	72	3
TAP	28	120	3
TAP	28	144	0
TAP	28	192	0
STR	28	192	7
SI_	28	192	7	96	48	3
XTP	28	288	6
XTP	28	288	7
TAP	29	0	2
TAP	29	0	4
TAP	29	48	3
TAP	29	48	5
TAP	29	96	6
TAP	29	120	7
TAP	29	144	6
TAP	29	192	3
TAP	29	192	5
TAP	29	240	2
TAP	29	240	4
TAP	29	288	1
TAP	29	312	0
TAP	29	336	1
TAP	30	0	2
TAP	30	32	2
TAP	30	64	2
TAP	30	96	5
TAP	30	128	5
TAP	30	160	5
XST	30	192	1
SI_	30	192	1	96	48	4
XST	30	192	6
SI_	30	192	6	96	48	3
BRK	30	288	1
BRK	30	288	6
TAP	31	0	0
TAP	31	0	4
TAP	31	48	2
TAP	31	72	3
TAP	31	120	3
TAP	31	144	1
TAP	31	192	3
TAP	31	192	7
TAP	31	240	5
TAP	31	264	4
TAP	31	312	4
TAP	31	336	6
TAP	32	0	2
TAP	32	24	1
TAP	32	48	0
TAP	32	72	7
TAP	32	96	6
TAP	32	120	5
TAP	32	144	4
TAP	32	168	3
TTP	32	192	2	E	0	M1
TTP	32	204	1	E	0	M1
TTP	32	216	0	E	0	M1
TTP	32	228	7	E	0	M1
TTP	32	240	6	E	0	M1
TTP	32	252	5	E	0	M1
TTP	32	264	4	E	0	M1
TTP	32	276	3	E	0	M1
TTP	32	288	0	C	1	M1
TTP	32	288	2	E	0	M1
TTP	32	288	6	E	0	M1
XTP	33	0	0
XHO	33	0	7	72
TAP	33	48	1
TAP	33	72	1
HLD	33	96	7	72
TAP	33	120	2
TAP	33	144	2
HLD	33	192	7	72
TAP	33	216	3
TAP	33	264	1
HLD	33	288	7	72
TAP	33	336	0
TAP	34	0	1
HLD	34	0	7	72
TAP	34	48	0
TAP	34	72	0
HLD	34	96	7	72
TAP	34	120	2
TAP	34	144	2
HLD	34	192	7	72
TAP	34	216	3
TAP	34	264	1
STR	34	288	7
SI_	34	288	7	96	48	3
TAP	34	336	0
TAP	35	0	1
STR	35	0	7
SI_	35	0	7	96	48	5
TAP	35	48	2
TAP	35	72	2
STR	35	96	7
SI_	35	96	7	96	48	2
TAP	35	120	1
TAP	35	144	1
TAP	35	192	0
STR	35	192	7
SCL	35	192	7	96	48	4
TAP	35	240	3
TAP	35	264	3
STR	35	288	7
SI_	35	288	7	96	48	3
TAP	35	312	1
TAP	35	336	1
TAP	36	0	0
TAP	36	0	7
TAP	36	48	2
TAP	36	72	2
TAP	36	96	7
TAP	36	120	7
TAP	36	144	0
TAP	36	156	1
TAP	36	168	2
TAP	36	180	3
HLD	36	192	4	96
TAP	36	192	5
BRK	36	288	0
XTP	37	0	0
TAP	37	24	6
TAP	37	48	2
TAP	37	72	6
TAP	37	96	4
TAP	37	120	6
TAP	37	144	1
TAP	37	168	7
TAP	37	192	3
TAP	37	216	7
TAP	37	240	5
TAP	37	264	7
THO	37	288	0	48	C	0	M1
XTP	38	0	7
TAP	38	24	1
TAP	38	48	5
TAP	38	72	1
TAP	38	96	3
TAP	38	120	1
TAP	38	144	6
TAP	38	168	0
TAP	38	192	4
TAP	38	216	0
TAP	38	240	2
TAP	38	264	0
BRK	38	288	7
BRK	38	312	7
BRK	38	336	7
XTP	39	0	0
XTP	39	0	3
TAP	39	48	1
TAP	39	72	2
TAP	39	96	1
TAP	39	120	2
TAP	39	144	1
TAP	39	144	2
XTP	39	192	4
XTP	39	192	7
TAP	39	240	6
TAP	39	264	5
TAP	39	288	6
TAP	39	312	5
TAP	39	336	5
TAP	39	336	6
XTP	40	0	1
TAP	40	16	2
TAP	40	32	3
XTP	40	48	0
TAP	40	64	1
TAP	40	80	2
XTP	40	96	7
TAP	40	112	0
TAP	40	128	1
XTP	40	144	6
TAP	40	160	7
TAP	40	176	0
XTP	40	192	5
TAP	40	208	6
TAP	40	224	7
XTP	40	240	4
TAP	40	256	5
TAP	40	272	6
XTP	40	288	3
TAP	40	304	4
TAP	40	320	5
XTP	40	336	2
TAP	40	352	3
TAP	40	368	4
BRK	41	0	2
BST	41	0	5
SSR	41	0	5	96	96	1
HLD	41	192	0	96
TAP	41	288	7
HLD	42	0	5	72
HLD	42	0	6	72
TAP	42	96	5
TAP	42	96	6
TAP	42	144	6
TAP	42	168	5
TAP	42	192	6
TAP	42	216	5
TAP	42	240	6
TAP	42	264	5
HLD	42	288	6	48
TTP	42	336	0	B	0	M1
TTP	42	336	7	B	0	M1
HLD	43	0	3	48
TAP	43	0	4
HLD	43	72	2	48
TAP	43	72	3
TAP	43	144	1
TAP	43	144	2
TAP	43	192	3
HLD	43	192	4	48
TAP	43	264	4
HLD	43	264	5	48
TAP	43	336	5
TAP	43	336	6
HLD	44	0	0	48
TAP	44	0	7
TAP	44	72	0
HLD	44	72	1	48
TAP	44	144	1
TAP	44	144	2
STR	44	192	3
SI_	44	192	3	96	48	7
STR	44	192	4
SI_	44	192	4	96	48	0
HLD	45	0	6	72
HLD	45	72	4	72
TAP	45	144	3
HLD	45	192	1	72
HLD	45	264	3	72
TAP	45	336	4
TTP	46	0	5	B	0	M1
TTP	46	0	6	B	0	M1
TTP	46	48	0	B	0	M1
TTP	46	48	7	B	0	M1
TTP	46	96	1	B	0	M1
TTP	46	96	2	B	0	M1
TTP	46	144	3	B	0	M1
TTP	46	144	4	B	0	M1
TAP	46	192	6
TAP	46	216	6
TAP	46	240	7
TAP	46	264	7
TAP	46	288	0
TAP	46	312	0
BRK	46	336	1
TAP	47	0	0
HLD	47	0	7	48
HLD	47	72	6	48
TAP	47	72	7
TAP	47	144	5
TAP	47	144	6
HLD	47	192	0	48
TAP	47	192	7
TAP	47	264	0
HLD	47	264	1	48
TAP	47	336	1
TAP	47	336	2
TAP	48	0	3
HLD	48	0	6	48
HLD	48	72	5	48
TAP	48	72	6
TAP	48	144	4
TAP	48	144	5
STR	48	192	3
SI_	48	192	3	96	48	7
STR	48	192	4
SI_	48	192	4	96	48	0
BST	49	0	2
SXR	49	0	2	96	96	3
BST	49	0	6
SXR	49	0	6	96	192	7
TTP	49	288	0	C	0	M1
BRK	50	0	2
BRK	50	0	6
TAP	50	96	3
TAP	50	96	5
TAP	50	144	4
TAP	50	192	3
TAP	50	192	5
TAP	50	240	2
TAP	50	288	0
TAP	50	288	1
TAP	51	0	6
TAP	51	24	7
TAP	51	48	6
TAP	51	72	7
HLD	51	96	5	48
TAP	51	144	4
TAP	51	192	1
TAP	51	216	0
TAP	51	240	1
TAP	51	264	0
HLD	51	288	2	48
TAP	51	336	3
TAP	52	0	6
TAP	52	24	7
TAP	52	48	6
TAP	52	96	1
TAP	52	120	2
TAP	52	144	1
TAP	52	192	4
TAP	52	216	3
TAP	52	240	4
HLD	52	288	2	144
HLD	52	288	5	96
TAP	53	96	3
TAP	53	96	4
TAP	53	144	2
TAP	53	144	5
TAP	53	192	5
TAP	53	216	4
TAP	53	240	5
TAP	53	288	2
TAP	53	312	3
TAP	53	336	2
TAP	54	0	0
STR	54	0	7
SSR	54	0	7	96	96	3
HLD	54	192	1	48
HLD	54	240	3	48
HLD	54	288	5	48
BRK	54	336	7
XTP	55	0	0
XTP	55	0	5
STR	55	48	1
SI_	55	48	1	96	48	5
TAP	55	72	0
TAP	55	120	0
TAP	55	144	1
STR	55	192	7
SI_	55	192	7	96	48	3
TAP	55	216	0
TAP	55	264	0
TAP	55	288	7
HLD	55	336	1	24
XTP	56	0	2
XTP	56	0	7
STR	56	48	6
SI_	56	48	6	96	48	2
TAP	56	72	7
TAP	56	120	7
TAP	56	144	6
TAP	56	192	0
TAP	56	216	0
TAP	56	240	4
TAP	56	264	4
HLD	56	288	1	24
HLD	56	288	5	24
XHO	57	0	0	48
XHO	57	0	4	48
HLD	57	72	1	48
HLD	57	72	5	48
HLD	57	144	2	48
HLD	57	144	6	48
HLD	57	216	3	48
HLD	57	216	7	48
HLD	57	288	0	48
HLD	57	288	4	48
HLD	57	360	1	48
HLD	57	360	5	48
HLD	58	48	2	48
HLD	58	48	6	48
HLD	58	120	3	48
HLD	58	120	7	48
TAP	58	192	0
TAP	58	192	4
TAP	58	240	1
TAP	58	240	5
TAP	58	288	2
TAP	58	288	6
TAP	58	336	3
TAP	58	336	7
XTP	59	0	4
TAP	59	12	5
TAP	59	24	6
TAP	59	36	7
TAP	59	48	0
TAP	59	60	1
TAP	59	72	2
TAP	59	84	3
TAP	59	96	4
TAP	59	108	5
TAP	59	120	6
TAP	59	132	7
TAP	59	144	0
TAP	59	156	1
TAP	59	168	2
TAP	59	180	3
TAP	59	192	4
TAP	59	200	5
TAP	59	208	6
TAP	59	216	7
TAP	59	224	0
TAP	59	232	1
TAP	59	240	2
TAP	59	248	3
TAP	59	256	4
TAP	59	264	5
TAP	59	272	6
TAP	59	280	7
BRK	59	288	0
TTP	59	288	0	C	1	M1
XTP	60	0	1
XTP	60	0	6
TAP	60	168	2
TTP	60	168	5	B	0	M1
TTP	60	360	2	B	0	M1
TAP	60	360	4
TAP	61	168	3
TTP	61	168	5	E	0	M1
TTP	61	360	3	E	0	M1
TAP	61	360	4
TAP	62	192	3
TTP	62	192	4	E	0	M1
STR	63	0	4
SI_	63	0	4	96	48	0
BRK	63	192	7
XTP	64	0	0
XTP	64	0	6
TAP	64	48	2
TAP	64	72	3
TAP	64	96	1
TAP	64	120	0
TAP	64	144	1
TAP	64	168	2
TAP	64	168	7
TAP	64	216	4
TAP	64	240	3
TAP	64	264	5
TAP	64	288	7
TAP	64	312	6
TAP	64	336	7
TAP	64	360	0
TAP	64	360	5
TAP	65	24	1
TAP	65	48	0
TAP	65	72	2
TAP	65	96	4
TAP	65	120	3
TAP	65	144	5
TAP	65	168	4
TAP	65	168	6
TAP	65	216	7
TAP	65	240	0
TAP	65	264	6
TAP	65	288	3
TAP	65	312	4
XTP	65	360	1
XTP	65	360	6
TAP	66	48	3
TAP	66	72	4
TAP	66	96	0
TAP	66	120	5
TAP	66	144	4
TAP	66	168	5
TAP	66	192	6
TAP	66	216	5
TAP	66	240	4
TAP	66	264	5
TAP	66	288	3
TAP	66	312	4
XTP	66	360	1
XTP	66	360	6
TAP	67	48	4
TAP	67	72	3
TAP	67	96	7
TAP	67	120	2
TAP	67	144	3
TAP	67	168	1
TAP	67	192	5
TAP	67	208	6
TAP	67	224	7
TAP	67	240	0
TAP	67	256	1
TAP	67	272	2
TAP	67	288	3
TAP	67	288	5
TAP	67	304	6
TAP	67	320	7
TAP	67	336	0
TAP	67	352	1
TAP	67	368	2
XTP	68	0	3
XTP	68	0	4
TAP	68	48	7
STR	68	96	5
SI_	68	96	5	96	48	7
TAP	68	120	4
TAP	68	144	6
TAP	68	168	4
TAP	68	192	5
TAP	68	240	0
HLD	68	264	0	48
TAP	68	336	1
TAP	68	336	6
TAP	69	0	3
TAP	69	0	4
TTP	69	48	0	B	0	M1
TTP	69	48	1	E	0	M1
TAP	69	96	3
TAP	69	120	4
TTP	69	144	2	B	0	M1
TTP	69	144	3	E	0	M1
TAP	69	192	3
TAP	69	192	4
TTP	69	240	1	B	0	M1
TTP	69	240	2	E	0	M1
TAP	69	264	4
TAP	69	288	3
TAP	69	312	4
TTP	69	336	0	B	0	M1
TTP	69	336	1	E	0	M1
XTP	70	0	4
XTP	70	0	5
TAP	70	48	7
TAP	70	96	2
TAP	70	96	6
TAP	70	120	1
TAP	70	120	5
TAP	70	144	0
TAP	70	144	4
TAP	70	168	3
TAP	70	168	7
HLD	70	192	2	48
HLD	70	192	6	48
HLD	70	264	0	48
HLD	70	264	4	48
TAP	70	336	1
TAP	70	336	5
TAP	71	0	2
TAP	71	24	4
TAP	71	48	3
HLD	71	72	5	72
TAP	71	120	7
TAP	71	144	7
STR	71	192	0
SI_	71	192	0	96	48	3
STR	71	240	7
SI_	71	240	7	96	48	4
TTP	71	288	1	E	0	M1
TTP	71	300	1	B	0	M1
TTP	71	312	2	B	0	M1
TTP	71	324	3	E	0	M1
TTP	71	336	7	E	0	M1
TTP	71	348	6	B	0	M1
TTP	71	360	5	B	0	M1
TTP	71	372	5	E	0	M1
XTP	72	0	3
TAP	72	48	0
STR	72	96	2
SI_	72	96	2	96	48	0
TAP	72	120	3
TAP	72	144	1
TAP	72	168	3
TAP	72	192	2
TAP	72	240	7
HLD	72	264	7	48
TAP	72	336	1
TAP	72	336	6
TAP	73	0	3
TAP	73	0	4
TTP	73	48	7	E	0	M1
TTP	73	48	7	B	0	M1
TAP	73	96	4
TAP	73	120	3
TTP	73	144	5	E	0	M1
TTP	73	144	5	B	0	M1
TAP	73	192	3
TAP	73	192	4
TTP	73	240	6	B	0	M1
TTP	73	240	6	E	0	M1
TAP	73	264	3
TAP	73	288	4
TAP	73	312	3
TTP	73	336	7	E	0	M1
TTP	73	336	7	B	0	M1
BRK	74	0	2
BRK	74	0	3
TAP	74	48	0
TAP	74	96	1
TAP	74	96	5
TAP	74	120	2
TAP	74	120	6
TAP	74	144	3
TAP	74	144	7
TAP	74	168	0
TAP	74	168	4
HLD	74	192	1	48
HLD	74	192	5	48
HLD	74	264	3	48
HLD	74	264	7	48
TAP	74	336	2
TAP	74	336	6
BRK	75	0	4
BRK	75	0	5
TAP	75	48	7
TAP	75	96	2
TAP	75	96	6
TAP	75	120	1
TAP	75	120	5
TAP	75	144	0
TAP	75	144	4
TAP	75	168	3
TAP	75	168	7
HLD	75	192	2	48
HLD	75	192	6	48
HLD	75	264	0	48
HLD	75	264	4	48
TAP	75	336	1
TAP	75	336	5
XHO	76	0	4	48
XHO	76	0	7	48
XHO	76	72	2	48
XHO	76	72	5	48
TAP	76	144	1
TAP	76	144	4
XHO	76	192	0	48
XHO	76	192	3	48
XHO	76	264	2	48
XHO	76	264	5	48
TAP	76	336	3
TAP	76	336	6
TAP	77	0	3
TAP	77	0	4
TAP	77	16	2
TAP	77	32	1
TAP	77	48	0
TAP	77	64	7
TAP	77	80	6
TAP	77	96	2
TAP	77	96	5
TAP	77	112	1
TAP	77	128	0
TAP	77	144	7
TAP	77	160	6
TAP	77	176	5
TAP	77	192	3
TAP	77	192	4
TAP	77	208	2
TAP	77	224	1
TAP	77	240	0
TAP	77	256	7
TAP	77	272	6
TAP	77	288	2
TAP	77	288	5
TAP	77	304	1
TAP	77	320	0
TAP	77	336	7
TAP	77	352	6
TAP	77	368	5
TAP	78	0	0
STR	78	0	4
SF_	78	0	4	96	144	0
BRK	78	288	2
BRK	78	288	6
XHO	79	0	0	72
XTP	79	0	7
TAP	79	48	6
TAP	79	72	6
HLD	79	96	0	72
TAP	79	120	5
TAP	79	144	5
HLD	79	192	0	72
TAP	79	216	4
TAP	79	264	6
HLD	79	288	0	72
TAP	79	336	7
HLD	80	0	0	72
TAP	80	0	6
TAP	80	48	7
TAP	80	72	7
HLD	80	96	0	72
TAP	80	120	5
TAP	80	144	5
HLD	80	192	0	72
TAP	80	216	4
TAP	80	264	6
STR	80	288	0
SI_	80	288	0	96	48	4
TAP	80	336	7
STR	81	0	0
SI_	81	0	0	96	48	2
TAP	81	0	6
TAP	81	48	5
TAP	81	72	5
STR	81	96	0
SI_	81	96	0	96	48	5
TAP	81	120	6
TAP	81	144	6
STR	81	192	0
SCR	81	192	0	96	48	3
TAP	81	192	7
TAP	81	240	6
TAP	81	264	6
STR	81	288	0
SI_	81	288	0	96	48	4
TAP	81	312	4
TAP	81	336	4
TAP	82	0	0
TAP	82	0	7
TAP	82	48	5
TAP	82	72	5
TAP	82	96	0
TAP	82	120	0
TAP	82	144	7
TAP	82	156	6
TAP	82	168	5
TAP	82	180	4
TAP	82	192	2
HLD	82	192	3	96
BRK	82	288	0
STR	83	0	3
SI_	83	0	3	96	48	7
STR	83	0	4
SI_	83	0	4	96	48	0
BRK	83	96	3
BRK	83	96	4
TAP	83	192	1
TAP	83	216	1
TAP	83	240	2
TAP	83	264	2
TAP	83	288	3
TAP	83	312	3
TAP	83	336	5
TAP	83	348	4
TAP	83	360	3
TAP	83	372	2
TAP	84	0	0
TAP	84	24	0
TAP	84	48	1
TAP	84	72	1
TAP	84	96	2
TAP	84	120	2
TAP	84	144	6
TAP	84	168	6
TAP	84	192	5
TAP	84	216	5
TAP	84	240	4
TAP	84	264	4
TAP	84	288	1
TAP	84	300	2
TAP	84	312	3
TAP	84	324	4
TAP	84	336	7
TAP	84	348	6
TAP	84	360	5
TAP	84	372	4
TAP	85	0	1
TAP	85	24	1
TAP	85	48	2
TAP	85	72	2
TAP	85	96	3
TAP	85	120	3
TAP	85	144	4
TAP	85	156	5
TAP	85	168	6
TAP	85	180	7
TAP	85	192	3
TAP	85	216	3
TAP	85	240	4
TAP	85	264	4
TAP	85	288	5
TAP	85	312	5
TAP	85	336	7
TAP	85	348	6
TAP	85	360	5
TAP	85	372	4
TAP	86	0	0
TAP	86	24	0
TAP	86	48	2
TAP	86	72	2
TAP	86	96	4
TAP	86	120	4
TAP	86	144	6
TAP	86	168	6
TAP	86	192	1
TAP	86	204	2
TAP	86	216	3
TAP	86	228	4
TAP	86	240	0
TAP	86	252	7
TAP	86	264	6
TAP	86	276	5
TAP	86	288	2
TAP	86	300	3
TAP	86	312	4
TAP	86	324	5
TAP	86	336	6
TAP	86	348	7
TAP	86	360	0
TAP	86	372	1
STR	87	0	2
SI_	87	0	2	96	48	7
STR	87	0	6
SI_	87	0	6	96	48	3
TTP	87	96	0	C	1	M1
XST	87	96	2
SUR	87	96	2	96	1152	4
XST	87	96	6
SUR	87	96	6	96	1152	0
TAP	91	0	1
TAP	91	16	4
TAP	91	32	3
TAP	91	48	6
TAP	91	64	0
TAP	91	80	5
TAP	91	96	2
TAP	91	112	7
TAP	91	128	1
TAP	91	144	4
TAP	91	160	3
TAP	91	176	6
STR	91	192	0
SCL	91	192	0	96	84	0
TAP	91	204	1
TAP	91	216	2
TAP	91	228	3
TAP	91	240	4
TAP	91	252	5
TAP	91	264	6
TAP	91	276	7
TTP	91	288	0	E	0	M1
TTP	91	300	7	E	0	M1
TTP	91	312	6	E	0	M1
TTP	91	324	5	E	0	M1
TTP	91	336	4	E	0	M1
TTP	91	348	3	E	0	M1
TTP	91	360	2	E	0	M1
TTP	91	372	1	E	0	M1
TTP	92	0	0	E	0	M1
TTP	92	0	0	C	1	M1

T_REC_TAP	703
T_REC_BRK	30
T_REC_XTP	57
T_REC_HLD	80
T_REC_XHO	13
T_REC_STR	35
T_REC_BST	3
T_REC_XST	4
T_REC_TTP	144
T_REC_THO	3
T_REC_SLD	43
T_REC_ALL	1115
T_NUM_TAP	943
T_NUM_BRK	33
T_NUM_HLD	96
T_NUM_SLD	43
T_NUM_ALL	1115
T_JUDGE_TAP	976
T_JUDGE_HLD	136
T_JUDGE_SLD	43
T_JUDGE_ALL	1155
TTM_EACHPAIRS	148
TTM_SCR_TAP	471500
TTM_SCR_BRK	85800
TTM_SCR_HLD	96000
TTM_SCR_SLD	64500
TTM_SCR_ALL	717800
TTM_SCR_S	693100
TTM_SCR_SS	714500
TTM_RAT_ACV	10046

