VERSION	0.00.00	1.03.00
FES_MODE	0
BPM_DEF	160.000	160.000	160.000	160.000
MET_DEF	4	4
RESOLUTION	384
CLK_DEF	384
COMPATIBLE_CODE	MA2

BPM	0	0	160.000
MET	0	0	4	4

THO	1	0	0	288	C	0	M1
BRK	2	0	0
BRK	2	0	7
TAP	2	144	2
HLD	2	192	2	192
TAP	2	336	3
STR	3	0	3
SI_	3	0	3	96	144	6
TAP	3	288	0
TAP	3	336	0
TAP	4	0	0
TAP	4	144	5
HLD	4	192	5	192
TAP	4	336	4
STR	5	0	4
SCL	5	0	4	96	96	1
THO	5	192	0	96	C	0	M1
XTP	6	0	0
XTP	6	0	7
TAP	6	144	1
HLD	6	192	1	192
TAP	6	336	0
STR	7	0	0
SCL	7	0	0	96	144	4
TAP	7	288	3
TAP	7	336	3
HLD	8	0	3	144
TAP	8	144	4
TAP	8	192	3
TAP	8	192	4
TAP	8	288	0
TAP	8	288	7
XHO	9	0	1	72
TAP	9	0	4
HLD	9	72	2	72
HLD	9	144	3	72
TAP	9	216	4
TAP	9	288	5
TAP	9	336	5
TAP	10	0	4
HLD	10	0	6	72
HLD	10	72	5	72
HLD	10	144	4	72
TAP	10	216	3
TAP	10	288	1
TAP	10	288	6
TAP	11	0	5
TAP	11	48	5
TAP	11	72	4
TAP	11	144	3
TAP	11	144	6
TAP	11	192	2
TAP	11	240	2
TAP	11	264	3
TAP	11	336	1
TAP	11	336	4
STR	12	0	1
SI_	12	0	1	96	48	7
TAP	12	0	4
STR	12	96	6
SI_	12	96	6	96	48	2
TAP	12	192	0
XTP	12	288	1
XTP	12	288	7
TAP	13	0	5
TAP	13	48	5
TAP	13	72	4
TAP	13	120	4
TAP	13	144	6
TAP	13	192	4
TAP	13	192	6
TTP	13	288	0	E	0	M1
TTP	13	288	1	E	0	M1
TTP	13	288	7	E	0	M1
TAP	14	0	2
TAP	14	48	2
TAP	14	72	3
TAP	14	120	3
TAP	14	144	1
THO	14	192	0	96	C	0	M1
TAP	15	0	6
TAP	15	48	6
TAP	15	72	7
TAP	15	120	7
TAP	15	144	5
TAP	15	192	1
TAP	15	240	1
TAP	15	264	0
TAP	15	312	0
TAP	15	336	2
TAP	16	0	2
HLD	16	0	7	72
HLD	16	72	5	72
TAP	16	144	4
BRK	16	192	3
BRK	16	192	6
STR	17	0	0
SUR	17	0	0	96	288	3
STR	18	0	5
SUR	18	0	5	96	288	0
STR	19	0	2
SUR	19	0	2	96	288	5
THO	20	0	0	192	C	0	M1
TTP	21	0	1	E	0	M1
TTP	21	0	1	B	0	M1
TTP	21	0	2	B	0	M1
TTP	21	0	3	E	0	M1
TTP	21	192	4	B	0	M1
TTP	21	192	4	E	0	M1
TTP	21	192	5	B	0	M1
TTP	21	192	6	E	0	M1
TTP	22	0	0	E	0	M1
TTP	22	96	4	E	0	M1
TTP	22	192	0	C	0	M1
TTP	23	0	7	E	0	M1
TTP	23	96	0	C	0	M1
TTP	23	192	3	E	0	M1
TTP	23	288	2	E	0	M1
TTP	24	0	1	E	0	M1
TTP	24	96	0	C	0	M1
TTP	24	192	3	B	0	M1
TTP	24	192	4	B	0	M1
TTP	24	192	5	B	0	M1
TTP	24	192	6	B	0	M1
HLD	25	0	1	96
HLD	25	0	7	96
BRK	25	192	0
HLD	26	0	1	72
HLD	26	72	2	72
TAP	26	144	3
HLD	26	192	6	72
HLD	26	264	5	72
TAP	26	336	4
STR	27	0	2
SI_	27	0	2	96	48	4
TAP	27	0	3
STR	27	96	5
SI_	27	96	5	96	48	1
TAP	27	192	0
TAP	27	240	0
TAP	27	288	0
STR	28	0	6
SI_	28	0	6	96	48	0
TAP	28	0	7
STR	28	96	1
SI_	28	96	1	96	48	5
TAP	28	192	4
TAP	28	240	4
TAP	28	288	4
STR	29	0	4
SI_	29	0	4	96	48	1
TAP	29	0	5
TAP	29	96	7
TAP	29	192	0
TAP	29	192	6
TAP	29	288	2
TAP	29	288	4
TAP	30	0	3
TAP	30	32	3
TAP	30	64	3
TAP	30	96	5
TAP	30	128	5
TAP	30	160	5
XTP	30	192	4
XTP	30	192	6
TAP	30	288	0
STR	31	0	7
SCL	31	0	7	96	96	4
TAP	31	96	1
STR	31	192	2
SCL	31	192	2	96	96	7
THO	31	288	0	288	C	0	M1
BRK	32	288	0
BRK	32	288	7
STR	33	0	1
SI_	33	0	1	96	48	5
TAP	33	0	6
STR	33	96	4
SI_	33	96	4	96	48	7
TAP	33	192	0
TAP	33	288	0
TAP	33	288	1
TAP	33	336	2
TAP	33	336	7
TAP	34	0	3
STR	34	0	6
SI_	34	0	6	96	48	3
STR	34	96	2
SI_	34	96	2	96	48	6
TAP	34	192	7
XTP	34	288	0
XTP	34	288	5
HLD	35	0	1	72
TAP	35	0	3
TAP	35	72	0
TAP	35	144	2
TAP	35	144	7
TAP	35	192	4
HLD	35	192	6	72
TAP	35	264	7
TAP	35	336	0
TAP	35	336	5
HLD	36	0	1	72
TAP	36	0	3
TAP	36	72	0
TAP	36	144	2
TAP	36	144	7
TAP	36	192	2
STR	36	192	7
SI_	36	192	7	96	48	4
BRK	36	288	0
XHO	37	0	1	48
XHO	37	0	3	48
HLD	37	72	2	48
HLD	37	72	4	48
HLD	37	144	3	48
HLD	37	144	5	48
HLD	37	216	4	48
HLD	37	216	6	48
XTP	37	288	7
HLD	38	0	4	48
HLD	38	0	6	48
HLD	38	72	3	48
HLD	38	72	5	48
HLD	38	144	2	48
HLD	38	144	4	48
HLD	38	216	1	48
HLD	38	216	3	48
XTP	38	288	0
XTP	39	0	2
TAP	39	24	3
TAP	39	48	2
TAP	39	72	3
TAP	39	96	2
TAP	39	120	3
TAP	39	144	2
XTP	39	192	6
TAP	39	216	5
TAP	39	240	6
TAP	39	264	5
TAP	39	288	6
TAP	39	312	5
TAP	39	336	6
XTP	40	0	0
XST	40	0	7
SCL	40	0	7	96	144	0
XTP	40	288	2
XTP	40	288	5
BST	41	0	0
SI_	41	0	0	96	48	4
TAP	41	0	7
HLD	41	192	5	96
TAP	41	288	4
HLD	42	0	6	96
TAP	42	96	4
TAP	42	144	4
TAP	42	192	5
TAP	42	288	5
TAP	42	288	6
STR	43	0	6
SI_	43	0	6	96	48	0
TAP	43	72	0
TAP	43	144	1
STR	43	192	2
SI_	43	192	2	96	48	5
TAP	43	264	5
TAP	43	336	6
XHO	44	0	6	72
TAP	44	72	7
TAP	44	144	0
TAP	44	144	7
TAP	44	192	0
TAP	44	192	7
TAP	44	288	1
TAP	44	288	6
STR	45	0	2
SI_	45	0	2	96	48	4
TAP	45	72	4
TAP	45	144	5
STR	45	192	6
SI_	45	192	6	96	48	2
TAP	45	264	2
TAP	45	336	1
XHO	46	0	1	96
TAP	46	96	0
TAP	46	144	7
TAP	46	192	4
TAP	46	192	6
TAP	46	240	3
TAP	46	240	5
TAP	46	288	2
TAP	46	288	4
HLD	47	0	1	72
TAP	47	0	3
TAP	47	72	0
TAP	47	144	2
TAP	47	144	7
STR	47	192	2
SI_	47	192	2	96	48	5
TAP	47	192	7
TAP	47	288	5
HLD	48	0	6	72
TAP	48	72	7
TAP	48	144	0
TAP	48	144	5
XST	48	192	0
SI_	48	192	0	96	48	4
TAP	48	192	5
XST	48	288	4
SCR	48	288	4	96	288	3
TAP	50	0	1
TAP	50	0	6
TAP	50	96	2
TAP	50	96	3
TAP	50	144	3
TAP	50	144	4
BRK	50	192	4
BRK	50	192	5
TAP	50	288	3
TAP	50	288	6
STR	51	0	5
SCL	51	0	5	96	48	2
TAP	51	72	2
TAP	51	144	1
HLD	51	192	1	72
TAP	51	264	0
TAP	51	336	2
TAP	51	336	7
XTP	52	0	2
XTP	52	0	7
TAP	52	48	3
TAP	52	96	4
TAP	52	144	5
TAP	52	192	0
TAP	52	192	5
HLD	52	288	3	96
HLD	52	288	4	144
BRK	53	96	2
BRK	53	96	5
TAP	53	192	0
TAP	53	192	1
TAP	53	240	0
TAP	53	240	7
TAP	53	288	6
TAP	53	288	7
STR	54	0	0
SSL	54	0	0	96	96	4
TAP	54	0	5
STR	54	192	6
SI_	54	192	6	96	48	2
XTP	54	288	2
TAP	55	0	1
TAP	55	48	1
TAP	55	72	0
TAP	55	120	0
TAP	55	144	2
HLD	55	192	2	48
HLD	55	192	7	48
TAP	55	288	0
TAP	55	288	1
TAP	56	0	6
TAP	56	48	6
TAP	56	72	7
TAP	56	120	7
TAP	56	144	5
STR	56	192	0
SI_	56	192	0	96	48	4
HLD	56	192	5	96
HLD	57	0	7	48
HLD	57	72	4	48
HLD	57	72	6	48
HLD	57	144	3	48
HLD	57	144	5	48
HLD	57	216	2	48
HLD	57	216	4	48
HLD	57	288	1	48
HLD	57	288	3	48
HLD	57	360	0	48
HLD	58	48	1	48
HLD	58	48	3	48
HLD	58	120	2	48
HLD	58	120	4	48
TAP	58	192	3
TAP	58	240	3
TAP	58	288	3
TAP	58	336	3
TAP	59	0	2
TAP	59	24	4
TAP	59	48	2
TAP	59	72	4
TAP	59	96	1
TAP	59	120	5
TAP	59	144	1
TAP	59	168	5
TAP	59	192	0
TAP	59	216	6
TAP	59	240	0
TAP	59	264	6
BRK	59	288	7
TTP	60	0	6	B	0	M1
TTP	60	0	7	E	0	M1
TTP	60	168	3	B	0	M1
TTP	60	168	3	E	0	M1
TTP	60	360	5	E	0	M1
TTP	60	360	5	B	0	M1
TTP	61	168	3	B	0	M1
TTP	61	168	3	E	0	M1
TTP	61	372	4	B	0	M1
TTP	61	372	5	B	0	M1
TTP	62	192	1	B	0	M1
TTP	62	192	2	B	0	M1
THO	63	0	0	192	C	0	M1
TAP	64	0	0
TAP	64	0	7
TAP	64	48	1
TAP	64	48	6
TAP	64	96	2
HLD	64	96	5	72
TAP	64	168	4
TAP	64	240	4
TAP	64	240	6
TAP	64	288	7
TAP	64	336	0
TAP	65	0	1
TAP	65	0	4
TAP	65	48	2
TAP	65	48	5
TAP	65	96	3
HLD	65	96	6	72
TAP	65	168	7
TAP	65	240	0
TAP	65	240	5
STR	65	288	0
SCR	65	288	0	96	48	3
TAP	65	288	5
XHO	65	360	7	72
TAP	66	96	7
TAP	66	144	0
TAP	66	192	1
TAP	66	240	2
STR	66	288	3
SCL	66	288	3	96	48	0
TAP	66	288	6
XHO	66	360	4	72
TAP	67	96	4
TAP	67	144	5
TAP	67	192	0
TAP	67	192	6
TAP	67	288	3
TAP	67	288	4
BRK	68	0	1
BRK	68	0	6
TAP	68	48	1
TAP	68	72	3
TAP	68	120	3
TAP	68	144	0
TAP	68	192	0
TAP	68	192	6
TAP	68	240	6
TAP	68	264	4
TAP	68	312	4
TAP	68	336	5
STR	69	0	0
SI_	69	0	0	96	48	4
TAP	69	48	0
STR	69	96	6
SI_	69	96	6	96	48	2
TAP	69	144	6
TAP	69	192	3
TAP	69	288	1
TAP	69	288	4
XTP	70	0	0
XTP	70	0	6
TAP	70	48	6
TAP	70	72	4
TAP	70	120	4
TAP	70	144	7
TAP	70	192	1
TAP	70	192	7
TAP	70	240	1
TAP	70	264	3
TAP	70	312	3
TAP	70	336	2
STR	71	0	2
SI_	71	0	2	96	48	7
STR	71	0	5
SI_	71	0	5	96	48	0
TAP	71	192	1
TAP	71	192	6
TAP	71	240	2
TAP	71	240	5
BRK	71	288	3
BRK	71	288	4
XTP	72	0	2
XTP	72	0	5
TAP	72	48	2
TAP	72	72	0
TAP	72	120	0
TAP	72	144	3
TAP	72	192	3
TAP	72	192	5
TAP	72	240	5
TAP	72	264	7
TAP	72	312	7
TAP	72	336	6
STR	73	0	2
SI_	73	0	2	96	48	6
TAP	73	48	2
STR	73	96	4
SI_	73	96	4	96	48	0
TAP	73	144	4
TAP	73	192	1
TAP	73	288	2
TAP	73	288	6
XST	74	0	7
SI_	74	0	7	96	48	3
TAP	74	48	7
STR	74	96	2
SI_	74	96	2	96	48	6
TAP	74	144	2
TAP	74	192	4
XTP	74	288	0
XTP	74	288	5
XST	75	0	1
SI_	75	0	1	96	48	5
TAP	75	48	1
STR	75	96	4
SI_	75	96	4	96	48	0
TAP	75	144	4
TAP	75	192	2
TAP	75	288	1
TAP	75	288	6
XTP	76	0	6
TAP	76	24	7
TAP	76	48	6
TAP	76	72	7
TAP	76	96	6
TAP	76	120	7
TAP	76	144	5
XTP	76	192	2
TAP	76	216	3
TAP	76	240	2
TAP	76	264	3
STR	76	288	2
SCR	76	288	2	96	288	0
TAP	76	312	3
TAP	76	336	1
TTP	77	0	0	C	1	M1
HLD	78	0	7	288
TAP	79	0	3
STR	79	0	6
SCL	79	0	6	96	96	3
TAP	79	96	2
TAP	79	192	1
TAP	79	288	1
TAP	79	336	1
STR	80	0	0
SCL	80	0	0	96	96	5
TAP	80	0	1
TAP	80	96	2
TAP	80	192	3
TAP	80	288	4
TAP	80	336	4
STR	81	0	2
SCL	81	0	2	96	96	7
TAP	81	0	4
TAP	81	96	5
TAP	81	192	6
TAP	81	288	6
TAP	81	336	6
HLD	82	0	1	96
HLD	82	0	7	96
TAP	82	192	1
TAP	82	192	7
TAP	82	288	2
TAP	82	288	6
TAP	83	0	3
TAP	83	0	4
BRK	83	96	2
BRK	83	96	4
TAP	83	144	1
TAP	83	192	0
TAP	83	192	5
TAP	83	240	0
TAP	83	240	5
TAP	83	288	6
TAP	83	312	7
TAP	83	336	6
TAP	84	0	6
TAP	84	0	7
TAP	84	48	0
TAP	84	96	1
TAP	84	144	2
TAP	84	192	3
TAP	84	192	6
TAP	84	240	3
TAP	84	240	6
TAP	84	288	5
TAP	84	312	4
TAP	84	336	5
TAP	85	0	2
TAP	85	24	3
TAP	85	48	2
TAP	85	72	3
TAP	85	96	1
XTP	85	144	0
XTP	85	144	1
TAP	85	192	6
TAP	85	216	7
TAP	85	240	6
TAP	85	264	7
TAP	85	288	5
XTP	85	336	4
XTP	85	336	5
XTP	86	0	3
TAP	86	24	4
TAP	86	48	3
TAP	86	72	4
TAP	86	96	2
TAP	86	120	5
TAP	86	144	2
TAP	86	168	5
TAP	86	192	1
TAP	86	216	6
TAP	86	240	1
TAP	86	264	6
TAP	86	288	0
TAP	86	312	7
TAP	86	336	0
TAP	86	360	7
XTP	87	0	1
XTP	87	0	6
TTP	87	96	0	C	1	M1
TTP	87	96	1	B	0	M1
TTP	87	96	2	E	0	M1
TTP	87	96	6	B	0	M1
TTP	87	96	6	E	0	M1
TAP	88	0	7
TAP	88	192	6
TAP	89	0	5
TAP	89	192	4
TAP	90	0	3
TAP	90	192	3
TAP	90	192	4
TAP	90	288	0
TAP	90	288	7
BRK	91	0	1
BRK	91	0	6
TAP	91	24	2
TAP	91	48	3
TAP	91	72	4
TAP	91	96	5
TAP	91	120	6
TAP	91	144	7
TAP	91	168	0
TAP	91	192	1
TAP	91	216	2
TAP	91	240	3
TAP	91	264	4
TAP	91	288	5
TAP	91	312	6
TAP	91	336	7
TAP	91	360	0
TTP	92	0	0	C	1	M1
XTP	92	0	1

T_REC_TAP	393
T_REC_BRK	21
T_REC_XTP	34
T_REC_HLD	63
T_REC_XHO	7
T_REC_STR	43
T_REC_BST	1
T_REC_XST	5
T_REC_TTP	43
T_REC_THO	6
T_REC_SLD	49
T_REC_ALL	665
T_NUM_TAP	518
T_NUM_BRK	22
T_NUM_HLD	76
T_NUM_SLD	49
T_NUM_ALL	665
T_JUDGE_TAP	540
T_JUDGE_HLD	144
T_JUDGE_SLD	49
T_JUDGE_ALL	733
TTM_EACHPAIRS	125
TTM_SCR_TAP	259000
TTM_SCR_BRK	57200
TTM_SCR_HLD	76000
TTM_SCR_SLD	73500
TTM_SCR_ALL	465700
TTM_SCR_S	449600
TTM_SCR_SS	463500
TTM_RAT_ACV	10047

