VERSION	0.00.00	1.03.00
FES_MODE	0
BPM_DEF	160.000	160.000	160.000	160.000
MET_DEF	4	4
RESOLUTION	384
CLK_DEF	384
COMPATIBLE_CODE	MA2

BPM	0	0	160.000
MET	0	0	4	4

HLD	2	0	2	384
HLD	3	0	3	384
HLD	4	0	4	384
TAP	5	0	5
XTP	5	192	4
XTP	5	192	5
TAP	6	0	4
HLD	6	0	5	384
HLD	7	0	4	384
THO	8	0	0	192	C	0	L1
XTP	9	0	0
TAP	9	96	0
TAP	9	192	1
TAP	9	288	2
TAP	9	288	3
TAP	10	0	4
TAP	10	96	5
TAP	10	192	4
TAP	10	192	6
TAP	11	0	7
TAP	11	96	7
TAP	11	192	6
TAP	11	288	4
TAP	11	288	5
TAP	12	0	3
TAP	12	96	2
TAP	12	192	1
TAP	12	192	3
TAP	13	0	1
TAP	13	96	1
XTP	13	192	1
XTP	13	192	7
TAP	14	0	6
TAP	14	96	6
XTP	14	192	0
XTP	14	192	6
TAP	15	0	5
TAP	15	96	4
TAP	15	192	2
TAP	15	288	3
HLD	16	0	3	96
HLD	16	0	4	96
XTP	16	192	2
XTP	16	192	5
TTP	17	0	3	E	0	L1
TTP	17	192	1	B	0	L1
TTP	17	192	2	E	0	L1
TTP	18	0	5	E	0	L1
TTP	18	192	6	B	0	L1
TTP	18	192	6	E	0	L1
TTP	19	0	4	E	0	L1
TTP	19	192	3	E	0	L1
TTP	19	192	5	E	0	L1
THO	20	0	0	192	C	0	L1
TTP	21	0	6	B	0	L1
TTP	21	0	7	E	0	L1
TTP	21	192	1	B	0	L1
TTP	21	192	2	B	0	L1
TTP	22	0	0	B	0	L1
TTP	22	96	0	C	0	L1
TTP	22	192	4	B	0	L1
TTP	23	0	5	B	0	L1
TTP	23	0	5	E	0	L1
TTP	23	192	1	B	0	L1
TTP	23	192	2	B	0	L1
THO	24	0	0	384	C	0	L1
XTP	25	192	0
XTP	25	192	7
BRK	25	288	0
BRK	25	288	7
TAP	26	0	1
TAP	26	96	2
TAP	26	192	3
TAP	26	192	4
TAP	26	288	2
TAP	26	288	5
TAP	27	0	6
TAP	27	96	7
TAP	27	192	0
TAP	27	192	7
TAP	27	288	1
TAP	27	288	6
TAP	28	0	2
TAP	28	96	3
TAP	28	192	1
TAP	28	192	4
TAP	29	0	5
TAP	29	96	4
TAP	29	192	3
TAP	29	192	6
XTP	30	0	0
XTP	30	0	7
XTP	30	96	1
XTP	30	96	6
BRK	30	192	2
BRK	30	192	5
TAP	31	0	4
TAP	31	96	5
TAP	31	192	3
STR	31	288	2
SCL	31	288	2	96	240	5
XTP	33	0	4
TAP	33	96	3
TAP	33	96	5
TAP	33	192	6
TAP	33	240	6
TAP	33	288	6
TAP	34	0	6
TAP	34	0	7
TAP	34	96	0
TAP	34	96	5
TAP	34	192	1
TAP	34	192	4
HLD	35	0	5	96
TAP	35	96	4
HLD	35	192	1	96
TAP	35	288	3
HLD	36	0	6	96
TAP	36	96	7
BRK	36	192	0
BRK	36	192	5
TAP	37	0	2
TAP	37	0	3
TAP	37	96	2
TAP	37	96	3
HLD	37	192	1	96
HLD	37	192	4	96
TAP	38	0	4
TAP	38	0	5
TAP	38	96	4
TAP	38	96	5
HLD	38	192	3	96
HLD	38	192	6	96
TAP	39	0	5
TAP	39	48	5
TAP	39	96	5
TAP	39	192	3
TAP	39	240	3
TAP	39	288	3
TAP	40	0	3
TAP	40	0	4
TAP	40	96	2
TAP	40	96	5
XTP	40	192	1
XTP	40	192	6
BST	41	0	0
SXL	41	0	0	96	288	5
TAP	42	192	6
TAP	42	288	6
STR	43	0	7
SXR	43	0	7	96	288	2
TAP	44	192	0
TAP	44	192	1
STR	45	0	2
SCL	45	0	2	96	144	7
TAP	45	192	6
TAP	45	288	6
STR	46	0	6
SCL	46	0	6	96	120	3
TAP	46	192	1
TAP	46	288	1
STR	47	0	0
SUR	47	0	0	96	120	4
TAP	47	192	5
TAP	47	288	5
STR	48	0	4
SUL	48	0	4	96	216	3
HLD	49	0	1	288
HLD	49	0	6	288
TAP	50	0	0
TAP	50	96	1
TAP	50	96	7
XTP	50	192	2
XTP	50	192	6
STR	51	0	5
SI_	51	0	5	96	72	3
STR	51	192	2
SI_	51	192	2	96	72	0
TAP	52	0	7
TAP	52	96	6
TAP	52	192	4
TAP	52	192	5
STR	53	0	2
SI_	53	0	2	96	96	4
STR	53	192	5
SI_	53	192	5	96	96	7
TAP	54	0	0
TAP	54	96	1
TAP	54	192	2
TAP	54	192	4
TAP	55	0	5
TAP	55	48	5
TAP	55	96	4
TAP	55	192	3
TAP	55	192	6
TAP	56	0	2
TAP	56	48	2
TAP	56	96	3
TAP	56	192	1
TAP	56	192	4
TAP	57	0	0
TAP	57	96	1
TAP	57	192	2
TAP	57	288	3
TAP	58	0	4
TAP	58	96	5
TAP	58	192	6
XST	58	288	7
SI_	58	288	7	96	144	2
SI_	58	288	7	96	144	4
BRK	59	288	1
BRK	59	288	5
HLD	60	0	1	192
HLD	60	192	2	192
TAP	61	0	3
TAP	61	192	3
TAP	61	192	4
HLD	62	0	5	192
HLD	62	192	4	192
THO	63	0	0	192	C	0	L1
TAP	64	0	7
TAP	64	96	6
TAP	64	192	5
TAP	64	240	5
TAP	64	288	4
TAP	65	0	3
TAP	65	0	4
TAP	65	96	2
TAP	65	192	1
TAP	65	240	1
TAP	65	288	0
TAP	66	0	0
TAP	66	0	1
TAP	66	96	2
TAP	66	96	7
XTP	66	192	3
XTP	66	192	6
THO	67	0	0	192	C	1	L1
TAP	68	0	7
TAP	68	96	7
TAP	68	192	6
TAP	68	288	4
TAP	68	288	5
TAP	69	0	3
TAP	69	96	2
TAP	69	96	4
TAP	69	192	1
TAP	69	240	1
TAP	69	288	1
TAP	70	0	0
TAP	70	96	1
TAP	70	96	3
TAP	70	192	2
TAP	70	288	3
TAP	70	288	4
TAP	71	0	5
TAP	71	48	5
TAP	71	96	5
XTP	71	192	4
XTP	71	192	6
TAP	72	0	3
TAP	72	96	0
TAP	72	96	2
TAP	72	192	1
TAP	72	288	0
TAP	72	288	7
TAP	73	0	6
TAP	73	48	6
TAP	73	96	6
TAP	73	192	0
TAP	73	192	5
TAP	74	0	4
TAP	74	0	5
TAP	74	96	3
TAP	74	96	6
TAP	74	192	2
TAP	74	192	7
TAP	74	288	0
TAP	74	288	1
TAP	75	0	2
TAP	75	0	3
TAP	75	96	1
TAP	75	96	4
TAP	75	192	0
TAP	75	192	5
TAP	76	0	6
TAP	76	48	6
TAP	76	96	7
TAP	76	192	1
TAP	76	240	1
STR	76	288	0
SCR	76	288	0	96	288	6
XHO	78	0	0	192
XHO	78	0	7	192
TAP	79	0	1
TAP	79	96	2
TAP	79	192	3
TAP	79	288	4
TAP	79	288	5
TAP	80	0	3
TAP	80	96	2
TAP	80	192	1
TAP	80	192	4
TAP	80	288	1
TAP	81	0	6
TAP	81	96	5
TAP	81	192	4
TAP	81	288	2
TAP	81	288	3
TAP	82	0	4
TAP	82	96	5
TAP	82	192	3
TAP	82	192	6
TAP	83	0	3
TAP	83	0	4
BRK	83	96	2
BRK	83	96	5
TAP	83	192	1
TAP	83	240	1
TAP	83	288	0
TAP	84	0	0
TAP	84	0	7
TAP	84	96	1
TAP	84	96	6
TAP	84	192	5
TAP	84	240	5
TAP	84	288	4
TAP	85	0	2
TAP	85	0	3
TAP	85	48	2
TAP	85	48	3
TAP	85	96	2
TAP	85	96	3
TAP	85	192	4
TAP	85	192	5
TAP	85	240	4
TAP	85	240	5
TAP	85	288	4
TAP	85	288	5
TAP	86	0	6
TAP	86	0	7
TAP	86	48	6
TAP	86	48	7
TAP	86	96	6
TAP	86	96	7
TAP	86	192	0
TAP	86	192	1
TAP	86	240	0
TAP	86	240	1
TAP	86	288	0
TAP	86	288	1
TAP	87	0	2
TAP	87	0	7
THO	87	96	0	1056	C	0	L1
TAP	90	192	0
TAP	90	192	7
TAP	90	288	0
TAP	90	288	7
XTP	91	0	1
TAP	91	48	2
TAP	91	96	3
TAP	91	144	4
TAP	91	192	5
TAP	91	240	6
TAP	91	288	7
TAP	91	336	0
BRK	92	0	1
BRK	92	0	6

T_REC_TAP	256
T_REC_BRK	12
T_REC_XTP	25
T_REC_HLD	20
T_REC_XHO	2
T_REC_STR	11
T_REC_BST	1
T_REC_XST	1
T_REC_TTP	20
T_REC_THO	6
T_REC_SLD	14
T_REC_ALL	368
T_NUM_TAP	313
T_NUM_BRK	13
T_NUM_HLD	28
T_NUM_SLD	14
T_NUM_ALL	368
T_JUDGE_TAP	326
T_JUDGE_HLD	140
T_JUDGE_SLD	14
T_JUDGE_ALL	480
TTM_EACHPAIRS	89
TTM_SCR_TAP	156500
TTM_SCR_BRK	33800
TTM_SCR_HLD	28000
TTM_SCR_SLD	21000
TTM_SCR_ALL	239300
TTM_SCR_S	230900
TTM_SCR_SS	238000
TTM_RAT_ACV	10054

