VERSION	0.00.00	1.03.00
FES_MODE	0
BPM_DEF	160.000	160.000	160.000	160.000
MET_DEF	4	4
RESOLUTION	384
CLK_DEF	384
COMPATIBLE_CODE	MA2

BPM	0	0	160.000
MET	0	0	4	4

STR	2	0	0
SI_	2	0	0	96	288	3
STR	4	0	7
SI_	4	0	7	96	288	4
HLD	6	0	0	384
HLD	8	0	7	288
TAP	9	0	7
TAP	9	96	7
TAP	9	192	7
TAP	10	0	6
TAP	10	96	6
TAP	10	192	6
TAP	11	0	5
TAP	11	96	5
TAP	11	192	4
TAP	11	288	4
TAP	12	0	3
TAP	12	96	3
TAP	12	192	2
TAP	12	192	4
TAP	13	0	2
TAP	13	0	3
TAP	13	96	2
TAP	13	96	3
HLD	13	192	2	96
HLD	13	192	3	96
TAP	14	0	4
TAP	14	0	5
TAP	14	96	4
TAP	14	96	5
HLD	14	192	4	96
HLD	14	192	5	96
TAP	15	0	3
TAP	15	96	3
TAP	15	192	2
TAP	15	288	2
TAP	16	0	1
TAP	16	96	1
BRK	16	192	0
BRK	16	192	7
TTP	17	0	0	E	0	L1
TTP	17	192	1	E	0	L1
TTP	18	0	2	E	0	L1
TTP	18	192	3	E	0	L1
TTP	19	0	4	E	0	L1
TTP	19	192	5	E	0	L1
TTP	20	0	6	E	0	L1
TTP	20	192	7	E	0	L1
TTP	21	0	0	E	0	L1
TTP	21	192	1	B	0	L1
TTP	22	0	2	B	0	L1
TTP	22	192	3	B	0	L1
TTP	23	0	4	B	0	L1
TTP	23	192	5	B	0	L1
THO	24	0	0	384	C	1	L1
XTP	26	0	0
TAP	26	96	0
TAP	26	192	0
TAP	27	0	1
TAP	27	96	1
TAP	27	192	1
TAP	28	0	2
TAP	28	96	2
TAP	28	192	2
TAP	29	0	3
TAP	29	0	4
TAP	29	96	3
TAP	29	96	4
XTP	29	192	3
XTP	29	192	4
HLD	30	0	2	192
HLD	30	0	4	192
TAP	31	0	5
TAP	31	96	5
TAP	31	192	6
TAP	31	288	6
HLD	32	0	0	288
HLD	32	0	7	288
TAP	33	0	0
TAP	33	0	7
TAP	33	96	0
TAP	33	96	7
TAP	33	192	0
TAP	33	192	7
TAP	33	288	0
TAP	33	288	7
TAP	34	0	1
TAP	34	0	6
TAP	34	96	1
TAP	34	96	6
TAP	34	192	1
TAP	34	192	6
TAP	34	288	1
TAP	34	288	6
TAP	35	0	2
TAP	35	0	5
TAP	35	96	2
TAP	35	96	5
TAP	35	192	2
TAP	35	192	5
TAP	35	288	2
TAP	35	288	5
TAP	36	0	3
TAP	36	0	4
TAP	36	96	3
TAP	36	96	4
BRK	36	192	3
BRK	36	192	4
XHO	37	0	2	192
XHO	37	0	3	192
XHO	38	0	4	192
XHO	38	0	6	192
TAP	39	0	7
TAP	39	96	7
TAP	39	192	6
TAP	39	288	6
TAP	40	0	5
TAP	40	96	5
TAP	40	192	4
TAP	40	288	4
HLD	41	0	3	192
TAP	41	192	4
HLD	42	0	3	192
TAP	42	192	4
HLD	43	0	4	192
TAP	43	192	3
HLD	44	0	4	192
TAP	44	192	3
HLD	45	0	2	192
TAP	45	192	3
HLD	46	0	5	192
TAP	46	192	4
HLD	47	0	2	192
HLD	47	192	4	192
HLD	48	0	3	192
BRK	48	192	4
HLD	50	96	0	192
HLD	50	96	7	192
TAP	51	0	7
TAP	51	96	7
TAP	51	192	7
TAP	52	0	6
TAP	52	96	6
TAP	52	192	6
XTP	53	0	5
BRK	53	96	5
TAP	53	192	4
TAP	53	288	4
TAP	54	0	3
TAP	54	96	3
TAP	54	192	2
TAP	54	288	2
HLD	55	0	0	192
HLD	55	0	1	192
HLD	56	0	6	192
HLD	56	0	7	192
STR	57	0	0
SCR	57	0	0	96	672	7
HLD	60	0	0	384
HLD	62	0	7	384
TAP	64	0	0
TAP	64	96	0
TAP	64	192	1
TAP	64	288	1
TAP	65	0	2
TAP	65	96	2
TAP	65	192	3
TAP	65	192	4
XTP	66	0	4
XTP	66	0	5
TAP	66	96	3
TAP	66	192	2
TAP	66	192	4
XTP	67	0	2
XTP	67	0	3
TAP	67	96	4
TAP	67	192	3
TAP	67	192	5
STR	68	0	4
SI_	68	0	4	96	288	1
STR	68	0	5
SI_	68	0	5	96	288	0
TAP	69	288	2
TAP	69	288	3
STR	70	0	2
SI_	70	0	2	96	288	7
STR	70	0	3
SI_	70	0	3	96	288	6
TAP	71	288	4
TAP	71	288	5
STR	72	0	4
SI_	72	0	4	96	288	0
STR	72	0	5
SI_	72	0	5	96	288	1
TAP	73	288	2
TAP	73	288	3
HLD	74	0	2	96
HLD	74	0	3	96
TAP	74	192	1
TAP	74	192	4
HLD	75	0	4	96
HLD	75	0	5	96
TAP	75	192	3
TAP	75	192	6
TTP	76	0	3	B	0	L1
TTP	76	0	4	B	0	L1
TTP	76	192	2	B	0	L1
TTP	76	192	5	B	0	L1
THO	77	0	0	384	C	1	L1
TAP	79	0	7
TAP	79	96	7
TAP	79	192	7
TAP	79	288	7
TAP	80	0	6
TAP	80	96	6
TAP	80	192	6
TAP	80	288	6
TAP	81	0	5
TAP	81	96	5
TAP	81	192	5
TAP	81	288	5
TAP	82	0	4
TAP	82	96	4
BRK	82	192	3
BRK	82	192	4
TAP	83	0	3
TAP	83	48	3
TAP	83	96	3
TAP	83	192	3
TAP	83	192	4
TAP	84	0	4
TAP	84	48	4
TAP	84	96	4
TAP	84	192	3
TAP	84	192	4
TAP	85	0	3
TAP	85	48	3
TAP	85	96	3
TAP	85	192	4
TAP	85	240	4
TAP	85	288	4
TAP	86	0	3
TAP	86	48	3
TAP	86	96	3
TAP	86	192	4
TAP	86	240	4
TAP	86	288	4
HLD	87	96	2	1344
HLD	87	96	5	1344
XTP	91	0	3
TAP	91	48	3
TAP	91	96	3
TAP	91	144	3
XTP	91	192	4
TAP	91	240	4
TAP	91	288	4
TAP	91	336	4
BRK	92	0	3

T_REC_TAP	164
T_REC_BRK	9
T_REC_XTP	10
T_REC_HLD	33
T_REC_XHO	4
T_REC_STR	9
T_REC_BST	0
T_REC_XST	0
T_REC_TTP	18
T_REC_THO	2
T_REC_SLD	9
T_REC_ALL	258
T_NUM_TAP	201
T_NUM_BRK	9
T_NUM_HLD	39
T_NUM_SLD	9
T_NUM_ALL	258
T_JUDGE_TAP	210
T_JUDGE_HLD	214
T_JUDGE_SLD	9
T_JUDGE_ALL	433
TTM_EACHPAIRS	52
TTM_SCR_TAP	100500
TTM_SCR_BRK	23400
TTM_SCR_HLD	39000
TTM_SCR_SLD	13500
TTM_SCR_ALL	176400
TTM_SCR_S	170250
TTM_SCR_SS	175500
TTM_RAT_ACV	10051

