VERSION	0.00.00	1.03.00
FES_MODE	0
BPM_DEF	180.000	180.000	180.000	180.000
MET_DEF	4	4
RESOLUTION	384
CLK_DEF	384
COMPATIBLE_CODE	MA2

BPM	0	0	180.000
MET	0	0	4	4

XST	2	0	3
SXR	2	0	3	96	576	7
XHO	2	0	7	288
TAP	3	0	6
TAP	3	96	6
TAP	3	192	5
TAP	3	288	5
XHO	4	0	0	288
XST	4	0	4
SXL	4	0	4	96	576	0
TAP	5	0	1
TAP	5	96	1
TAP	5	192	2
TAP	5	288	2
TAP	6	0	3
XHO	6	0	7	192
HLD	6	192	0	96
HLD	6	288	1	96
HLD	7	0	2	96
HLD	7	96	3	96
HLD	7	192	4	96
STR	7	288	5
SCR	7	288	5	96	192	2
HLD	8	0	0	192
STR	8	288	2
SCL	8	288	2	96	192	5
HLD	9	0	7	192
BRK	9	288	1
BRK	9	288	6
TAP	10	0	2
TAP	10	0	3
TAP	10	72	4
TAP	10	96	3
TAP	10	144	5
TAP	10	192	4
TAP	10	192	6
TAP	10	264	3
TAP	10	288	4
TAP	10	336	2
TAP	11	0	1
TAP	11	0	3
TAP	11	72	4
TAP	11	96	3
TAP	11	144	5
TAP	11	192	4
TAP	11	192	6
TAP	11	240	7
TAP	11	288	0
TAP	11	288	7
BRK	12	0	1
BRK	12	0	6
HLD	12	96	6	96
HLD	12	192	4	96
HLD	12	288	3	96
HLD	13	0	1	96
HLD	13	96	0	96
HLD	13	192	2	96
TAP	13	288	3
TAP	14	0	4
TAP	14	0	5
TAP	14	72	3
TAP	14	96	4
TAP	14	144	2
TAP	14	192	1
TAP	14	192	3
TAP	14	264	4
TAP	14	288	3
TAP	14	336	5
TAP	15	0	4
TAP	15	0	6
TAP	15	72	3
TAP	15	96	4
TAP	15	144	2
TAP	15	192	1
TAP	15	192	3
TAP	15	240	0
TAP	15	288	0
TAP	15	288	7
BRK	16	0	1
BRK	16	0	6
HLD	16	96	1	96
HLD	16	192	3	96
HLD	16	288	4	96
HLD	17	0	6	96
TTP	17	96	5	B	0	M1
TTP	17	96	6	B	0	M1
TTP	17	192	0	C	0	M1
TTP	17	288	1	B	0	M1
TTP	17	288	2	B	0	M1
TAP	18	0	0
TAP	18	0	7
TAP	18	96	2
TAP	18	96	3
TAP	18	192	5
TAP	18	240	4
TAP	18	288	3
HLD	18	336	2	144
TAP	19	48	0
TAP	19	96	0
TAP	19	192	2
TAP	19	192	3
TAP	19	288	1
TAP	19	288	4
TAP	20	0	0
TAP	20	0	7
TAP	20	96	4
TAP	20	96	5
TAP	20	192	2
TAP	20	240	3
TAP	20	288	4
HLD	20	336	5	144
TAP	21	48	7
TAP	21	96	7
TAP	21	192	4
TAP	21	192	5
TAP	21	288	3
TAP	21	288	6
TAP	22	0	2
STR	22	0	7
SCL	22	0	7	96	48	4
TAP	22	96	3
STR	22	144	3
SCL	22	144	3	96	48	0
TAP	22	240	5
STR	22	288	5
SCL	22	288	5	96	48	2
TAP	23	0	1
STR	23	48	1
SCL	23	48	1	96	48	6
TAP	23	144	4
TAP	23	192	4
BRK	23	288	1
BRK	23	288	6
STR	24	0	3
SCL	24	0	3	96	384	4
TAP	24	0	4
THO	24	144	0	336	C	0	M1
TAP	25	192	0
TAP	25	192	7
BRK	25	288	1
BRK	25	288	6
STR	26	0	2
SCR	26	0	2	96	48	5
TAP	26	0	5
TAP	26	192	6
TAP	26	240	7
TAP	26	288	0
HLD	26	336	1	96
TAP	27	48	2
HLD	27	96	1	48
TAP	27	144	0
HLD	27	192	1	48
TAP	27	240	3
HLD	27	288	1	48
TAP	27	336	7
TAP	28	0	1
TAP	28	96	3
TAP	28	120	5
TAP	28	144	2
TAP	28	168	4
TAP	28	192	1
TAP	28	240	0
TAP	28	288	7
HLD	28	336	6	96
TAP	29	48	5
HLD	29	96	6	48
TAP	29	144	7
HLD	29	192	6	48
TAP	29	240	4
HLD	29	288	6	48
TAP	29	336	0
TAP	30	0	6
TAP	30	96	5
TAP	30	128	5
TAP	30	160	5
TAP	30	192	4
TAP	30	192	6
TAP	30	288	2
TAP	30	320	2
TAP	30	352	2
TAP	31	0	1
TAP	31	0	3
TAP	31	96	0
TAP	31	96	7
TAP	31	144	1
HLD	31	144	6	96
TAP	31	240	5
TAP	31	288	4
TAP	31	336	3
STR	32	0	2
SCR	32	0	2	96	48	5
TAP	32	96	7
TAP	32	144	6
TAP	32	240	2
TAP	32	240	6
TAP	32	288	1
TAP	32	288	5
STR	32	336	0
SXR	32	336	0	96	144	3
STR	32	336	4
SCR	32	336	4	96	144	2
BRK	33	288	1
BRK	33	288	6
STR	34	0	4
SCL	34	0	4	96	48	1
TAP	34	0	5
TAP	34	96	0
TAP	34	192	6
TAP	34	240	7
TAP	34	288	0
TAP	34	288	5
TAP	35	0	2
STR	35	0	3
SCR	35	0	3	96	48	6
TAP	35	96	7
TAP	35	192	1
TAP	35	240	0
TAP	35	288	2
TAP	35	288	7
STR	36	0	4
SUR	36	0	4	96	48	0
STR	36	0	5
SCR	36	0	5	96	48	7
STR	36	192	0
SCR	36	192	0	96	48	2
STR	36	192	7
SUR	36	192	7	96	48	3
STR	37	0	3
SCR	37	0	3	96	72	6
STR	37	0	4
SCL	37	0	4	96	72	1
TAP	37	240	0
TAP	37	240	7
TAP	37	288	1
TAP	37	288	6
HLD	38	0	3	96
HLD	38	0	4	96
TAP	38	192	2
TAP	38	224	4
TAP	38	256	2
TAP	38	288	5
TAP	38	320	3
TAP	38	352	5
TAP	39	0	1
TAP	39	32	3
TAP	39	64	2
TAP	39	96	6
TAP	39	128	4
TAP	39	160	5
TAP	39	192	0
TAP	39	224	3
TAP	39	256	2
TAP	39	288	7
TAP	39	320	4
TAP	39	352	5
TAP	40	0	3
TAP	40	0	6
TAP	40	96	2
TAP	40	96	3
TAP	40	144	1
TAP	40	144	4
TAP	40	240	4
TAP	40	240	5
TAP	40	288	3
TAP	40	288	6
HLD	41	0	7	48
HLD	41	48	6	48
HLD	41	96	5	48
HLD	41	144	4	48
HLD	41	192	3	48
HLD	41	240	2	48
HLD	41	288	1	48
TAP	41	336	0
BRK	42	0	1
BRK	42	0	6
STR	42	48	7
SCL	42	48	7	96	48	5
TAP	42	96	0
TAP	42	144	1
STR	42	240	0
SCL	42	240	0	96	48	5
TAP	42	288	1
TAP	42	336	2
STR	43	48	1
SCL	43	48	1	96	144	4
TAP	43	96	2
HLD	43	144	3	288
HLD	44	48	4	48
TAP	44	96	0
TAP	44	120	1
TAP	44	144	2
TAP	44	168	3
TAP	44	192	0
TAP	44	216	7
TAP	44	240	6
TAP	44	264	5
TAP	44	288	0
TAP	44	312	1
TAP	44	336	2
TAP	44	360	3
TAP	45	0	5
TAP	45	24	4
TAP	45	48	3
TAP	45	72	2
TAP	45	96	1
TAP	45	120	0
TAP	45	144	7
TAP	45	168	6
TAP	45	192	2
TAP	45	216	3
TAP	45	240	4
TAP	45	264	5
TAP	45	288	6
TAP	45	312	7
TAP	45	336	0
TAP	45	360	1
STR	46	0	4
SCR	46	0	4	96	48	7
TAP	46	96	1
TAP	46	144	2
STR	46	192	3
SCL	46	192	3	96	48	0
TAP	46	288	6
TAP	46	336	5
STR	47	0	4
SI_	47	0	4	96	48	0
STR	47	96	4
SCL	47	96	4	96	48	1
SCR	47	96	4	96	48	7
STR	47	192	4
SF_	47	192	4	96	48	0
TAP	47	288	4
TAP	48	0	2
TAP	48	24	3
TAP	48	48	2
TAP	48	96	1
TAP	48	96	4
TAP	48	144	5
TAP	48	168	4
TAP	48	192	5
TAP	48	240	3
TAP	48	240	6
TAP	48	288	2
TAP	48	312	3
TAP	48	336	2
TTP	49	0	6	E	0	M1
TTP	49	24	5	B	0	M1
TTP	49	48	4	B	0	M1
TTP	49	72	4	E	0	M1
TTP	49	96	0	E	0	M1
TTP	49	120	0	B	0	M1
TTP	49	144	1	B	0	M1
TTP	49	168	2	E	0	M1
TTP	49	192	7	E	0	M1
TTP	49	216	6	B	0	M1
TTP	49	240	5	B	0	M1
TTP	49	264	5	E	0	M1
TTP	49	288	1	E	0	M1
TTP	49	312	1	B	0	M1
TTP	49	336	2	B	0	M1
TTP	49	360	3	E	0	M1
TTP	50	0	0	C	1	M1
TAP	50	96	0
TAP	50	96	7
STR	50	192	7
SCL	50	192	7	96	72	4
TAP	50	240	7
STR	50	288	0
SV_	50	288	0	96	72	3
TAP	50	336	0
TAP	51	48	7
TAP	51	72	6
TAP	51	96	5
TAP	51	192	2
TAP	51	192	3
TAP	51	288	5
TAP	51	312	4
TAP	51	336	3
TAP	52	96	7
TAP	52	120	6
TAP	52	144	5
TAP	52	168	4
TAP	52	192	0
TAP	52	216	7
TAP	52	240	6
TAP	52	264	5
TAP	52	288	4
HLD	52	336	6	96
TAP	53	48	3
TAP	53	72	5
TAP	53	96	3
TAP	53	120	4
TAP	53	144	2
TAP	53	168	4
HLD	53	192	3	48
HLD	53	264	2	48
HLD	53	264	4	48
BRK	53	336	1
BRK	53	336	5
TAP	54	96	1
TAP	54	120	3
TAP	54	144	1
TAP	54	168	3
TAP	54	192	2
TAP	54	216	4
TAP	54	240	2
TAP	54	264	4
TAP	54	288	3
TAP	54	312	5
TAP	54	336	3
TAP	54	360	5
STR	55	0	4
SXR	55	0	4	96	48	3
STR	55	96	6
SXR	55	96	6	96	48	5
STR	55	192	0
SXL	55	192	0	96	48	1
TAP	55	288	7
STR	56	0	7
SLL	56	0	7	96	96	2
STR	56	96	2
SCL	56	96	2	96	96	6
STR	56	192	6
SLR	56	192	6	96	96	3
STR	56	288	3
SCR	56	288	3	96	96	7
STR	57	0	7
SI_	57	0	7	96	96	2
STR	57	96	2
SSL	57	96	2	96	120	6
TAP	58	0	3
TAP	58	48	3
TAP	58	48	4
TAP	58	144	5
TAP	58	168	5
TAP	58	192	4
TAP	58	288	3
TAP	58	288	4
TAP	58	336	3
TAP	58	336	4
TAP	59	0	4
TAP	59	24	3
TAP	59	48	4
TAP	59	72	3
TAP	59	96	4
TAP	59	120	3
TAP	59	144	4
TAP	59	168	3
TAP	59	192	5
TAP	59	240	2
TAP	59	264	2
TAP	59	288	3
TAP	60	0	0
TAP	60	24	0
TAP	60	48	1
TAP	60	72	1
TAP	60	96	2
TAP	60	120	2
TAP	60	144	3
TAP	60	168	3
TAP	60	192	4
TAP	60	216	4
TAP	60	240	5
TAP	60	264	5
TAP	60	288	6
TAP	60	312	6
TAP	60	336	7
TAP	60	360	7
HLD	61	0	0	48
TAP	61	72	1
TAP	61	72	2
HLD	61	144	7	48
TAP	61	216	5
TAP	61	216	6
BRK	61	288	0
BRK	61	288	7
XST	62	0	3
SCL	62	0	3	96	48	0
XST	62	0	6
SCL	62	0	6	96	48	3
TAP	62	192	0
TAP	62	240	7
TAP	62	288	6
STR	62	336	5
SXL	62	336	5	96	240	2
TTP	63	96	2	E	0	M1
TTP	63	192	4	E	0	M1
TTP	63	288	0	E	0	M1
HLD	64	0	1	96
HLD	64	0	2	96
TTP	64	144	1	E	0	M1
TTP	64	144	2	E	0	M1
TTP	64	144	3	E	0	M1
TTP	64	240	5	E	0	M1
TTP	64	240	6	E	0	M1
TTP	64	240	7	E	0	M1
TTP	64	336	0	E	0	M1
TTP	64	336	0	C	1	M1
TTP	64	336	4	E	0	M1
TAP	65	192	4
TAP	65	192	5
TAP	65	288	2
TAP	65	288	3
STR	66	0	1
SCR	66	0	1	96	48	4
STR	66	0	4
SCR	66	0	4	96	48	7
TAP	66	192	7
TAP	66	240	0
TAP	66	288	1
STR	66	336	2
SXR	66	336	2	96	240	5
TTP	67	96	6	E	0	M1
TTP	67	192	4	E	0	M1
TTP	67	288	0	E	0	M1
BRK	68	0	1
BST	68	0	6
SI_	68	0	6	96	48	2
TAP	68	96	0
BST	68	144	1
SI_	68	144	1	96	48	4
TAP	68	240	6
BST	68	288	5
SI_	68	288	5	96	48	0
TAP	69	0	1
BST	69	48	2
SI_	69	48	2	96	48	5
TAP	69	144	7
TAP	69	192	6
BRK	69	288	0
BRK	69	288	4
TAP	70	0	2
TAP	70	0	3
TAP	70	96	1
TAP	70	96	4
TAP	70	144	2
TAP	70	192	3
TAP	70	240	2
TAP	70	288	1
TAP	70	288	4
TAP	70	336	2
TAP	71	0	3
TAP	71	48	2
TAP	71	96	1
TAP	71	96	4
TAP	71	144	2
TAP	71	168	2
TAP	71	192	3
TAP	71	240	2
TAP	71	288	1
TAP	71	288	4
TAP	72	0	4
TAP	72	0	5
TAP	72	96	3
TAP	72	96	6
TAP	72	144	5
TAP	72	192	4
TAP	72	240	5
TAP	72	288	3
TAP	72	288	6
TAP	72	336	5
TAP	73	0	4
TAP	73	48	5
TAP	73	96	3
TAP	73	96	6
TAP	73	144	5
TAP	73	168	5
TAP	73	192	4
TAP	73	240	5
TAP	73	288	3
TAP	73	288	6
STR	74	0	0
SCR	74	0	0	96	48	3
TAP	74	0	5
TAP	74	96	4
STR	74	144	4
SCR	74	144	4	96	48	7
TAP	74	240	2
STR	74	288	2
SCR	74	288	2	96	48	5
TAP	75	0	6
STR	75	48	6
SCR	75	48	6	96	48	1
TAP	75	144	3
TAP	75	192	3
BRK	75	288	1
BRK	75	288	6
TAP	76	0	3
STR	76	0	4
SCR	76	0	4	96	384	3
THO	76	144	0	336	C	0	M1
TAP	77	192	0
TAP	77	192	7
BRK	77	288	1
BRK	77	288	6
TAP	78	0	3
TAP	78	0	5
TAP	78	72	2
TAP	78	72	4
TAP	78	144	3
TAP	78	144	5
TAP	78	192	2
TAP	78	216	1
TAP	78	240	0
TAP	78	264	7
TAP	78	288	6
TAP	78	312	5
TAP	78	336	4
TAP	78	360	3
XTP	79	0	2
XTP	79	0	6
TAP	79	96	3
TAP	79	96	5
TAP	79	192	0
TAP	79	192	1
TAP	79	240	2
TAP	79	288	3
TAP	79	288	4
TAP	79	336	5
STR	80	0	6
SI_	80	0	6	96	48	2
TAP	80	0	7
TAP	80	96	1
HLD	80	144	1	96
HLD	80	240	2	96
TAP	80	336	3
TAP	81	0	3
TAP	81	0	4
TAP	81	96	2
TAP	81	96	5
TAP	81	192	6
TAP	81	192	7
TAP	81	240	5
TAP	81	288	3
TAP	81	288	4
TAP	81	336	2
TAP	82	0	0
STR	82	0	1
SI_	82	0	1	96	48	5
TAP	82	96	6
HLD	82	144	6	96
HLD	82	240	5	96
TAP	82	336	4
BRK	83	0	3
BRK	83	0	6
TAP	83	192	6
STR	83	192	7
SI_	83	192	7	96	48	3
STR	83	288	1
SI_	83	288	1	96	48	5
TAP	83	288	7
TAP	84	0	1
STR	84	0	4
SI_	84	0	4	96	48	0
STR	84	96	2
SI_	84	96	2	96	48	5
TAP	84	96	4
TAP	84	192	2
STR	84	192	7
SI_	84	192	7	96	48	3
STR	84	288	1
SCR	84	288	1	96	192	0
TAP	84	288	7
TAP	85	0	1
HLD	85	0	4	192
STR	85	288	6
SCL	85	288	6	96	192	7
HLD	86	0	2	192
BRK	86	288	1
BRK	86	288	6
XTP	87	0	3
TAP	87	24	4
TAP	87	48	3
TAP	87	72	4
TAP	87	96	3
TAP	87	120	4
TAP	87	144	3
TAP	87	168	4
TAP	87	192	2
TAP	87	216	5
TAP	87	240	2
TAP	87	264	5
TAP	87	288	2
TAP	87	312	5
TAP	87	336	2
TAP	87	360	5
TAP	88	0	3
TAP	88	24	4
TAP	88	48	3
TAP	88	72	4
TAP	88	96	2
TAP	88	120	5
TAP	88	144	2
TAP	88	168	5
TAP	88	192	3
TAP	88	216	4
TAP	88	240	3
TAP	88	264	4
TAP	88	288	2
TAP	88	312	5
TAP	88	336	2
TAP	88	360	5
TAP	89	0	3
TAP	89	24	4
TAP	89	48	3
TAP	89	72	4
TAP	89	96	3
TAP	89	120	4
TAP	89	144	3
TAP	89	168	4
TAP	89	192	2
TAP	89	216	5
TAP	89	240	2
TAP	89	264	5
TAP	89	288	2
TAP	89	312	5
TAP	89	336	2
XTP	90	0	3
XTP	90	0	4
XTP	90	72	1
XTP	90	72	3
XTP	90	144	4
XTP	90	144	6
XST	90	192	0
SI_	90	192	0	96	48	3
XST	90	192	7
SI_	90	192	7	96	48	4
BRK	90	288	0
BRK	90	288	7
XTP	91	0	3
TAP	91	24	4
TAP	91	48	3
TAP	91	72	4
TAP	91	96	3
TAP	91	120	4
TAP	91	144	3
TAP	91	168	4
TAP	91	192	0
TAP	91	216	7
TAP	91	240	0
TAP	91	264	7
TAP	91	288	0
TAP	91	312	7
TAP	91	336	0
TAP	91	360	7
TAP	92	0	2
TAP	92	24	3
TAP	92	48	2
TAP	92	72	3
TAP	92	96	1
TAP	92	120	4
TAP	92	144	1
TAP	92	168	4
TAP	92	192	0
TAP	92	216	5
TAP	92	240	0
TAP	92	264	5
TAP	92	288	7
TAP	92	312	6
TAP	92	336	7
TAP	92	360	6
STR	93	0	0
SCR	93	0	0	96	96	4
STR	93	96	4
SCR	93	96	4	96	96	0
STR	93	192	0
SCR	93	192	0	96	96	4
TAP	93	288	4
XTP	94	0	6
XTP	94	72	3
XTP	94	72	4
XTP	94	144	1
XTP	94	144	3
XST	94	192	0
SCR	94	192	0	96	48	3
XST	94	192	7
SCL	94	192	7	96	48	4
BRK	94	288	0
BRK	94	288	7
XTP	95	0	2
TAP	95	24	4
TAP	95	48	3
TAP	95	72	4
TAP	95	96	3
TAP	95	120	4
TAP	95	144	3
TAP	95	168	4
XTP	95	192	6
TAP	95	216	4
TAP	95	240	3
TAP	95	264	4
TAP	95	288	3
TAP	95	312	4
TAP	95	336	3
TAP	95	360	4
XTP	96	0	1
TAP	96	24	4
TAP	96	48	3
TAP	96	72	4
TAP	96	96	3
TAP	96	120	4
TAP	96	144	3
TAP	96	168	4
XTP	96	192	7
TAP	96	216	4
TAP	96	240	3
TAP	96	264	4
TAP	96	288	3
TAP	96	312	4
TAP	96	336	3
TAP	96	360	4
XTP	97	0	0
TAP	97	24	4
TAP	97	48	3
TAP	97	72	4
TAP	97	96	3
TAP	97	120	4
TAP	97	144	3
TAP	97	168	4
XTP	97	192	5
TAP	97	216	4
TAP	97	240	3
TAP	97	264	4
TAP	97	288	3
TAP	97	312	4
TAP	97	336	3
TAP	97	360	4
XTP	98	0	2
TAP	98	24	4
TAP	98	48	3
TAP	98	72	4
TAP	98	96	3
TAP	98	120	4
TAP	98	144	3
TAP	98	168	4
XTP	98	192	6
TAP	98	216	4
TAP	98	240	3
TAP	98	264	4
TAP	98	288	3
TAP	98	312	4
TAP	98	336	3
TAP	98	360	4
XTP	99	0	1
TAP	99	24	4
TAP	99	48	3
TAP	99	72	4
XTP	99	96	6
TAP	99	120	4
TAP	99	144	3
TAP	99	168	4
XTP	99	192	2
TAP	99	216	4
TAP	99	240	3
TAP	99	264	4
XTP	99	288	7
TAP	99	312	4
TAP	99	336	3
TAP	99	360	4
XTP	100	0	1
TAP	100	24	4
TAP	100	48	3
TAP	100	72	4
XTP	100	96	5
TAP	100	120	4
TAP	100	144	3
TAP	100	168	4
XTP	100	192	0
BRK	100	288	1
BRK	100	288	6
XTP	101	0	0
TAP	101	16	1
TAP	101	32	2
TAP	101	48	6
TAP	101	64	5
TAP	101	80	4
TAP	101	96	1
TAP	101	112	2
TAP	101	128	3
TAP	101	144	7
TAP	101	160	6
TAP	101	176	5
TAP	101	192	0
TAP	101	208	1
TAP	101	224	2
TAP	101	240	6
TAP	101	256	5
TAP	101	272	4
TAP	101	288	1
TAP	101	304	2
TAP	101	320	3
TAP	101	336	7
TAP	101	352	6
TAP	101	368	5
TAP	102	0	0
TAP	102	16	1
TAP	102	32	2
TAP	102	48	6
TAP	102	64	5
TAP	102	80	4
TAP	102	96	1
TAP	102	112	2
TAP	102	128	3
TAP	102	144	7
TAP	102	160	6
TAP	102	176	5
XTP	102	192	0
XTP	102	204	1
XTP	102	216	2
XTP	102	228	3
XTP	102	240	4
XTP	102	252	5
XTP	102	264	6
XTP	102	276	7
BRK	102	288	0
BRK	102	288	4
XTP	103	0	2
XTP	103	0	7
TAP	103	96	6
TAP	103	96	7
XTP	103	144	0
XTP	103	144	5
TAP	103	240	1
TAP	103	240	6
TAP	103	288	2
TAP	103	288	5
BST	103	336	3
SCL	103	336	3	96	1776	4
BST	103	336	4
SCR	103	336	4	96	1776	3
TTP	109	192	0	C	1	M1
TTP	109	192	1	B	0	M1
TTP	109	192	2	B	0	M1
TTP	109	192	2	E	0	M1
TTP	109	192	5	B	0	M1
TTP	109	192	6	E	0	M1
TTP	109	192	6	B	0	M1

T_REC_TAP	608
T_REC_BRK	37
T_REC_XTP	43
T_REC_HLD	53
T_REC_XHO	3
T_REC_STR	59
T_REC_BST	6
T_REC_XST	8
T_REC_TTP	44
T_REC_THO	2
T_REC_SLD	74
T_REC_ALL	937
T_NUM_TAP	762
T_NUM_BRK	43
T_NUM_HLD	58
T_NUM_SLD	74
T_NUM_ALL	937
T_JUDGE_TAP	805
T_JUDGE_HLD	131
T_JUDGE_SLD	74
T_JUDGE_ALL	1010
TTM_EACHPAIRS	127
TTM_SCR_TAP	381000
TTM_SCR_BRK	111800
TTM_SCR_HLD	58000
TTM_SCR_SLD	111000
TTM_SCR_ALL	661800
TTM_SCR_S	637800
TTM_SCR_SS	657500
TTM_RAT_ACV	10065

