VERSION	0.00.00	1.03.00
FES_MODE	0
BPM_DEF	180.000	180.000	180.000	180.000
MET_DEF	4	4
RESOLUTION	384
CLK_DEF	384
COMPATIBLE_CODE	MA2

BPM	0	0	180.000
MET	0	0	4	4

XHO	2	0	1	384
XTP	2	0	3
STR	2	288	2
SCR	2	288	2	96	288	7
XTP	4	0	4
XHO	4	0	6	384
STR	4	288	5
SCL	4	288	5	96	288	0
HLD	6	0	7	192
HLD	6	192	6	96
HLD	6	288	5	96
HLD	7	0	4	96
HLD	7	96	3	96
HLD	7	192	2	96
TAP	7	288	1
TAP	8	0	0
TAP	8	0	1
TAP	8	96	2
TAP	8	144	1
TAP	8	144	3
TAP	8	240	5
TAP	8	288	4
TAP	8	288	6
TAP	9	0	3
TAP	9	48	3
TAP	9	96	4
BRK	9	192	1
BRK	9	192	6
HLD	10	0	2	72
TAP	10	72	3
TAP	10	144	1
TAP	10	144	4
HLD	10	192	5	72
TAP	10	264	4
TAP	10	336	3
TAP	10	336	6
HLD	11	0	2	72
TAP	11	72	3
TAP	11	144	1
TAP	11	144	4
TAP	11	192	1
TAP	11	192	4
TAP	11	288	0
TAP	12	0	4
HLD	12	0	5	96
TAP	12	96	1
HLD	12	192	2	96
TAP	12	192	3
TAP	12	288	6
HLD	13	0	5	96
HLD	13	96	4	96
HLD	13	192	3	96
TAP	13	288	2
HLD	14	0	1	72
TAP	14	72	0
TAP	14	144	2
TAP	14	144	7
HLD	14	192	6	72
TAP	14	264	7
TAP	14	336	0
TAP	14	336	5
HLD	15	0	1	72
TAP	15	72	0
TAP	15	144	2
TAP	15	144	7
TAP	15	192	2
TAP	15	192	7
TAP	15	288	6
TAP	16	0	4
HLD	16	0	5	96
TAP	16	96	1
HLD	16	192	2	96
TAP	16	192	3
TAP	16	288	6
XTP	17	0	0
XTP	17	0	7
XTP	17	96	1
XTP	17	192	2
XTP	17	288	3
TAP	18	0	4
TAP	18	0	5
TAP	18	96	7
TAP	18	144	7
HLD	18	240	5	96
TAP	18	336	4
TAP	19	48	3
TAP	19	48	6
TAP	19	144	5
TAP	19	192	5
TAP	19	288	3
TAP	19	288	4
HLD	20	0	2	192
TAP	20	0	5
TAP	20	96	5
TAP	20	192	3
TAP	20	288	0
TAP	21	0	1
HLD	21	0	6	192
TAP	21	96	1
TAP	21	192	7
TAP	21	288	4
XTP	22	0	1
TAP	22	96	2
TAP	22	96	3
TAP	22	144	2
TAP	22	144	3
TAP	22	240	4
TAP	22	240	6
TAP	22	288	4
TAP	22	288	6
TAP	23	0	0
TAP	23	0	1
TAP	23	48	0
TAP	23	48	1
TAP	23	144	6
TAP	23	144	7
TAP	23	192	6
TAP	23	192	7
TAP	23	288	0
TAP	23	288	5
TAP	24	0	3
TAP	24	0	4
TAP	24	96	6
TAP	24	144	4
TAP	24	144	6
TAP	24	240	1
TAP	24	288	1
TAP	24	288	3
TAP	25	0	6
TAP	25	48	6
TAP	25	96	7
BRK	25	192	0
BRK	25	192	5
STR	26	0	7
SCL	26	0	7	96	96	4
STR	26	192	0
SCR	26	192	0	96	96	3
TAP	27	0	7
TAP	27	96	6
HLD	27	192	5	96
TAP	27	288	4
STR	28	0	3
SCL	28	0	3	96	96	0
STR	28	192	4
SCR	28	192	4	96	96	7
TAP	29	0	0
TAP	29	96	1
HLD	29	192	2	96
TAP	29	288	3
TAP	30	0	4
TAP	30	96	5
TAP	30	192	7
TAP	30	288	4
TAP	30	288	6
TAP	31	0	3
TAP	31	96	2
TAP	31	192	0
TAP	31	288	1
TAP	31	288	3
STR	32	0	2
SCR	32	0	2	96	96	5
TAP	32	288	6
STR	33	0	5
SCL	33	0	5	96	96	2
TAP	33	288	1
TAP	33	288	6
HLD	34	0	2	672
TAP	34	96	4
TAP	34	192	3
TAP	34	288	3
TAP	35	0	5
TAP	35	96	4
TAP	35	192	3
TAP	35	288	3
TAP	36	0	1
TAP	36	96	0
TAP	36	96	1
TAP	36	192	6
TAP	36	288	6
TAP	36	288	7
TAP	37	0	5
TAP	37	96	4
TAP	37	96	5
TAP	37	192	3
TAP	37	240	3
TAP	37	288	4
HLD	38	0	2	96
HLD	38	0	5	96
TAP	38	192	4
TAP	38	192	6
TAP	38	288	3
HLD	39	0	2	96
HLD	39	0	5	96
TAP	39	192	1
TAP	39	192	3
TAP	39	288	4
TAP	40	0	5
TAP	40	96	7
TAP	40	192	2
TAP	40	288	0
THO	41	0	0	192	C	0	M1
STR	42	0	2
SI_	42	0	2	96	96	4
STR	42	192	7
SI_	42	192	7	96	96	5
STR	43	0	0
SSL	43	0	0	96	192	4
TAP	44	0	5
TAP	44	48	5
HLD	44	96	5	96
TAP	44	192	4
TAP	44	288	7
TAP	45	0	2
TAP	45	48	2
HLD	45	96	2	96
TAP	45	192	3
TAP	45	288	0
STR	46	0	6
SI_	46	0	6	96	96	0
STR	46	192	1
SI_	46	192	1	96	96	4
STR	47	0	6
SI_	47	0	6	96	96	2
TAP	47	192	0
TAP	47	288	0
TAP	47	288	7
HLD	48	0	1	96
HLD	48	96	2	96
TAP	48	192	3
TAP	48	288	3
TAP	48	288	4
HLD	49	0	6	96
HLD	49	96	5	96
TAP	49	192	4
TAP	49	288	3
TAP	49	288	4
HLD	50	0	2	192
TAP	50	0	3
TTP	50	192	4	E	0	M1
TTP	50	288	0	C	0	M1
TTP	51	0	7	E	0	M1
TTP	51	96	6	E	0	M1
TTP	51	192	5	E	0	M1
TTP	51	288	4	E	0	M1
HLD	52	0	2	192
TAP	52	0	3
TTP	52	192	5	E	0	M1
TTP	52	288	0	C	0	M1
TTP	53	0	1	E	0	M1
TTP	53	96	2	E	0	M1
TTP	53	192	3	E	0	M1
TTP	53	288	4	E	0	M1
HLD	54	0	5	96
TTP	54	96	5	B	0	M1
HLD	54	192	2	96
TTP	54	288	2	B	0	M1
HLD	55	0	4	96
TTP	55	96	4	E	0	M1
TAP	55	192	3
TAP	55	288	3
STR	55	288	4
SUL	55	288	4	96	240	3
STR	56	288	2
SCL	56	288	2	96	240	5
XTP	57	288	3
XTP	57	288	4
TAP	58	0	2
TAP	58	0	3
TAP	58	48	2
TAP	58	48	3
TAP	58	144	4
TAP	58	144	5
TAP	58	192	4
TAP	58	192	5
TAP	58	288	3
TAP	58	288	4
TAP	59	0	2
TAP	59	48	2
TAP	59	96	4
TAP	59	144	4
TAP	59	192	3
TAP	59	240	3
TAP	59	288	5
TAP	59	336	5
TAP	60	0	3
TAP	60	24	4
TAP	60	48	3
TAP	60	72	4
TAP	60	96	3
TAP	60	120	4
TAP	60	144	3
TAP	60	168	4
TAP	60	192	3
TAP	60	216	4
TAP	60	240	3
TAP	60	288	2
TAP	60	288	5
XTP	61	0	2
XTP	61	0	4
XTP	61	72	2
XTP	61	72	4
XTP	61	144	3
XTP	61	144	5
XTP	61	216	3
XTP	61	216	5
XTP	61	288	3
XTP	61	288	4
BRK	62	0	1
BRK	62	0	6
TAP	62	192	3
TAP	62	192	4
TAP	62	288	2
STR	62	336	2
SCR	62	336	2	96	144	5
XTP	63	96	6
XTP	63	192	7
XTP	63	288	0
HLD	64	0	1	144
TAP	64	0	3
TAP	64	144	2
STR	64	240	2
SCL	64	240	2	96	144	7
TAP	64	240	3
XHO	64	336	4	240
TAP	65	288	5
BRK	66	0	0
BRK	66	0	6
TAP	66	192	4
TAP	66	192	5
TAP	66	288	6
STR	66	336	6
SCL	66	336	6	96	144	3
XTP	67	96	2
XTP	67	192	1
XTP	67	288	0
HLD	68	0	7	96
HLD	68	144	0	96
HLD	68	144	6	96
HLD	68	288	1	96
HLD	68	288	5	96
HLD	69	48	2	96
HLD	69	48	4	96
TAP	69	192	2
TAP	69	192	4
TAP	69	288	3
TAP	69	288	4
TAP	70	0	3
TAP	70	0	5
HLD	70	96	7	96
HLD	70	192	1	96
TAP	70	288	3
TTP	71	0	3	E	0	M1
TTP	71	96	0	C	0	M1
TTP	71	192	0	E	0	M1
TTP	71	192	6	E	0	M1
TAP	72	0	1
TAP	72	0	7
HLD	72	96	3	96
HLD	72	192	5	96
TAP	72	288	7
TTP	73	0	7	E	0	M1
TTP	73	96	0	C	0	M1
TTP	73	192	2	E	0	M1
TTP	73	192	4	E	0	M1
STR	74	0	3
SCL	74	0	3	96	384	4
TAP	74	0	4
XTP	75	192	3
XTP	75	192	4
XTP	75	288	2
XST	75	288	3
SCR	75	288	3	96	576	2
THO	78	0	0	192	C	0	M1
TAP	78	288	0
TAP	78	288	7
BRK	79	0	1
STR	79	0	6
SI_	79	0	6	96	48	3
TAP	79	96	1
TAP	79	192	2
TAP	79	240	2
TAP	79	288	3
STR	80	0	1
SI_	80	0	1	96	48	4
TAP	80	0	7
TAP	80	96	6
TAP	80	192	5
TAP	80	240	5
TAP	80	288	4
TAP	81	0	3
STR	81	0	5
SI_	81	0	5	96	48	0
TAP	81	96	2
TAP	81	192	1
TAP	81	240	1
TAP	81	288	0
STR	82	0	0
SI_	82	0	0	96	48	4
STR	82	0	7
SI_	82	0	7	96	48	3
STR	82	192	1
SI_	82	192	1	96	48	3
STR	82	192	6
SI_	82	192	6	96	48	4
XTP	83	0	1
XTP	83	0	6
HLD	83	192	1	96
TAP	83	192	4
HLD	83	288	3	96
HLD	84	0	4	96
HLD	84	96	6	96
HLD	84	192	4	96
HLD	84	288	3	96
STR	85	0	2
SI_	85	0	2	96	48	7
STR	85	192	4
SI_	85	192	4	96	48	0
TAP	86	0	1
TAP	86	96	2
TAP	86	96	4
TAP	86	192	3
TAP	86	192	5
TAP	86	288	0
TAP	86	288	7
BRK	87	0	1
TAP	87	48	1
TAP	87	96	3
TAP	87	144	3
TAP	87	192	1
TAP	87	240	1
TAP	87	288	7
TAP	87	336	7
TAP	88	0	0
TAP	88	48	0
TAP	88	96	6
TAP	88	144	6
TAP	88	192	4
TAP	88	240	4
TAP	88	288	5
STR	89	0	6
SI_	89	0	6	96	48	3
STR	89	0	7
SI_	89	0	7	96	48	2
STR	89	192	0
SI_	89	192	0	96	48	5
STR	89	192	1
SI_	89	192	1	96	48	4
XTP	90	0	3
XTP	90	0	6
XTP	90	96	4
XTP	90	96	5
XTP	90	192	2
XTP	90	192	3
XTP	90	288	1
XTP	90	288	4
BRK	91	0	6
TAP	91	48	6
TAP	91	96	4
TAP	91	144	4
TAP	91	192	6
TAP	91	240	6
TAP	91	288	0
TAP	91	336	0
TAP	92	0	3
TAP	92	48	3
TAP	92	96	1
TAP	92	144	1
TAP	92	192	6
TAP	92	240	6
TAP	92	288	7
STR	93	0	4
SI_	93	0	4	96	48	1
STR	93	0	5
SI_	93	0	5	96	48	0
STR	93	192	2
SI_	93	192	2	96	48	7
STR	93	192	3
SI_	93	192	3	96	48	6
XTP	94	0	0
XTP	94	0	5
XTP	94	96	1
XTP	94	192	2
XTP	94	192	7
BRK	94	288	4
BRK	94	288	5
TAP	95	0	6
TAP	95	48	6
TAP	95	96	4
TAP	95	144	5
TAP	95	192	1
TAP	95	240	1
TAP	95	288	3
TAP	95	336	2
TAP	96	0	5
TAP	96	48	5
TAP	96	96	4
TAP	96	192	0
TAP	96	192	7
TAP	96	288	1
TAP	96	288	3
TAP	97	0	2
TAP	97	48	2
TAP	97	96	3
TAP	97	144	1
TAP	97	192	5
TAP	97	240	5
TAP	97	288	4
TAP	97	336	6
STR	98	0	0
SI_	98	0	0	96	48	4
STR	98	192	3
SI_	98	192	3	96	48	0
STR	98	192	5
SI_	98	192	5	96	48	0
TAP	99	0	2
TAP	99	48	2
TAP	99	96	4
TAP	99	144	4
HLD	99	192	1	96
TAP	99	288	0
TAP	100	0	6
TAP	100	0	7
TAP	100	96	4
TAP	100	96	5
TAP	100	192	2
TAP	100	192	3
XTP	100	288	0
XTP	100	288	7
TAP	101	0	4
TAP	101	0	5
TAP	101	48	4
TAP	101	48	5
TAP	101	96	3
TAP	101	96	6
TAP	101	144	3
TAP	101	144	6
TAP	101	192	2
TAP	101	192	7
TAP	101	240	2
TAP	101	240	7
BRK	101	288	0
BRK	101	288	1
TAP	102	0	2
TAP	102	0	3
TAP	102	48	2
TAP	102	48	3
TAP	102	96	1
TAP	102	96	4
TAP	102	144	1
TAP	102	144	4
TAP	102	192	0
TAP	102	192	5
TAP	102	240	0
TAP	102	240	5
BRK	102	288	6
BRK	102	288	7
XTP	103	0	0
XTP	103	0	5
XTP	103	144	3
XTP	103	144	6
XTP	103	288	6
XTP	103	288	7
BST	103	336	0
SXR	103	336	0	96	1680	3
XHO	103	336	5	1776
TTP	109	192	0	C	1	M1
TTP	109	192	1	B	0	M1
TTP	109	192	2	E	0	M1
TTP	109	192	2	B	0	M1
TTP	109	192	5	B	0	M1
TTP	109	192	6	B	0	M1
TTP	109	192	6	E	0	M1

T_REC_TAP	324
T_REC_BRK	17
T_REC_XTP	52
T_REC_HLD	59
T_REC_XHO	4
T_REC_STR	40
T_REC_BST	1
T_REC_XST	1
T_REC_TTP	30
T_REC_THO	2
T_REC_SLD	42
T_REC_ALL	572
T_NUM_TAP	447
T_NUM_BRK	18
T_NUM_HLD	65
T_NUM_SLD	42
T_NUM_ALL	572
T_JUDGE_TAP	465
T_JUDGE_HLD	207
T_JUDGE_SLD	42
T_JUDGE_ALL	714
TTM_EACHPAIRS	128
TTM_SCR_TAP	223500
TTM_SCR_BRK	46800
TTM_SCR_HLD	65000
TTM_SCR_SLD	63000
TTM_SCR_ALL	398300
TTM_SCR_S	384650
TTM_SCR_SS	396500
TTM_RAT_ACV	10045

