VERSION	0.00.00	1.03.00
FES_MODE	0
BPM_DEF	180.000	180.000	180.000	180.000
MET_DEF	4	4
RESOLUTION	384
CLK_DEF	384
COMPATIBLE_CODE	MA2

BPM	0	0	180.000
MET	0	0	4	4

STR	2	0	3
SCL	2	0	3	96	480	7
STR	4	0	6
SCL	4	0	6	96	480	2
STR	6	0	1
SUR	6	0	1	96	480	4
HLD	8	0	2	192
HLD	8	0	5	192
TAP	9	0	3
TAP	9	0	4
TAP	9	96	3
TAP	9	96	4
BRK	9	192	2
BRK	9	192	5
TAP	10	0	3
TAP	10	96	2
TAP	10	192	1
TAP	10	288	0
TAP	11	0	7
TAP	11	96	6
TAP	11	192	4
TAP	11	192	5
TAP	12	0	2
TAP	12	96	2
TAP	12	192	2
TAP	12	192	3
HLD	13	0	3	96
HLD	13	0	4	96
TAP	13	192	2
TAP	13	192	5
TAP	14	0	4
TAP	14	96	5
TAP	14	192	6
TAP	14	288	7
TAP	15	0	0
TAP	15	96	1
TAP	15	192	2
TAP	15	192	3
TAP	16	0	5
TAP	16	96	5
TAP	16	192	4
TAP	16	192	5
HLD	17	0	3	96
HLD	17	0	4	96
XTP	17	192	2
XTP	17	192	5
TAP	18	0	1
TAP	18	96	1
TAP	18	192	0
TAP	18	288	0
TAP	19	0	7
TAP	19	96	7
TAP	19	192	0
TAP	19	192	6
TAP	20	0	5
TAP	20	96	5
TAP	20	192	4
TAP	20	288	4
TAP	21	0	3
TAP	21	96	3
TAP	21	192	2
TAP	21	192	4
XST	22	0	3
SUR	22	0	3	96	384	4
XST	24	0	5
SCR	24	0	5	96	384	2
XTP	25	192	3
XTP	25	192	4
HLD	26	0	5	192
TAP	26	192	4
TAP	27	0	3
TAP	27	96	3
TAP	27	192	3
TAP	27	192	4
HLD	28	0	2	192
TAP	28	192	3
TAP	29	0	4
TAP	29	96	4
TAP	29	192	3
TAP	29	192	4
HLD	30	0	6	192
TAP	30	192	7
TAP	31	0	1
TAP	31	96	1
TAP	31	192	0
TAP	31	192	1
STR	32	0	0
SI_	32	0	0	96	288	3
STR	32	0	7
SI_	32	0	7	96	288	4
XTP	33	192	2
XTP	33	192	5
HLD	34	0	1	192
HLD	34	192	2	192
TAP	35	0	3
TAP	35	192	3
TAP	35	192	4
HLD	36	0	5	192
HLD	36	192	6	192
TAP	37	0	7
TAP	37	192	0
TAP	37	192	7
HLD	38	0	1	192
HLD	38	0	3	192
HLD	39	0	4	192
HLD	39	0	6	192
HLD	40	0	5	192
HLD	40	192	4	192
HLD	41	0	3	192
TAP	41	192	2
XST	42	0	1
SI_	42	0	1	96	288	4
TAP	43	192	5
STR	44	0	6
SI_	44	0	6	96	288	3
TAP	45	192	1
STR	46	0	0
SI_	46	0	0	96	288	4
TAP	47	192	6
STR	48	0	7
SI_	48	0	7	96	288	3
XTP	49	192	2
XTP	49	192	5
TTP	50	0	3	E	0	L1
TTP	50	192	2	E	0	L1
TTP	51	0	1	E	0	L1
TTP	51	192	0	E	0	L1
TTP	52	0	0	B	0	L1
TTP	52	0	7	B	0	L1
TTP	52	192	1	B	0	L1
TTP	52	192	6	B	0	L1
THO	53	0	0	192	C	0	L1
TTP	54	0	6	E	0	L1
TTP	54	96	5	B	0	L1
TTP	54	192	4	B	0	L1
TTP	55	0	2	E	0	L1
TTP	55	96	2	B	0	L1
TTP	55	192	3	B	0	L1
TTP	56	0	0	B	0	L1
TTP	56	0	7	B	0	L1
TTP	56	192	1	B	0	L1
TTP	56	192	6	B	0	L1
THO	57	0	0	192	C	0	L1
TAP	58	0	0
TAP	58	0	7
TAP	58	96	0
TAP	58	96	7
TAP	58	192	1
TAP	58	192	6
TAP	58	288	1
TAP	58	288	6
TAP	59	0	2
TAP	59	0	5
TAP	59	96	2
TAP	59	96	5
HLD	59	192	3	96
HLD	59	192	4	96
TAP	60	0	3
TAP	60	0	4
TAP	60	96	5
TAP	60	192	3
TAP	60	192	4
TAP	60	288	2
TAP	61	0	3
TAP	61	0	4
TAP	61	96	3
TAP	61	96	4
TAP	61	192	2
TAP	61	192	5
TAP	61	288	1
TAP	61	288	6
BRK	62	0	0
BRK	62	0	7
TAP	62	192	1
TAP	62	192	3
TAP	62	288	2
TAP	63	0	3
TAP	63	96	4
TAP	63	192	3
TAP	63	192	4
HLD	64	0	4	96
HLD	64	0	6	96
TAP	64	192	4
TAP	64	192	6
TAP	64	288	5
TAP	65	0	4
TAP	65	96	3
TAP	65	192	3
TAP	65	192	4
HLD	66	0	2	192
TAP	66	96	3
TAP	66	192	4
HLD	67	0	5	192
TAP	67	96	4
TAP	67	192	3
HLD	68	0	1	192
TAP	68	96	0
TAP	68	192	7
HLD	69	0	0	96
HLD	69	0	7	96
TAP	69	192	1
TAP	69	192	6
HLD	70	0	2	96
TAP	70	96	3
TAP	70	192	1
TAP	70	192	4
HLD	71	0	5	96
TAP	71	96	4
TAP	71	192	3
TAP	71	192	6
HLD	72	0	4	192
HLD	72	0	5	192
HLD	73	0	2	192
HLD	73	0	3	192
STR	74	0	1
SCR	74	0	1	96	480	6
STR	76	0	0
SXL	76	0	0	96	480	3
STR	76	0	7
SXR	76	0	7	96	480	4
XHO	78	0	2	192
XHO	78	0	5	192
BRK	78	288	1
BRK	78	288	6
TAP	79	0	0
TAP	79	96	0
TAP	79	192	1
TAP	79	288	1
TAP	80	0	2
TAP	80	96	3
TAP	80	192	4
TAP	80	192	5
TAP	80	288	6
TAP	81	0	7
TAP	81	96	7
TAP	81	192	6
TAP	81	288	6
TAP	82	0	4
TAP	82	0	5
TAP	82	96	3
XTP	82	192	2
XTP	82	192	4
TAP	83	0	1
TAP	83	96	1
TAP	83	192	0
TAP	83	288	0
TAP	84	0	1
TAP	84	96	0
TAP	84	96	1
TAP	84	192	2
TAP	84	192	7
TAP	85	0	6
TAP	85	96	6
TAP	85	192	7
TAP	85	288	7
TAP	86	0	6
TAP	86	0	7
TAP	86	96	0
TAP	86	96	5
BRK	86	192	1
BRK	86	192	4
TAP	87	0	0
TAP	87	96	1
TAP	87	192	2
TAP	87	192	3
TAP	87	288	2
TAP	87	288	3
TAP	88	0	4
TAP	88	48	4
TAP	88	96	4
TAP	88	192	3
TAP	88	192	5
TAP	89	0	7
TAP	89	96	6
TAP	89	192	4
TAP	89	192	5
TAP	89	288	4
TAP	89	288	5
TAP	90	0	3
TAP	90	48	3
TAP	90	96	3
XTP	90	192	2
XTP	90	192	4
TAP	91	0	3
TAP	91	96	2
TAP	91	192	0
TAP	91	192	1
TAP	91	288	0
TAP	91	288	1
TAP	92	0	7
TAP	92	48	7
TAP	92	96	7
TAP	92	192	0
TAP	92	192	6
TAP	93	0	4
TAP	93	96	5
TAP	93	192	6
TAP	93	192	7
TAP	93	288	6
TAP	93	288	7
TAP	94	0	0
TAP	94	48	0
TAP	94	96	0
XTP	94	192	1
XTP	94	192	7
TAP	95	0	6
TAP	95	48	6
TAP	95	96	6
TAP	95	192	4
TAP	95	192	5
TAP	95	288	4
TAP	95	288	5
TAP	96	0	3
TAP	96	48	3
TAP	96	96	3
TAP	96	192	2
TAP	96	192	4
TAP	97	0	2
TAP	97	48	2
TAP	97	96	2
TAP	97	192	0
TAP	97	192	1
TAP	97	288	0
TAP	97	288	1
TAP	98	0	7
TAP	98	48	7
TAP	98	96	7
TAP	98	192	0
TAP	98	192	6
HLD	99	0	5	96
TAP	99	96	4
TAP	99	192	3
TAP	99	288	2
HLD	100	0	2	96
TAP	100	96	3
TAP	100	192	1
TAP	100	192	4
TAP	101	0	2
TAP	101	48	2
TAP	101	96	2
TAP	101	192	4
TAP	101	240	4
TAP	101	288	4
TAP	102	0	3
TAP	102	48	3
TAP	102	96	3
TAP	102	192	5
TAP	102	240	5
TAP	102	288	5
XHO	103	0	1	144
XHO	103	0	6	144
XTP	103	288	0
XTP	103	288	7
XST	103	336	0
SCR	103	336	0	96	1680	7
XTP	103	336	7
TTP	109	192	0	C	1	L1
TTP	109	192	1	B	0	L1
TTP	109	192	6	B	0	L1

T_REC_TAP	240
T_REC_BRK	8
T_REC_XTP	17
T_REC_HLD	37
T_REC_XHO	4
T_REC_STR	11
T_REC_BST	0
T_REC_XST	4
T_REC_TTP	21
T_REC_THO	2
T_REC_SLD	15
T_REC_ALL	359
T_NUM_TAP	293
T_NUM_BRK	8
T_NUM_HLD	43
T_NUM_SLD	15
T_NUM_ALL	359
T_JUDGE_TAP	301
T_JUDGE_HLD	142
T_JUDGE_SLD	15
T_JUDGE_ALL	458
TTM_EACHPAIRS	83
TTM_SCR_TAP	146500
TTM_SCR_BRK	20800
TTM_SCR_HLD	43000
TTM_SCR_SLD	22500
TTM_SCR_ALL	232800
TTM_SCR_S	225050
TTM_SCR_SS	232000
TTM_RAT_ACV	10034

