VERSION	0.00.00	1.03.00
FES_MODE	0
BPM_DEF	180.000	180.000	180.000	180.000
MET_DEF	4	4
RESOLUTION	384
CLK_DEF	384
COMPATIBLE_CODE	MA2

BPM	0	0	180.000
MET	0	0	4	4

XHO	2	0	0	576
XHO	4	0	7	576
STR	6	0	0
SI_	6	0	0	96	288	3
STR	8	0	7
SI_	8	0	7	96	288	4
XHO	10	0	3	576
TAP	12	0	4
TAP	12	192	4
TAP	13	0	5
TAP	13	192	5
XHO	14	0	6	576
TAP	16	0	7
TAP	16	192	7
TAP	17	0	0
TAP	17	192	0
STR	18	0	1
SI_	18	0	1	96	288	4
STR	20	0	6
SI_	20	0	6	96	288	3
XHO	22	0	2	288
XHO	22	0	3	288
XTP	23	192	2
XTP	23	192	3
XHO	24	0	4	288
XHO	24	0	5	288
XTP	25	192	4
XTP	25	192	5
TAP	26	0	3
TAP	26	192	3
TAP	27	0	2
TAP	27	192	2
TAP	28	0	1
TAP	28	192	1
TAP	29	0	0
TAP	29	0	7
TAP	30	0	7
TAP	30	192	7
TAP	31	0	6
TAP	31	192	6
TAP	32	0	5
TAP	32	192	5
BRK	33	0	3
BRK	33	0	4
STR	34	0	2
SI_	34	0	2	96	288	7
STR	36	0	5
SI_	36	0	5	96	288	0
HLD	38	0	1	192
TAP	39	0	1
TAP	39	192	2
TAP	40	0	3
TAP	40	192	4
TAP	41	0	5
TAP	41	96	5
TAP	41	192	5
STR	42	0	6
SI_	42	0	6	96	288	1
TAP	44	0	0
TAP	44	192	0
TAP	45	0	7
TAP	45	192	7
STR	46	0	0
SI_	46	0	0	96	288	3
TAP	48	0	4
TAP	48	192	4
BRK	49	0	3
BRK	49	0	4
TTP	50	0	2	B	0	L1
TTP	51	0	1	B	0	L1
TTP	52	0	0	B	0	L1
TTP	53	0	7	B	0	L1
TTP	54	0	6	B	0	L1
TTP	55	0	5	B	0	L1
TTP	56	0	4	B	0	L1
TTP	57	0	3	B	0	L1
TTP	58	0	2	B	0	L1
TTP	58	0	5	B	0	L1
TTP	59	0	2	E	0	L1
TTP	59	0	6	E	0	L1
THO	60	0	0	384	C	1	L1
HLD	62	0	0	384
TAP	63	192	0
HLD	64	0	7	384
TAP	65	192	7
TAP	66	0	0
TAP	66	192	0
TAP	67	0	1
TAP	67	192	1
HLD	68	0	2	384
HLD	68	0	3	384
TAP	70	0	3
TAP	70	192	3
TAP	71	0	4
TAP	71	192	4
TAP	72	0	5
TAP	72	192	5
TAP	73	0	6
TAP	73	192	6
STR	74	0	7
SI_	74	0	7	96	288	3
TAP	75	192	0
STR	76	0	0
SI_	76	0	0	96	288	4
TAP	77	192	7
BRK	78	0	0
BRK	78	0	7
XHO	79	0	0	576
XHO	79	0	1	576
XHO	81	0	2	576
XHO	81	0	3	576
TAP	83	0	3
TAP	83	96	3
TAP	83	192	3
TAP	84	0	4
TAP	84	96	4
TAP	84	192	4
HLD	85	0	3	192
HLD	85	0	5	192
TAP	86	0	3
TAP	86	0	5
XHO	87	0	6	192
XHO	87	0	7	192
XHO	88	0	6	192
XHO	88	0	7	192
TAP	89	0	5
TAP	89	96	5
TAP	89	192	5
TAP	90	0	4
TAP	90	96	4
TAP	90	192	4
XHO	91	0	2	192
XHO	91	0	3	192
XHO	92	0	2	192
XHO	92	0	3	192
TAP	93	0	1
TAP	93	96	1
TAP	93	192	1
TAP	94	0	0
TAP	94	96	0
TAP	94	192	0
XST	95	0	0
SI_	95	0	0	96	288	5
XST	95	0	1
SI_	95	0	1	96	288	4
TAP	96	192	6
XST	97	0	6
SI_	97	0	6	96	288	3
XST	97	0	7
SI_	97	0	7	96	288	2
TAP	98	192	1
TAP	99	0	0
TAP	99	96	0
TAP	99	192	0
TAP	100	0	7
TAP	100	96	7
TAP	100	192	7
HLD	101	0	0	192
HLD	101	0	7	192
HLD	102	0	1	192
HLD	102	0	6	192
XST	103	0	0
SI_	103	0	0	96	288	3
XST	103	0	7
SI_	103	0	7	96	288	4
XHO	105	0	2	1536
XHO	105	0	5	1536
TTP	109	192	0	C	1	L1

T_REC_TAP	79
T_REC_BRK	6
T_REC_XTP	4
T_REC_HLD	11
T_REC_XHO	22
T_REC_STR	10
T_REC_BST	0
T_REC_XST	6
T_REC_TTP	13
T_REC_THO	1
T_REC_SLD	16
T_REC_ALL	168
T_NUM_TAP	112
T_NUM_BRK	6
T_NUM_HLD	34
T_NUM_SLD	16
T_NUM_ALL	168
T_JUDGE_TAP	118
T_JUDGE_HLD	284
T_JUDGE_SLD	16
T_JUDGE_ALL	418
TTM_EACHPAIRS	23
TTM_SCR_TAP	56000
TTM_SCR_BRK	15600
TTM_SCR_HLD	34000
TTM_SCR_SLD	24000
TTM_SCR_ALL	129600
TTM_SCR_S	125150
TTM_SCR_SS	129000
TTM_RAT_ACV	10046

