VERSION	0.00.00	1.03.00
FES_MODE	0
BPM_DEF	163.000	163.000	163.000	163.000
MET_DEF	4	4
RESOLUTION	384
CLK_DEF	384
COMPATIBLE_CODE	MA2

BPM	0	0	163.000
MET	0	0	4	4

XTP	2	0	1
XTP	2	0	6
TAP	2	96	3
HLD	2	144	4	96
TAP	2	240	3
TAP	2	288	4
TAP	3	0	2
TAP	3	0	4
TAP	3	96	4
HLD	3	144	3	96
TAP	3	240	4
TAP	3	288	3
TAP	4	0	3
TAP	4	0	5
TAP	4	96	3
HLD	4	144	4	96
TAP	4	240	3
TAP	4	288	4
TAP	4	380	3
TAP	5	0	4
STR	5	192	1
SI_	5	192	1	96	48	5
HLD	5	192	5	96
XTP	5	288	1
TAP	6	0	3
TAP	6	0	6
TAP	6	48	5
TAP	6	72	4
TAP	6	120	2
TAP	6	144	3
TAP	6	192	1
TAP	6	216	0
TAP	6	264	6
TAP	6	288	7
TAP	6	336	3
TAP	6	336	5
TAP	7	0	1
TAP	7	0	4
TAP	7	48	2
TAP	7	72	3
TAP	7	120	5
TAP	7	144	4
TAP	7	192	6
TAP	7	216	7
TAP	7	264	1
TAP	7	288	0
TAP	7	336	2
TAP	7	336	4
TAP	8	0	3
TAP	8	0	6
TAP	8	48	5
TAP	8	72	4
TAP	8	120	2
TAP	8	144	3
TAP	8	192	1
TAP	8	216	0
TAP	8	264	6
TAP	8	288	7
TAP	8	336	3
TAP	8	336	5
TAP	9	0	1
TAP	9	0	4
TAP	9	72	3
TAP	9	72	6
TAP	9	144	1
TAP	9	144	7
STR	9	192	1
SV_	9	192	1	96	48	4
STR	9	192	7
SV_	9	192	7	96	48	4
XTP	9	288	1
XTP	9	288	7
TAP	10	0	1
TAP	10	0	4
TAP	10	48	2
TAP	10	72	3
TAP	10	120	5
TAP	10	144	4
TAP	10	192	6
TAP	10	216	7
TAP	10	264	1
TAP	10	288	0
TAP	10	336	2
TAP	10	336	4
TAP	11	0	3
TAP	11	0	6
TAP	11	48	5
TAP	11	72	4
TAP	11	120	2
TAP	11	144	3
TAP	11	192	1
TAP	11	216	0
TAP	11	264	6
TAP	11	288	7
TAP	11	336	3
TAP	11	336	5
TAP	12	0	1
TAP	12	0	4
TAP	12	48	2
TAP	12	72	3
TAP	12	120	5
TAP	12	144	4
TAP	12	192	6
TAP	12	216	7
TAP	12	264	1
TAP	12	288	0
TAP	12	336	2
TAP	12	336	4
TAP	13	0	3
TAP	13	0	6
TAP	13	72	1
TAP	13	72	4
TAP	13	144	0
TAP	13	144	6
STR	13	192	0
SV_	13	192	0	96	48	3
STR	13	192	6
SV_	13	192	6	96	48	3
XTP	13	288	0
XTP	13	288	6
TAP	14	0	4
TAP	14	0	5
TAP	14	48	3
HLD	14	96	2	96
TAP	14	96	5
TAP	14	192	3
TAP	14	240	2
TAP	14	288	1
STR	14	336	0
SCR	14	336	0	96	48	3
STR	15	48	5
SI_	15	48	5	96	48	2
STR	15	144	0
SI_	15	144	0	96	48	4
TAP	15	240	7
TAP	15	288	7
TAP	16	0	2
TAP	16	0	3
TAP	16	48	4
TAP	16	96	2
HLD	16	96	5	96
TAP	16	192	4
TAP	16	240	5
TAP	16	288	6
STR	16	336	7
SCL	16	336	7	96	48	4
STR	17	48	2
SI_	17	48	2	96	48	5
STR	17	144	7
SI_	17	144	7	96	48	3
TAP	17	240	0
TAP	17	288	0
TAP	18	0	3
STR	18	0	5
SCR	18	0	5	96	48	7
TAP	18	96	4
TAP	18	144	4
TAP	18	192	3
HLD	18	240	3	96
HLD	18	336	1	96
HLD	19	48	0	96
TAP	19	96	3
TAP	19	144	3
TAP	19	240	5
TAP	19	288	4
TAP	19	336	3
TAP	20	0	2
TAP	20	0	5
BRK	20	96	0
BRK	20	96	7
TAP	20	192	4
HLD	20	240	4	96
HLD	20	336	5	96
TAP	21	48	7
TAP	21	96	7
TAP	21	192	4
TAP	21	192	5
TAP	21	240	6
TAP	21	288	3
TAP	21	288	7
STR	22	0	2
SCL	22	0	2	96	48	0
TAP	22	0	4
TAP	22	96	3
TAP	22	144	3
TAP	22	192	4
HLD	22	240	4	96
HLD	22	336	6	96
HLD	23	48	7	96
TAP	23	96	4
TAP	23	144	4
TAP	23	240	2
TAP	23	288	3
TAP	23	336	4
TAP	24	0	2
HLD	24	0	5	96
TAP	24	96	2
TAP	24	192	3
HLD	24	240	3	96
HLD	24	336	2	96
TAP	25	48	0
TAP	25	96	0
TAP	25	192	2
TAP	25	192	3
TAP	25	240	1
TAP	25	288	0
TAP	25	288	4
TAP	26	0	4
TAP	26	0	6
TAP	26	48	2
HLD	26	96	1	96
TAP	26	96	3
TAP	26	192	2
TAP	26	240	2
TTP	26	336	4	E	0	M1
TTP	26	336	5	E	0	M1
TTP	27	48	0	E	0	M1
TTP	27	48	7	E	0	M1
TTP	27	144	0	C	0	M1
TTP	27	144	6	E	0	M1
TAP	27	240	1
HLD	27	288	1	96
TAP	28	0	3
TAP	28	48	5
TAP	28	96	4
HLD	28	96	6	96
TAP	28	192	5
TAP	28	240	5
TTP	28	336	3	E	0	M1
TTP	28	336	4	E	0	M1
TTP	29	48	0	E	0	M1
TTP	29	48	1	E	0	M1
TTP	29	144	0	C	0	M1
TTP	29	144	2	E	0	M1
TAP	29	240	6
HLD	29	288	6	96
HLD	30	0	1	384
TAP	30	96	3
TAP	30	192	5
TAP	30	288	4
HLD	31	0	6	384
TAP	31	96	4
TAP	31	192	2
TAP	31	288	3
TAP	32	0	1
TAP	32	96	0
TAP	32	144	7
TAP	32	192	1
TAP	32	192	6
TAP	32	288	3
TAP	32	288	4
TAP	33	0	2
TAP	33	0	5
TAP	33	48	2
TAP	33	48	5
TAP	33	96	2
TAP	33	96	5
TAP	33	144	2
TAP	33	144	5
TAP	33	192	2
TAP	33	192	5
STR	33	288	6
SI_	33	288	6	96	48	2
STR	33	288	7
SI_	33	288	7	96	48	3
XTP	34	0	6
XTP	34	0	7
TAP	34	96	0
TAP	34	144	0
TAP	34	192	6
TAP	34	192	7
TAP	34	240	5
TAP	34	288	2
TAP	34	288	4
TAP	34	336	1
TAP	35	0	0
TAP	35	0	7
TAP	35	48	2
TAP	35	96	1
TAP	35	96	7
TAP	35	144	5
TAP	35	192	0
TAP	35	192	6
TAP	35	240	2
STR	35	288	0
SI_	35	288	0	96	48	4
STR	35	288	1
SI_	35	288	1	96	48	5
XTP	36	0	0
XTP	36	0	1
TAP	36	96	7
TAP	36	144	7
TAP	36	192	0
TAP	36	192	1
TAP	36	240	2
TAP	36	288	3
TAP	36	288	5
TAP	36	336	6
TAP	37	0	0
TAP	37	0	7
TAP	37	48	5
TAP	37	96	0
TAP	37	96	6
TAP	37	144	2
TAP	37	192	1
TAP	37	192	7
TAP	37	240	5
TAP	37	288	0
TAP	37	336	0
STR	38	0	0
SCR	38	0	0	96	96	5
TAP	38	0	6
TAP	38	96	7
TAP	38	144	7
TAP	38	192	0
HLD	38	240	0	96
TAP	38	336	4
STR	39	0	4
SCL	39	0	4	96	48	1
STR	39	96	4
SCR	39	96	4	96	48	7
TAP	39	192	4
TAP	39	288	0
STR	40	0	0
SCR	40	0	0	96	96	5
TAP	40	0	5
TAP	40	96	7
TAP	40	144	7
TAP	40	192	0
HLD	40	240	0	96
TAP	40	336	4
STR	41	0	4
SCL	41	0	4	96	48	1
STR	41	96	4
SCR	41	96	4	96	48	7
TAP	41	192	4
STR	41	288	0
SI_	41	288	0	96	48	4
STR	41	288	7
SI_	41	288	7	96	48	3
BRK	42	0	0
BRK	42	0	7
BRK	42	96	1
BRK	42	96	6
TAP	42	192	0
TAP	42	192	1
TAP	42	240	2
TAP	42	288	3
TAP	42	288	5
TAP	42	336	6
TAP	43	0	0
TAP	43	0	7
TAP	43	48	5
TAP	43	96	0
TAP	43	96	6
TAP	43	144	2
STR	43	192	1
SI_	43	192	1	96	48	5
STR	43	192	7
SI_	43	192	7	96	48	3
TAP	44	0	2
TAP	44	0	6
TAP	44	96	0
TAP	44	144	0
TAP	44	192	6
TAP	44	192	7
TAP	44	240	5
TAP	44	288	2
TAP	44	288	4
STR	44	336	1
SI_	44	336	1	96	48	5
TAP	45	48	7
TAP	45	96	7
TAP	45	144	6
TAP	45	192	0
TAP	45	192	5
TAP	45	240	2
TAP	45	288	7
TAP	46	0	1
STR	46	0	7
SCL	46	0	7	96	96	2
TAP	46	96	0
TAP	46	144	0
TAP	46	192	7
HLD	46	240	7	96
TAP	46	336	3
STR	47	0	3
SI_	47	0	3	96	48	6
STR	47	96	3
SI_	47	96	3	96	48	0
TAP	47	192	3
STR	47	192	7
SUL	47	192	7	96	96	2
TAP	47	288	0
TAP	48	0	0
STR	48	96	3
SLL	48	96	3	96	144	4
STR	48	96	5
SLR	48	96	5	96	144	4
TAP	49	0	2
TAP	49	0	6
TAP	49	96	3
TAP	49	96	4
TAP	49	192	1
TAP	49	192	5
TAP	49	240	2
TAP	49	288	3
TAP	49	336	4
HLD	50	0	3	96
HLD	50	0	5	96
HLD	50	144	1	96
HLD	50	144	4	96
TAP	50	336	2
TAP	50	336	5
TAP	51	0	1
TAP	51	0	6
STR	51	48	0
SI_	51	48	0	96	48	4
STR	51	48	7
SI_	51	48	7	96	48	3
TAP	51	144	0
TAP	51	144	7
TAP	51	240	2
TAP	51	240	5
TAP	51	288	2
TAP	51	288	5
TAP	52	0	1
TAP	52	48	3
TAP	52	96	4
STR	52	144	6
SI_	52	144	6	96	48	3
STR	52	240	2
SI_	52	240	2	96	48	7
HLD	52	336	5	96
BRK	53	48	0
BRK	53	96	0
TAP	53	192	2
TAP	53	224	3
TAP	53	256	1
TAP	53	288	5
TAP	53	320	4
TAP	53	352	6
STR	54	0	0
SCR	54	0	0	96	48	3
TTP	54	96	1	B	0	M1
TTP	54	96	2	B	0	M1
STR	54	192	7
SCL	54	192	7	96	48	4
TTP	54	288	5	B	0	M1
TTP	54	288	6	B	0	M1
STR	55	0	0
SCR	55	0	0	96	48	3
TTP	55	96	1	B	0	M1
TTP	55	96	2	B	0	M1
STR	55	192	7
SCL	55	192	7	96	48	4
TTP	55	288	5	B	0	M1
TTP	55	288	6	B	0	M1
TAP	56	0	0
TAP	56	48	0
TAP	56	48	7
TAP	56	144	2
TAP	56	192	1
TAP	56	192	3
TAP	56	288	5
TAP	56	336	4
TAP	56	336	6
TAP	57	48	0
TAP	57	48	7
TAP	57	96	0
TAP	57	96	7
TAP	57	192	3
TAP	57	192	4
TAP	57	288	3
TAP	57	288	5
HLD	58	0	1	576
STR	58	0	7
SCR	58	0	7	96	480	6
TAP	59	288	2
TAP	59	288	4
STR	60	0	0
SCL	60	0	0	96	480	1
HLD	60	0	6	576
TAP	61	240	0
TAP	61	264	7
TAP	61	288	0
STR	62	0	0
SCR	62	0	0	96	96	5
TAP	62	0	6
TAP	62	96	7
TAP	62	144	7
TAP	62	192	0
HLD	62	240	0	96
TAP	62	336	4
STR	63	0	4
SCL	63	0	4	96	48	1
STR	63	96	4
SCR	63	96	4	96	48	7
TAP	63	192	4
TAP	63	288	0
STR	64	0	0
SI_	64	0	0	96	48	4
TAP	64	0	5
TAP	64	96	7
TAP	64	144	7
TAP	64	192	0
TAP	64	192	7
TAP	64	240	1
TAP	64	240	6
TAP	64	288	3
TAP	64	288	4
TAP	64	336	2
TAP	64	336	5
TAP	65	192	3
TAP	65	216	4
TAP	65	240	3
STR	65	288	0
SI_	65	288	0	96	48	4
STR	65	288	7
SI_	65	288	7	96	48	3
BRK	66	0	0
BRK	66	0	7
TTP	66	24	0	C	1	M1
BRK	66	96	1
BRK	66	96	6
TAP	66	192	6
TAP	66	192	7
TAP	66	240	5
TAP	66	288	2
TAP	66	288	4
TAP	66	336	1
TAP	67	0	0
TAP	67	0	7
TAP	67	48	2
TAP	67	96	1
TAP	67	96	7
TAP	67	144	5
STR	67	192	0
SI_	67	192	0	96	48	4
STR	67	192	6
SI_	67	192	6	96	48	2
TAP	68	0	1
TAP	68	0	5
HLD	68	96	7	96
TAP	68	192	1
TAP	68	240	2
TAP	68	288	3
TAP	68	288	5
STR	68	336	6
SI_	68	336	6	96	48	2
TAP	69	48	0
TAP	69	96	0
TAP	69	144	1
TAP	69	192	2
TAP	69	192	5
TAP	69	240	6
TAP	69	288	7
TAP	70	0	1
STR	70	0	7
SCL	70	0	7	96	96	2
TAP	70	96	0
TAP	70	144	0
TAP	70	192	7
HLD	70	240	7	96
TAP	70	336	3
STR	71	0	3
SI_	71	0	3	96	48	6
STR	71	96	3
SI_	71	96	3	96	48	0
TAP	71	192	3
STR	71	192	7
SUL	71	192	7	96	96	2
TAP	71	288	0
TAP	72	0	0
STR	72	96	3
SLL	72	96	3	96	144	4
STR	72	96	5
SLR	72	96	5	96	144	4
TAP	73	0	2
TAP	73	0	6
TAP	73	96	3
TAP	73	96	4
TAP	73	192	7
TAP	73	216	0
TAP	73	240	7
TAP	73	288	1
TAP	73	288	6
HLD	74	0	5	288
TAP	74	96	7
TAP	74	144	7
TAP	74	240	4
HLD	74	288	2	384
TAP	75	0	3
TAP	75	96	0
TAP	75	144	0
TAP	75	240	3
HLD	75	288	5	384
TAP	76	0	4
TAP	76	96	7
TAP	76	144	7
TAP	76	240	4
TAP	76	288	2
TAP	76	380	3
TAP	77	0	4
STR	77	192	2
SI_	77	192	2	96	48	7
HLD	77	192	5	96
XTP	77	288	2
TAP	78	0	3
TAP	78	0	6
TAP	78	48	5
TAP	78	72	4
TAP	78	120	2
TAP	78	144	3
TAP	78	192	1
TAP	78	216	0
TAP	78	264	6
TAP	78	288	7
TAP	78	336	3
TAP	78	336	5
TAP	79	0	1
TAP	79	0	4
TAP	79	48	2
TAP	79	72	3
TAP	79	120	5
TAP	79	144	4
TAP	79	192	6
TAP	79	216	7
TAP	79	264	1
TAP	79	288	0
TAP	79	336	2
TAP	79	336	4
TAP	80	0	3
TAP	80	0	6
TAP	80	48	5
TAP	80	72	4
TAP	80	120	2
TAP	80	144	3
TAP	80	192	1
TAP	80	216	0
TAP	80	264	6
TAP	80	288	7
TAP	80	336	1
TAP	80	336	5
TAP	81	0	0
TAP	81	0	7
TAP	81	72	1
TAP	81	72	4
TAP	81	144	4
TAP	81	144	6
TAP	81	192	0
TAP	81	192	7
TAP	81	264	1
TAP	81	264	3
TAP	81	336	3
TAP	81	336	6
TAP	82	0	0
TAP	82	0	7
TAP	82	72	1
TAP	82	72	3
TAP	82	144	4
TAP	82	144	5
TAP	82	192	1
STR	82	192	6
SUL	82	192	6	96	96	2

T_REC_TAP	458
T_REC_BRK	12
T_REC_XTP	12
T_REC_HLD	40
T_REC_XHO	0
T_REC_STR	61
T_REC_BST	0
T_REC_XST	0
T_REC_TTP	21
T_REC_THO	0
T_REC_SLD	61
T_REC_ALL	665
T_NUM_TAP	552
T_NUM_BRK	12
T_NUM_HLD	40
T_NUM_SLD	61
T_NUM_ALL	665
T_JUDGE_TAP	564
T_JUDGE_HLD	128
T_JUDGE_SLD	61
T_JUDGE_ALL	753
TTM_EACHPAIRS	141
TTM_SCR_TAP	276000
TTM_SCR_BRK	31200
TTM_SCR_HLD	40000
TTM_SCR_SLD	91500
TTM_SCR_ALL	438700
TTM_SCR_S	424400
TTM_SCR_SS	437500
TTM_RAT_ACV	10027

