VERSION	0.00.00	1.03.00
FES_MODE	0
BPM_DEF	163.000	163.000	163.000	163.000
MET_DEF	4	4
RESOLUTION	384
CLK_DEF	384
COMPATIBLE_CODE	MA2

BPM	0	0	163.000
MET	0	0	4	4

TAP	2	0	3
TAP	2	0	4
TAP	2	96	5
HLD	2	144	5	144
TAP	2	288	3
TAP	3	0	3
TAP	3	0	4
TAP	3	96	2
HLD	3	144	2	144
TAP	3	288	4
TAP	4	0	3
TAP	4	0	4
TAP	4	96	5
HLD	4	144	5	144
TAP	4	288	2
BRK	5	0	3
BRK	5	0	4
THO	5	192	0	96	C	1	M1
STR	6	0	7
SI_	6	0	7	96	48	2
SI_	6	0	7	96	48	3
TAP	6	192	4
TAP	6	240	4
TAP	6	288	1
STR	7	0	0
SI_	7	0	0	96	48	4
SI_	7	0	0	96	48	5
TAP	7	192	3
TAP	7	240	3
TAP	7	288	6
STR	8	0	7
SI_	8	0	7	96	48	2
SI_	8	0	7	96	48	3
TAP	8	192	4
TAP	8	240	4
TAP	8	288	1
HLD	9	0	0	72
HLD	9	0	7	72
TAP	9	144	1
TAP	9	144	6
TAP	9	192	1
TAP	9	192	6
BRK	9	288	3
BRK	9	288	4
STR	10	0	6
SI_	10	0	6	96	48	3
STR	10	0	7
SI_	10	0	7	96	48	3
TAP	10	192	2
TAP	10	240	2
TAP	10	288	7
STR	11	0	0
SI_	11	0	0	96	48	4
STR	11	0	1
SI_	11	0	1	96	48	4
TAP	11	192	5
TAP	11	240	5
TAP	11	288	0
STR	12	0	6
SI_	12	0	6	96	48	3
STR	12	0	7
SI_	12	0	7	96	48	3
TAP	12	192	2
TAP	12	240	2
TAP	12	288	7
HLD	13	0	1	72
HLD	13	0	6	72
TAP	13	144	3
TAP	13	144	4
TAP	13	192	3
TAP	13	192	4
TTP	13	288	0	C	1	M1
TTP	13	288	1	B	0	M1
TTP	13	288	6	B	0	M1
TAP	14	0	0
TAP	14	96	1
TAP	14	96	7
HLD	14	144	1	96
TAP	14	144	7
HLD	14	240	3	96
TAP	14	336	2
TAP	15	48	3
TAP	15	48	5
TAP	15	96	3
STR	15	96	5
SUL	15	96	5	96	96	0
TAP	16	0	7
TAP	16	96	0
TAP	16	96	6
TAP	16	144	0
HLD	16	144	6	96
HLD	16	240	4	96
TAP	16	336	5
TAP	17	48	2
TAP	17	48	4
STR	17	96	2
SUR	17	96	2	96	96	7
TAP	17	96	4
TAP	18	0	0
HLD	18	96	1	96
TAP	18	96	3
TAP	18	192	2
TAP	18	240	2
TAP	18	336	1
TAP	18	336	3
TAP	19	48	2
TAP	19	48	4
TAP	19	144	3
TAP	19	144	5
TAP	19	240	6
TAP	19	288	6
TAP	20	0	0
TAP	20	0	7
TAP	20	96	4
HLD	20	96	6	96
TAP	20	192	5
TAP	20	240	5
TAP	20	336	4
TAP	20	336	6
TAP	21	48	3
TAP	21	48	5
TAP	21	144	2
TAP	21	144	4
TAP	21	240	1
TAP	21	288	1
TAP	22	0	0
TAP	22	0	7
HLD	22	96	1	96
TAP	22	192	0
TAP	22	240	0
TAP	22	336	2
TAP	22	336	7
TAP	23	48	3
TAP	23	48	6
TAP	23	144	4
TAP	23	144	5
TAP	23	240	1
TAP	23	288	1
TAP	24	0	0
TAP	24	0	7
HLD	24	96	6	96
TAP	24	192	7
TAP	24	240	7
TAP	24	336	0
TAP	24	336	5
TAP	25	48	1
TAP	25	48	4
TAP	25	144	2
TAP	25	144	3
TAP	25	240	6
TAP	25	288	6
TTP	26	0	2	B	0	M1
TTP	26	0	5	B	0	M1
TTP	26	96	0	C	1	M1
HLD	26	336	7	96
HLD	27	48	1	96
TAP	27	144	3
TAP	27	240	0
TAP	27	288	0
TTP	28	0	1	B	0	M1
TTP	28	0	6	B	0	M1
TTP	28	96	0	C	1	M1
HLD	28	336	0	96
HLD	29	48	6	96
TAP	29	144	4
TAP	29	240	7
TAP	29	288	7
HLD	30	0	2	96
STR	30	96	3
SV_	30	96	3	96	96	6
HLD	31	0	5	96
STR	31	96	4
SV_	31	96	4	96	96	1
TAP	32	0	3
TAP	32	96	2
TAP	32	96	4
TAP	32	192	4
TAP	32	288	3
TAP	32	288	5
TAP	33	0	1
TAP	33	0	6
TAP	33	48	1
TAP	33	48	6
TAP	33	96	1
TAP	33	96	6
STR	33	192	3
SI_	33	192	3	96	48	0
STR	33	192	4
SI_	33	192	4	96	48	7
BRK	34	0	1
BRK	34	0	6
STR	34	96	2
SI_	34	96	2	96	48	7
TAP	34	144	3
TAP	34	192	3
STR	34	288	5
SI_	34	288	5	96	48	0
TAP	34	336	4
TAP	35	0	4
TAP	35	96	1
TAP	35	144	1
TAP	35	192	4
TAP	35	240	4
HLD	35	288	2	96
BRK	36	0	7
STR	36	96	6
SI_	36	96	6	96	48	3
TAP	36	144	7
TAP	36	192	7
STR	36	288	1
SI_	36	288	1	96	48	4
TAP	36	336	0
TAP	37	0	0
TAP	37	96	5
TAP	37	144	5
TAP	37	192	0
TAP	37	288	2
TAP	37	288	3
BRK	38	0	1
BRK	38	0	6
TTP	38	96	7	E	0	M1
TTP	38	96	7	B	0	M1
TTP	38	192	0	B	0	M1
TTP	38	192	1	E	0	M1
TTP	38	288	4	B	0	M1
TTP	38	288	5	E	0	M1
TAP	39	0	2
TAP	39	48	2
TAP	39	96	0
TAP	39	192	5
TAP	39	240	5
TAP	39	288	7
BRK	40	0	1
BRK	40	0	6
TTP	40	96	3	E	0	M1
TTP	40	96	3	B	0	M1
TTP	40	192	4	B	0	M1
TTP	40	192	5	E	0	M1
TTP	40	288	0	B	0	M1
TTP	40	288	1	E	0	M1
TTP	41	0	5	B	0	M1
TTP	41	0	6	B	0	M1
TTP	41	96	1	B	0	M1
TTP	41	96	2	B	0	M1
TTP	41	192	0	E	0	M1
TTP	41	192	0	C	1	M1
BRK	42	0	0
BRK	42	0	7
STR	42	96	5
SI_	42	96	5	96	48	0
TAP	42	144	4
TAP	42	192	4
STR	42	288	2
SI_	42	288	2	96	48	7
TAP	42	336	3
TAP	43	0	3
TAP	43	96	6
TAP	43	144	6
TAP	43	192	3
TAP	43	240	3
TAP	43	288	4
TAP	43	336	4
HLD	44	0	1	96
HLD	44	96	3	96
HLD	44	192	4	96
TAP	44	288	6
TAP	44	336	6
TAP	45	48	0
TAP	45	48	1
STR	45	96	0
SCL	45	96	0	96	96	5
STR	45	96	1
SUL	45	96	1	96	96	4
BRK	46	0	1
BRK	46	0	6
TTP	46	96	7	E	0	M1
TTP	46	96	7	B	0	M1
TTP	46	192	0	B	0	M1
TTP	46	192	1	E	0	M1
TTP	46	288	4	B	0	M1
TTP	46	288	5	E	0	M1
TAP	47	0	2
TAP	47	48	2
TAP	47	96	0
TAP	47	192	5
TAP	47	240	5
TAP	47	288	7
TAP	48	0	1
TAP	48	0	6
TAP	48	96	4
TAP	48	96	5
TAP	48	192	1
TAP	48	192	6
STR	48	288	2
SCL	48	288	2	96	192	5
TAP	48	288	3
BRK	49	288	1
BRK	49	288	6
TAP	50	0	2
TAP	50	0	3
TAP	50	144	4
TAP	50	144	5
TAP	50	336	2
TAP	50	336	5
TAP	51	0	2
TAP	51	0	5
TAP	51	48	2
TAP	51	48	5
HLD	51	144	0	96
HLD	51	240	1	96
TAP	51	336	2
TAP	52	0	3
TAP	52	0	4
TAP	52	48	3
TAP	52	48	4
TAP	52	144	4
TAP	52	144	6
TAP	52	240	1
TAP	52	240	3
BRK	52	336	0
BRK	52	336	7
XTP	53	192	4
XTP	53	224	3
XTP	53	256	4
XHO	53	288	3	96
XTP	54	0	4
HLD	54	144	2	96
TAP	54	240	0
HLD	54	336	5	96
TAP	55	48	7
TAP	55	96	7
TAP	55	192	0
TAP	55	192	6
TAP	55	288	2
TAP	55	288	4
TAP	56	0	4
TAP	56	0	6
TAP	56	48	4
TAP	56	48	6
TAP	56	144	1
TAP	56	144	3
TAP	56	192	1
TAP	56	192	3
TAP	56	288	3
TAP	56	288	4
TAP	56	336	3
TAP	56	336	4
BRK	57	48	7
BRK	57	96	0
BRK	57	144	7
BRK	57	192	0
HLD	58	0	2	384
STR	59	0	3
SV_	59	0	3	96	192	4
HLD	60	0	5	384
STR	61	0	4
SUR	61	0	4	96	192	3
TAP	62	0	2
TAP	62	0	4
TAP	62	96	2
TAP	62	96	4
TAP	62	192	3
TAP	62	192	5
TAP	62	288	3
TAP	62	288	5
TAP	63	0	1
TAP	63	0	3
TAP	63	96	1
TAP	63	96	3
TAP	63	192	4
TAP	63	192	6
TAP	63	288	4
TAP	63	288	6
TAP	64	0	2
TAP	64	0	5
TAP	64	96	4
TAP	64	144	4
TAP	64	192	3
TAP	64	240	3
TAP	64	288	3
TAP	64	288	4
TAP	64	336	3
TAP	64	336	4
STR	65	192	3
SI_	65	192	3	96	48	0
STR	65	192	4
SI_	65	192	4	96	48	7
BRK	66	0	1
BRK	66	0	6
STR	66	96	2
SI_	66	96	2	96	48	7
TAP	66	144	3
TAP	66	192	3
STR	66	288	5
SI_	66	288	5	96	48	0
TAP	66	336	4
TAP	67	0	4
TAP	67	96	1
TAP	67	144	1
TAP	67	192	4
TAP	67	240	4
TAP	67	288	2
HLD	68	0	5	96
HLD	68	96	7	96
HLD	68	192	0	96
TAP	68	288	2
TAP	68	336	2
TAP	69	48	4
TAP	69	48	5
STR	69	96	4
SUR	69	96	4	96	96	1
STR	69	96	5
SCR	69	96	5	96	96	0
BRK	70	0	2
BRK	70	0	5
TTP	70	96	3	E	0	M1
TTP	70	96	3	B	0	M1
TTP	70	192	4	B	0	M1
TTP	70	192	5	E	0	M1
TTP	70	288	0	B	0	M1
TTP	70	288	1	E	0	M1
TAP	71	0	6
TAP	71	48	6
TAP	71	96	4
TAP	71	192	1
TAP	71	192	3
TAP	71	288	0
TAP	71	288	7
TAP	72	0	1
TAP	72	0	6
TAP	72	96	4
TAP	72	96	5
TAP	72	192	1
TAP	72	192	6
STR	72	288	2
SCL	72	288	2	96	192	5
TAP	72	288	3
BRK	73	288	0
BRK	73	288	7
TAP	74	0	3
TAP	74	0	4
TAP	74	96	3
TAP	74	144	3
TAP	74	288	3
TAP	74	288	4
TAP	75	0	2
TAP	75	0	5
TAP	75	96	4
TAP	75	144	4
TAP	75	288	3
TAP	75	288	4
TAP	76	0	2
TAP	76	0	5
TAP	76	96	3
TAP	76	144	3
TAP	76	288	3
TAP	76	288	4
STR	77	0	2
SLL	77	0	2	96	192	3
STR	77	0	5
SLR	77	0	5	96	192	4
STR	78	0	6
SI_	78	0	6	96	48	3
STR	78	0	7
SI_	78	0	7	96	48	3
TAP	78	192	2
TAP	78	240	2
TAP	78	288	7
STR	79	0	0
SI_	79	0	0	96	48	4
STR	79	0	1
SI_	79	0	1	96	48	4
TAP	79	192	5
TAP	79	240	5
TAP	79	288	0
STR	80	0	6
SI_	80	0	6	96	48	3
STR	80	0	7
SI_	80	0	7	96	48	3
TAP	80	192	2
TAP	80	240	2
TAP	80	288	7
HLD	81	0	1	72
HLD	81	0	6	72
TAP	81	144	2
TAP	81	144	3
HLD	81	192	2	72
HLD	81	192	3	72
TAP	81	336	4
TAP	81	336	5
HLD	82	0	4	72
HLD	82	0	5	72
TAP	82	144	1
TAP	82	144	6
STR	82	192	1
SUR	82	192	1	96	96	6
TAP	82	192	6

T_REC_TAP	296
T_REC_BRK	29
T_REC_XTP	4
T_REC_HLD	40
T_REC_XHO	1
T_REC_STR	42
T_REC_BST	0
T_REC_XST	0
T_REC_TTP	39
T_REC_THO	1
T_REC_SLD	45
T_REC_ALL	497
T_NUM_TAP	381
T_NUM_BRK	29
T_NUM_HLD	42
T_NUM_SLD	45
T_NUM_ALL	497
T_JUDGE_TAP	410
T_JUDGE_HLD	99
T_JUDGE_SLD	45
T_JUDGE_ALL	554
TTM_EACHPAIRS	116
TTM_SCR_TAP	190500
TTM_SCR_BRK	75400
TTM_SCR_HLD	42000
TTM_SCR_SLD	67500
TTM_SCR_ALL	375400
TTM_SCR_S	361350
TTM_SCR_SS	372500
TTM_RAT_ACV	10077

