VERSION	0.00.00	1.03.00
FES_MODE	0
BPM_DEF	163.000	163.000	163.000	163.000
MET_DEF	4	4
RESOLUTION	384
CLK_DEF	384
COMPATIBLE_CODE	MA2

BPM	0	0	163.000
MET	0	0	4	4

HLD	2	0	2	192
TAP	2	192	3
HLD	3	0	3	192
TAP	3	192	4
HLD	4	0	5	192
TAP	4	192	4
XTP	5	0	3
XTP	5	0	4
TAP	5	192	1
BRK	5	288	1
STR	6	0	0
SI_	6	0	0	96	192	3
STR	7	0	4
SI_	7	0	4	96	192	7
STR	8	0	0
SCR	8	0	0	96	192	3
TAP	9	0	5
TAP	9	96	5
TAP	9	192	6
BRK	9	288	6
STR	10	0	7
SI_	10	0	7	96	192	4
STR	11	0	3
SI_	11	0	3	96	192	0
STR	12	0	7
SCL	12	0	7	96	192	4
TAP	13	0	2
TAP	13	96	3
TAP	13	192	4
BRK	13	288	2
BRK	13	288	5
HLD	14	0	3	96
HLD	14	0	4	96
HLD	14	192	4	96
HLD	14	192	5	96
HLD	15	0	3	96
HLD	15	0	4	96
HLD	15	192	2	96
HLD	15	192	3	96
TAP	16	0	2
TAP	16	96	2
TAP	16	192	3
TAP	16	288	3
HLD	17	0	3	96
HLD	17	0	4	96
XTP	17	192	2
XTP	17	192	5
TAP	18	0	5
TAP	18	96	5
TAP	18	192	4
TAP	19	0	2
TAP	19	96	2
TAP	19	192	3
TAP	20	0	1
TAP	20	96	1
TAP	20	192	0
TAP	21	0	6
TAP	21	96	6
TAP	21	192	7
TAP	22	0	5
TAP	22	96	5
TAP	22	192	4
TAP	22	192	5
TAP	23	0	2
TAP	23	96	2
TAP	23	192	2
TAP	23	192	3
HLD	24	0	3	192
HLD	24	0	4	192
TAP	25	0	3
TAP	25	0	4
TAP	25	96	3
TAP	25	96	4
XTP	25	192	2
XTP	25	192	5
TTP	26	0	3	B	0	L1
TTP	26	0	3	E	0	L1
TTP	26	192	5	E	0	L1
TTP	27	0	1	B	0	L1
TTP	27	0	2	B	0	L1
TTP	27	192	7	E	0	L1
TTP	28	0	0	B	0	L1
TTP	28	0	7	B	0	L1
TTP	28	192	1	B	0	L1
TTP	28	192	6	B	0	L1
THO	29	0	0	192	C	0	L1
TTP	30	0	6	E	0	L1
TTP	30	96	5	B	0	L1
TTP	30	192	4	B	0	L1
TTP	31	0	2	B	0	L1
TTP	31	96	3	B	0	L1
TTP	31	192	4	E	0	L1
TTP	32	0	2	B	0	L1
TTP	32	0	5	B	0	L1
TTP	32	192	1	B	0	L1
TTP	32	192	6	B	0	L1
TTP	33	0	0	C	1	L1
XTP	33	288	0
XTP	34	0	0
XTP	34	0	7
TAP	34	192	1
TAP	34	192	3
TAP	34	288	2
TAP	35	0	3
TAP	35	0	5
TAP	35	96	6
TAP	35	192	7
XTP	35	288	7
XTP	36	0	0
XTP	36	0	7
TAP	36	192	4
TAP	36	192	6
TAP	36	288	5
TAP	37	0	2
TAP	37	0	4
TAP	37	96	1
BRK	37	192	0
BRK	37	192	6
HLD	38	0	2	96
TAP	38	96	3
HLD	38	192	5	96
TAP	38	288	4
TAP	39	0	2
TAP	39	0	3
TAP	39	96	2
TAP	39	96	3
TAP	39	192	1
TAP	39	192	4
HLD	40	0	6	96
TAP	40	96	7
HLD	40	192	1	96
TAP	40	288	0
HLD	41	0	6	96
TAP	41	96	7
TAP	41	192	0
TAP	41	192	7
BRK	41	288	0
BRK	41	288	7
BRK	42	0	1
BRK	42	0	6
TAP	42	192	2
TAP	42	288	3
TAP	43	0	4
TAP	43	0	5
TAP	43	96	4
TAP	43	96	5
TAP	43	192	3
TAP	43	192	6
TAP	44	0	4
TAP	44	96	5
TAP	44	192	6
TAP	44	192	7
TAP	44	288	6
TAP	44	288	7
TAP	45	0	0
TAP	45	96	1
XTP	45	192	2
XTP	45	192	7
HLD	46	0	5	96
TAP	46	96	4
HLD	46	192	2	96
TAP	46	288	3
HLD	47	0	6	96
TAP	47	96	4
TAP	47	192	4
TAP	47	192	6
HLD	48	0	6	96
HLD	48	0	7	96
HLD	48	192	0	96
HLD	48	192	1	96
TAP	49	0	0
TAP	49	0	7
TAP	49	96	0
TAP	49	96	7
BRK	49	192	1
BRK	49	192	6
STR	50	0	6
SI_	50	0	6	96	288	3
STR	50	0	7
SI_	50	0	7	96	288	2
TAP	51	192	0
TAP	51	192	1
STR	52	0	0
SI_	52	0	0	96	288	5
STR	52	0	1
SI_	52	0	1	96	288	4
XTP	53	192	3
XTP	53	192	6
HLD	54	0	5	192
HLD	54	192	4	192
HLD	55	0	3	192
TAP	55	192	2
HLD	56	0	3	192
HLD	56	0	4	192
TAP	57	0	3
TAP	57	0	4
TAP	57	96	2
TAP	57	96	5
TAP	57	192	1
TAP	57	192	6
TTP	58	0	2	E	0	L1
TTP	58	192	2	B	0	L1
TTP	59	0	3	B	0	L1
TTP	59	192	4	E	0	L1
TTP	60	0	4	B	0	L1
TTP	60	192	5	B	0	L1
TTP	61	0	6	E	0	L1
TTP	61	192	1	B	0	L1
TTP	61	192	6	B	0	L1
THO	62	0	0	384	C	0	L1
THO	64	0	0	384	C	1	L1
BRK	65	288	0
BRK	65	288	7
BRK	66	0	1
BRK	66	0	6
TAP	66	192	2
TAP	66	192	3
TAP	66	288	2
TAP	66	288	3
TAP	67	0	4
TAP	67	0	5
TAP	67	96	3
TAP	67	96	6
TAP	67	192	2
TAP	67	192	7
TAP	68	0	6
TAP	68	96	6
TAP	68	192	6
TAP	68	192	7
TAP	68	288	6
TAP	68	288	7
TAP	69	0	0
TAP	69	0	1
TAP	69	96	2
TAP	69	96	7
XTP	69	192	3
XTP	69	192	6
HLD	70	0	5	96
TAP	70	96	4
HLD	70	192	1	96
TAP	70	288	3
HLD	71	0	6	96
TAP	71	96	7
TAP	71	192	0
TAP	71	192	5
HLD	72	0	1	96
TAP	72	96	0
HLD	72	192	6	96
TAP	72	288	7
TAP	73	0	0
TAP	73	0	1
TAP	73	96	2
TAP	73	96	7
BRK	73	192	3
BRK	73	192	6
HLD	74	0	5	384
TAP	74	192	4
HLD	75	0	2	384
TAP	75	192	3
HLD	76	0	4	384
HLD	76	192	3	192
TAP	77	192	1
TAP	77	192	6
BRK	77	288	1
BRK	77	288	6
STR	78	0	0
SI_	78	0	0	96	192	4
STR	79	0	5
SI_	79	0	5	96	192	0
STR	80	0	1
SCR	80	0	1	96	192	4
TAP	81	0	5
TAP	81	96	4
TAP	81	96	6
TAP	81	192	2
TAP	81	288	1
TAP	81	288	3
TAP	82	0	0
TAP	82	0	7
TAP	82	96	1
TAP	82	96	6
BRK	82	192	2
BRK	82	192	5

T_REC_TAP	143
T_REC_BRK	22
T_REC_XTP	18
T_REC_HLD	41
T_REC_XHO	0
T_REC_STR	13
T_REC_BST	0
T_REC_XST	0
T_REC_TTP	30
T_REC_THO	3
T_REC_SLD	13
T_REC_ALL	283
T_NUM_TAP	204
T_NUM_BRK	22
T_NUM_HLD	44
T_NUM_SLD	13
T_NUM_ALL	283
T_JUDGE_TAP	226
T_JUDGE_HLD	142
T_JUDGE_SLD	13
T_JUDGE_ALL	381
TTM_EACHPAIRS	70
TTM_SCR_TAP	102000
TTM_SCR_BRK	57200
TTM_SCR_HLD	44000
TTM_SCR_SLD	19500
TTM_SCR_ALL	222700
TTM_SCR_S	213900
TTM_SCR_SS	220500
TTM_RAT_ACV	10099

