VERSION	0.00.00	1.03.00
FES_MODE	0
BPM_DEF	163.000	163.000	163.000	163.000
MET_DEF	4	4
RESOLUTION	384
CLK_DEF	384
COMPATIBLE_CODE	MA2

BPM	0	0	163.000
MET	0	0	4	4

XTP	6	0	3
XTP	6	0	4
XTP	7	0	3
XTP	7	0	4
XTP	8	0	3
XTP	8	0	4
TAP	9	0	3
TAP	9	96	3
TAP	9	192	4
BRK	9	288	4
XTP	10	0	3
TAP	10	192	3
XTP	11	0	4
TAP	11	192	4
XTP	12	0	3
TAP	12	192	3
TAP	13	0	4
TAP	13	96	3
TAP	13	192	4
BRK	13	288	3
BRK	13	288	4
TAP	14	0	3
TAP	14	192	2
TAP	15	0	2
TAP	15	0	3
TAP	16	0	4
TAP	16	192	5
TAP	17	0	4
TAP	17	0	5
TAP	18	0	3
TAP	18	192	3
TAP	19	0	2
TAP	19	192	2
TAP	20	0	1
TAP	20	192	1
TAP	21	0	0
TAP	21	96	0
TAP	21	192	0
TAP	22	0	7
TAP	22	192	7
TAP	23	0	6
TAP	23	192	6
TAP	24	0	5
TAP	24	192	5
XTP	25	0	3
XTP	25	0	4
STR	26	0	2
SI_	26	0	2	96	288	5
TTP	28	0	6	B	0	L1
TTP	29	0	0	B	0	L1
TTP	29	0	7	B	0	L1
STR	30	0	6
SI_	30	0	6	96	288	1
TTP	32	0	2	B	0	L1
TTP	33	0	0	C	1	L1
TAP	34	0	7
TAP	34	96	7
TAP	34	192	7
TAP	35	0	6
TAP	35	96	6
TAP	35	192	6
TAP	36	0	5
TAP	36	96	5
TAP	36	192	5
TAP	37	0	3
TAP	37	0	4
TAP	37	96	3
TAP	37	96	4
BRK	37	192	3
BRK	37	192	4
STR	38	0	2
SI_	38	0	2	96	288	7
STR	40	0	5
SI_	40	0	5	96	288	0
TAP	42	0	0
TAP	42	96	0
TAP	42	192	0
TAP	43	0	1
TAP	43	96	1
TAP	43	192	1
TAP	44	0	2
TAP	44	96	2
TAP	44	192	2
TAP	45	0	3
TAP	45	0	4
TAP	45	96	3
TAP	45	96	4
BRK	45	192	3
BRK	45	192	4
STR	46	0	3
SI_	46	0	3	96	288	0
STR	46	0	4
SI_	46	0	4	96	288	7
TAP	48	0	2
TAP	48	0	3
TAP	48	192	4
TAP	48	192	5
HLD	49	0	2	192
HLD	49	0	3	192
TAP	50	0	4
TAP	51	0	3
HLD	52	0	2	384
HLD	52	0	5	384
HLD	54	0	5	192
HLD	55	0	6	192
HLD	56	0	0	384
HLD	56	0	7	384
TTP	58	0	1	B	0	L1
TTP	58	0	6	B	0	L1
TTP	60	0	1	B	0	L1
TTP	60	0	6	B	0	L1
STR	62	0	0
SI_	62	0	0	96	288	3
STR	64	0	7
SI_	64	0	7	96	288	4
TTP	66	0	0	C	1	L1
TAP	67	0	0
TAP	67	96	0
TAP	67	192	0
TAP	68	0	1
TAP	68	96	1
TAP	68	192	2
TAP	68	288	2
TAP	69	0	3
TAP	69	96	3
TAP	69	192	3
TAP	69	192	4
STR	70	0	3
SI_	70	0	3	96	288	0
STR	70	0	4
SI_	70	0	4	96	288	7
TAP	72	0	4
TAP	72	0	5
TAP	72	192	2
TAP	72	192	3
HLD	73	0	4	192
HLD	73	0	5	192
TAP	74	0	3
TAP	74	0	4
XTP	74	96	3
XTP	74	288	3
XTP	75	96	4
XTP	75	288	4
XTP	76	96	3
XTP	76	288	3
TAP	77	0	3
TAP	77	0	4
HLD	78	0	2	288
HLD	78	0	3	288
HLD	79	0	4	288
HLD	79	0	5	288
HLD	80	0	6	288
HLD	80	0	7	288
TAP	81	0	0
TAP	81	0	1
TAP	81	192	6
TAP	81	192	7
TAP	82	0	0
TAP	82	0	7
TAP	82	96	0
TAP	82	96	7
BRK	82	192	1
BRK	82	192	6

T_REC_TAP	91
T_REC_BRK	9
T_REC_XTP	17
T_REC_HLD	16
T_REC_XHO	0
T_REC_STR	10
T_REC_BST	0
T_REC_XST	0
T_REC_TTP	10
T_REC_THO	0
T_REC_SLD	10
T_REC_ALL	163
T_NUM_TAP	128
T_NUM_BRK	9
T_NUM_HLD	16
T_NUM_SLD	10
T_NUM_ALL	163
T_JUDGE_TAP	137
T_JUDGE_HLD	92
T_JUDGE_SLD	10
T_JUDGE_ALL	239
TTM_EACHPAIRS	34
TTM_SCR_TAP	64000
TTM_SCR_BRK	23400
TTM_SCR_HLD	16000
TTM_SCR_SLD	15000
TTM_SCR_ALL	118400
TTM_SCR_S	114000
TTM_SCR_SS	117500
TTM_RAT_ACV	10076

