VERSION	0.00.00	1.03.00
FES_MODE	0
BPM_DEF	215.000	215.000	215.000	215.000
MET_DEF	4	4
RESOLUTION	384
CLK_DEF	384
COMPATIBLE_CODE	MA2

BPM	0	0	215.000
MET	0	0	4	4

TAP	3	0	3
TAP	3	96	3
TAP	3	96	4
TAP	3	192	3
TAP	3	288	3
TAP	3	288	4
TAP	4	0	4
TAP	4	96	3
TAP	4	96	4
TAP	4	192	4
TAP	4	288	3
TAP	4	288	4
TAP	5	0	3
TAP	5	96	3
TAP	5	96	4
TAP	5	192	4
TAP	5	288	3
TAP	5	288	4
STR	6	0	3
SSR	6	0	3	96	192	7
STR	6	0	4
SSR	6	0	4	96	192	0
TAP	7	0	3
TAP	7	0	4
TAP	7	96	1
TAP	7	96	2
TAP	7	192	3
TAP	7	192	4
TAP	7	288	5
TAP	7	288	6
TAP	8	0	3
TAP	8	0	4
TAP	8	96	0
TAP	8	96	1
TAP	8	192	3
TAP	8	192	4
TAP	8	288	6
TAP	8	288	7
HLD	9	0	2	96
TAP	9	0	3
TAP	9	96	0
TAP	9	192	4
HLD	9	192	5	96
TAP	9	288	7
TAP	10	0	1
TAP	10	0	6
TAP	10	48	1
STR	10	48	6
SI_	10	48	6	96	96	3
TAP	10	144	4
TAP	10	192	4
TAP	10	288	0
HLD	11	0	2	144
HLD	11	0	4	192
TAP	11	192	2
TAP	11	288	3
TAP	11	288	4
HLD	12	0	6	192
TAP	12	96	5
TAP	12	144	5
TAP	12	192	4
TAP	12	288	3
TAP	12	288	4
HLD	13	0	1	192
HLD	13	0	3	144
TAP	13	192	3
TAP	13	288	3
TAP	13	288	4
HLD	14	0	5	96
TAP	14	96	4
TAP	14	144	4
TAP	14	192	3
TAP	14	192	5
TAP	14	288	1
TAP	14	288	3
HLD	15	0	0	288
BRK	15	0	4
TAP	15	96	3
TAP	15	192	4
TAP	15	288	5
BRK	16	0	3
HLD	16	0	7	288
TAP	16	96	5
TAP	16	192	3
TAP	16	288	1
BRK	17	0	2
HLD	17	0	5	96
TAP	17	96	7
BRK	17	192	1
STR	17	192	4
SCR	17	192	4	96	96	0
STR	17	288	0
SSL	17	288	0	96	192	4
SLR	17	288	0	96	192	4
TAP	18	288	0
TAP	18	288	7
TAP	19	0	3
TAP	19	0	4
TAP	19	48	4
TAP	19	96	1
TAP	19	96	3
TAP	19	144	1
TAP	19	192	3
TAP	19	192	4
TAP	19	240	4
TAP	19	288	1
TAP	19	288	3
TAP	19	336	1
TAP	20	0	3
TAP	20	0	4
TAP	20	48	4
TAP	20	96	1
TAP	20	96	3
TAP	20	144	1
HLD	20	192	3	48
HLD	20	192	4	48
TAP	20	288	3
TAP	20	288	4
TAP	21	0	4
TAP	21	0	6
TAP	21	48	6
TAP	21	96	3
TAP	21	96	4
TAP	21	144	3
TAP	21	192	4
TAP	21	192	6
TAP	21	240	6
HLD	21	288	2	48
HLD	21	288	4	48
STR	22	0	2
SI_	22	0	2	96	48	7
TAP	22	0	4
STR	22	96	7
SI_	22	96	7	96	48	3
STR	22	192	3
SI_	22	192	3	96	48	0
SI_	22	192	3	96	48	6
BRK	23	0	7
TAP	23	96	3
TAP	23	96	5
TAP	23	144	5
TAP	23	192	1
TAP	23	192	3
TAP	23	240	1
TAP	23	288	3
TAP	23	288	5
TAP	23	336	5
TAP	24	0	1
TAP	24	0	3
TAP	24	48	1
TAP	24	96	3
TAP	24	96	5
TAP	24	144	5
TAP	24	192	0
TAP	24	192	3
TAP	24	240	0
TAP	24	288	0
TAP	24	288	4
TAP	24	312	1
TAP	24	336	2
TAP	24	360	3
TAP	25	0	4
TAP	25	0	5
TAP	25	48	5
TAP	25	96	2
TAP	25	96	4
TAP	25	144	2
TAP	25	192	0
TAP	25	192	7
TAP	25	240	7
TAP	25	288	1
TAP	25	288	7
TAP	25	312	6
TAP	25	336	5
TAP	25	360	4
STR	26	0	2
SI_	26	0	2	96	48	7
TAP	26	0	3
STR	26	96	7
SI_	26	96	7	96	48	3
STR	26	192	3
SF_	26	192	3	96	48	7
BRK	27	0	1
BRK	27	0	5
TAP	27	96	1
TAP	27	96	5
TAP	27	144	3
TAP	27	192	2
TAP	27	192	6
TAP	27	240	4
TAP	27	288	0
TAP	27	336	6
TAP	27	360	4
STR	28	0	6
SI_	28	0	6	96	48	2
TAP	28	48	6
STR	28	96	0
SI_	28	96	0	96	48	4
TAP	28	144	0
STR	28	192	7
SI_	28	192	7	96	48	3
TAP	28	240	7
TAP	28	288	0
TAP	28	336	0
TAP	29	0	1
TAP	29	0	5
TAP	29	96	3
TAP	29	96	7
TAP	29	144	3
TAP	29	192	4
TAP	29	192	6
TAP	29	240	5
TAP	29	288	2
TAP	29	288	4
TAP	29	336	1
TAP	30	0	0
TAP	30	0	7
TAP	30	48	1
TAP	30	72	3
TAP	30	96	1
TAP	30	120	6
TAP	30	144	4
TAP	30	168	6
STR	30	192	2
SI_	30	192	2	96	48	7
BRK	30	288	5
HLD	31	0	4	48
HLD	31	0	6	48
HLD	31	96	3	48
HLD	31	96	4	48
HLD	31	192	1	48
HLD	31	192	3	48
HLD	31	288	0	48
HLD	31	288	7	48
HLD	32	0	4	48
HLD	32	0	6	48
HLD	32	96	1	48
HLD	32	96	3	48
HLD	32	192	2	48
HLD	32	192	5	48
TAP	32	288	2
TAP	32	288	5
TAP	32	336	7
TAP	32	360	0
STR	33	0	7
SI_	33	0	7	96	48	3
TAP	33	96	0
TAP	33	144	0
TAP	33	192	0
TAP	33	192	4
TAP	33	240	1
TAP	33	240	5
TAP	33	288	2
TAP	33	288	6
TAP	33	336	3
TAP	33	336	7
BST	34	0	0
SI_	34	0	0	96	48	4
TAP	34	0	4
BST	34	96	1
SI_	34	96	1	96	48	5
BST	34	192	2
SI_	34	192	2	96	48	6
BRK	34	288	4
STR	35	0	0
SI_	35	0	0	96	48	4
TAP	35	0	7
TAP	35	48	7
TAP	35	96	0
TAP	35	96	7
TAP	35	192	3
STR	35	192	6
SI_	35	192	6	96	48	2
TAP	35	240	3
TAP	35	288	3
TAP	35	288	6
STR	36	0	1
SI_	36	0	1	96	48	5
TAP	36	0	4
TAP	36	48	4
TAP	36	96	1
TAP	36	96	4
TAP	36	192	2
STR	36	192	6
SI_	36	192	6	96	48	3
TAP	36	240	2
TAP	36	288	2
TAP	36	288	6
STR	37	0	0
SI_	37	0	0	96	48	5
TAP	37	0	4
TAP	37	48	4
TAP	37	96	0
TAP	37	96	4
TAP	37	192	3
STR	37	192	7
SI_	37	192	7	96	48	2
TAP	37	240	3
TAP	37	288	3
TAP	37	288	7
TAP	38	0	1
TAP	38	0	4
TAP	38	96	3
TAP	38	96	6
TAP	38	192	7
TAP	38	240	7
TAP	38	288	0
TAP	38	288	7
TAP	38	312	1
TAP	38	336	2
TAP	38	360	3
STR	39	0	4
SI_	39	0	4	96	48	0
TAP	39	0	5
TAP	39	48	5
TAP	39	96	4
TAP	39	96	6
TAP	39	192	2
STR	39	192	3
SI_	39	192	3	96	48	7
TAP	39	240	2
TAP	39	288	1
TAP	39	288	3
STR	40	0	4
SI_	40	0	4	96	48	1
TAP	40	0	5
TAP	40	48	5
TAP	40	96	4
TAP	40	96	6
TAP	40	192	0
TAP	40	240	0
TAP	40	288	0
TAP	40	288	7
TAP	40	312	6
TAP	40	336	5
TAP	40	360	4
TAP	41	0	2
STR	41	0	3
SI_	41	0	3	96	48	7
TAP	41	48	2
TAP	41	96	0
TAP	41	96	3
STR	41	192	4
SI_	41	192	4	96	48	0
TAP	41	192	5
TAP	41	240	5
TAP	41	288	4
TAP	41	288	7
TAP	42	0	2
STR	42	0	3
SCR	42	0	3	96	48	6
STR	42	96	0
SF_	42	96	0	96	48	4
TAP	42	192	0
BRK	42	288	1
BRK	42	288	7
STR	43	0	6
SI_	43	0	6	96	48	4
TAP	43	48	3
TAP	43	96	6
STR	43	144	1
SI_	43	144	1	96	48	7
TAP	43	192	3
TAP	43	240	1
STR	43	288	6
SI_	43	288	6	96	48	4
TAP	43	336	3
TAP	44	0	6
STR	44	48	1
SI_	44	48	1	96	48	7
TAP	44	96	3
TAP	44	144	1
TAP	44	192	5
TAP	44	240	5
TAP	44	288	3
TAP	44	288	7
STR	45	0	1
SI_	45	0	1	96	48	3
TAP	45	48	4
TAP	45	96	1
STR	45	144	6
SI_	45	144	6	96	48	0
TAP	45	192	4
TAP	45	240	6
TAP	45	288	2
TAP	45	336	2
TAP	46	0	3
TAP	46	24	4
TAP	46	48	2
TAP	46	72	5
TAP	46	96	3
TAP	46	120	4
TAP	46	144	2
TAP	46	168	5
STR	46	192	3
SI_	46	192	3	96	48	7
TAP	46	240	6
TAP	46	288	4
STR	47	0	0
SI_	47	0	0	96	48	3
TAP	47	48	3
TAP	47	96	0
STR	47	144	7
SI_	47	144	7	96	48	4
TAP	47	192	4
TAP	47	240	7
STR	47	288	0
SI_	47	288	0	96	48	3
TAP	47	336	3
TAP	48	0	0
STR	48	48	7
SI_	48	48	7	96	48	4
TAP	48	96	4
TAP	48	144	7
TAP	48	192	0
TAP	48	240	0
TAP	48	288	2
TAP	48	288	6
STR	49	0	0
SV_	49	0	0	96	48	3
TAP	49	48	3
TAP	49	96	0
STR	49	144	7
SV_	49	144	7	96	48	4
TAP	49	192	4
TAP	49	240	7
STR	49	288	0
SV_	49	288	0	96	48	3
TAP	49	336	3
TAP	50	0	0
STR	50	48	7
SV_	50	48	7	96	48	4
TAP	50	96	4
TAP	50	144	7
TAP	50	192	0
TAP	50	240	0
STR	50	288	2
SCL	50	288	2	96	1440	4
TAP	50	288	6
HLD	51	0	3	384
THO	53	0	0	384	C	0	M1
TAP	55	0	3
HLD	55	0	4	288
TAP	55	96	3
TAP	55	192	3
TAP	55	288	3
HLD	56	0	2	96
TAP	56	0	3
TAP	56	96	3
TAP	56	192	1
TAP	56	240	1
TAP	56	288	2
HLD	57	0	1	24
HLD	57	0	4	24
HLD	57	72	2	24
HLD	57	72	3	24
HLD	57	144	4	24
HLD	57	144	5	24
HLD	57	216	3	24
HLD	57	216	6	24
STR	57	288	0
SCR	57	288	0	96	192	7
TAP	57	312	7
TAP	57	336	0
TAP	57	360	7
TAP	58	0	0
TAP	58	192	0
TAP	58	288	4
TTP	59	0	0	C	1	M1
TAP	61	0	2
TAP	61	0	5
TAP	61	96	3
STR	61	96	4
SCL	61	96	4	96	96	1
STR	61	288	0
SSL	61	288	0	96	240	4
BRK	62	0	7
BRK	63	0	1
BRK	63	0	7
TAP	63	96	3
HLD	63	96	4	192
TAP	63	288	3
BRK	64	0	0
BRK	64	0	7
HLD	64	96	2	192
TAP	64	96	3
TAP	64	288	3
BRK	65	0	7
HLD	65	96	1	192
TAP	65	96	2
TAP	65	288	2
HLD	66	0	0	144
BRK	66	0	7
BRK	66	72	7
BRK	66	144	7
THO	67	0	0	2304	C	0	M1
BRK	67	0	6
TAP	67	192	6
BRK	68	0	5
TAP	68	192	5
BRK	69	0	4
TAP	69	192	4
BRK	70	0	3
TAP	70	192	3
BRK	71	0	2
TAP	71	96	2
TAP	71	192	2
TAP	71	288	2
BRK	72	0	1
TAP	72	96	1
TAP	72	192	1
TAP	72	288	1
BRK	73	0	0
TAP	73	96	0
TAP	73	192	0
TAP	73	192	7
TAP	73	240	0
TAP	73	240	7
TAP	73	288	1
TAP	73	312	6
TAP	73	336	1
TAP	73	360	6
STR	74	0	3
SUL	74	0	3	96	192	2
STR	74	96	7
SCL	74	96	7	96	96	3
TAP	75	0	1
TAP	75	0	5
STR	75	96	3
SSR	75	96	3	96	144	7
STR	75	96	7
SSR	75	96	7	96	144	3
TAP	76	0	0
STR	76	0	4
SUL	76	0	4	96	192	1
SXL	76	0	4	96	192	1
TAP	77	0	0
TAP	77	0	7
STR	77	48	1
SSR	77	48	1	96	144	5
STR	77	48	6
SSL	77	48	6	96	144	2
TAP	77	96	2
TAP	77	96	5
BRK	78	0	0
HLD	78	0	4	192
BRK	78	96	1
BST	78	192	2
SI_	78	192	2	96	48	0
SI_	78	192	2	96	48	7
BRK	78	288	2
TAP	79	0	5
TAP	79	0	6
TTP	79	96	0	C	0	M1
TTP	79	96	4	E	0	M1
TAP	79	192	1
TAP	79	192	2
TTP	79	288	0	C	0	M1
TTP	79	288	0	E	0	M1
TAP	80	0	5
TAP	80	0	6
TTP	80	96	0	C	0	M1
TTP	80	96	4	E	0	M1
TAP	80	192	1
TAP	80	192	2
TTP	80	288	0	C	0	M1
TTP	80	288	0	E	0	M1
TAP	81	0	4
TAP	81	0	5
TTP	81	96	0	C	0	M1
TTP	81	96	3	E	0	M1
TAP	81	192	0
TAP	81	192	1
TTP	81	288	0	C	0	M1
TTP	81	288	7	E	0	M1
HLD	82	0	4	288
HLD	82	0	5	312
HLD	83	0	4	192
HLD	83	24	5	168
TAP	83	288	3
TAP	83	288	4
TAP	83	336	2
TAP	83	360	3
STR	84	0	1
SI_	84	0	1	96	48	4
TAP	84	48	5
TAP	84	96	5
TAP	84	144	5
TAP	84	192	5
STR	84	192	7
SI_	84	192	7	96	48	3
TAP	84	240	5
TAP	84	288	5
TAP	84	336	5
STR	85	0	2
SI_	85	0	2	96	48	6
TAP	85	0	5
TAP	85	48	5
TAP	85	96	5
TAP	85	144	5
STR	85	192	4
SI_	85	192	4	96	48	0
TAP	85	192	5
TAP	85	240	5
TAP	85	288	5
TAP	85	336	5
TAP	86	0	1
STR	86	0	5
SI_	86	0	5	96	48	2
TAP	86	48	1
TAP	86	96	1
TAP	86	144	1
TAP	86	192	1
TAP	86	192	7
TAP	86	240	2
TAP	86	264	3
STR	86	288	2
SI_	86	288	2	96	48	6
TAP	86	336	3
TAP	87	0	2
STR	87	0	4
SI_	87	0	4	96	48	0
TAP	87	96	0
TAP	87	96	4
TAP	87	192	1
TAP	87	192	5
TAP	87	240	1
BRK	87	288	2
BRK	87	288	7
STR	88	0	3
SI_	88	0	3	96	48	0
TAP	88	0	4
TAP	88	48	4
TAP	88	96	3
TAP	88	96	4
TAP	88	144	4
TAP	88	192	4
STR	88	192	6
SI_	88	192	6	96	48	2
TAP	88	240	4
TAP	88	288	4
TAP	88	288	6
TAP	88	336	4
STR	89	0	3
SI_	89	0	3	96	48	7
TAP	89	0	4
TAP	89	48	4
TAP	89	96	3
TAP	89	96	4
TAP	89	144	4
TAP	89	192	4
STR	89	192	6
SI_	89	192	6	96	48	2
TAP	89	240	4
TAP	89	288	4
TAP	89	288	6
TAP	89	336	4
TAP	90	0	0
STR	90	0	4
SI_	90	0	4	96	48	1
TAP	90	48	0
TAP	90	96	0
TAP	90	96	4
TAP	90	144	0
TAP	90	192	0
STR	90	192	3
SI_	90	192	3	96	48	7
TAP	90	240	0
TAP	90	288	0
TAP	90	288	3
TAP	90	336	0
STR	91	0	0
SCR	91	0	0	96	48	3
STR	91	0	1
SCL	91	0	1	96	48	6
TAP	91	96	0
TAP	91	96	1
TAP	91	192	4
TAP	91	192	5
TAP	91	240	4
TAP	91	240	5
BRK	91	288	1
BRK	91	288	7
HLD	92	0	4	144
TAP	92	0	5
TAP	92	144	6
TAP	92	192	4
HLD	92	192	5	96
TAP	92	288	4
TAP	93	0	2
HLD	93	0	3	144
TAP	93	144	1
TAP	93	192	2
HLD	93	192	4	96
TAP	93	288	3
TAP	94	0	4
TAP	94	0	5
TAP	94	96	2
TAP	94	96	3
TAP	94	192	1
TAP	94	192	5
TAP	94	240	1
TAP	94	288	4
TAP	94	312	4
TAP	94	336	4
STR	95	0	2
SI_	95	0	2	96	48	6
STR	95	0	6
SI_	95	0	6	96	48	2
STR	95	192	0
SI_	95	192	0	96	48	4
HLD	95	192	4	96
BRK	95	288	0
TAP	96	0	2
TAP	96	0	6
TAP	96	96	2
TAP	96	96	6
TAP	96	144	4
TAP	96	192	1
TAP	96	192	5
TAP	96	240	3
TAP	96	288	2
TAP	96	288	6
HLD	96	336	2	36
TAP	96	336	6
TAP	96	348	5
TAP	96	360	4
TAP	96	372	3
TAP	97	48	0
HLD	97	48	5	36
TAP	97	60	1
TAP	97	72	2
TAP	97	84	3
TAP	97	144	6
TAP	97	192	6
TAP	97	192	7
TAP	97	288	1
TAP	97	288	5
TAP	97	336	1
HLD	97	336	5	36
TAP	97	348	2
TAP	97	360	3
TAP	97	372	4
HLD	98	48	2	36
TAP	98	48	7
TAP	98	60	6
TAP	98	72	5
TAP	98	84	4
TAP	98	144	1
TAP	98	192	0
TAP	98	192	1
TAP	98	288	0
TAP	98	288	6
HLD	98	336	0	36
TAP	98	336	6
TAP	98	348	5
TAP	98	360	4
TAP	98	372	3
TAP	99	48	1
HLD	99	48	7	36
TAP	99	60	2
TAP	99	72	3
TAP	99	84	4
TAP	99	144	6
STR	99	192	4
SI_	99	192	4	96	48	0
STR	99	192	6
SI_	99	192	6	96	48	3
BRK	99	288	4
BRK	99	288	6
TAP	100	0	1
TAP	100	0	7
TAP	100	48	2
TAP	100	48	6
TAP	100	96	3
STR	100	96	5
SI_	100	96	5	96	48	2
TAP	100	192	0
TAP	100	192	5
TAP	100	288	1
TAP	100	288	7
HLD	100	336	1	36
TAP	100	336	7
TAP	100	348	6
TAP	100	360	5
TAP	100	372	4
TAP	101	48	0
HLD	101	48	6	36
TAP	101	60	1
TAP	101	72	2
TAP	101	84	3
TAP	101	144	6
TAP	101	192	6
TAP	101	192	7
TAP	101	240	0
TAP	101	240	5
TAP	101	288	1
TAP	101	288	4
HLD	102	0	2	36
TAP	102	0	6
TAP	102	12	5
TAP	102	24	4
TAP	102	36	3
TAP	102	96	0
HLD	102	96	4	36
TAP	102	108	1
TAP	102	120	2
TAP	102	132	3
HLD	102	192	2	36
TAP	102	192	7
TAP	102	204	6
TAP	102	216	5
TAP	102	228	4
TAP	102	288	0
HLD	102	288	5	36
TAP	102	300	1
TAP	102	312	2
TAP	102	324	3
TTP	103	0	0	C	1	M1
TTP	103	0	5	B	0	M1
TTP	103	0	5	E	0	M1
TTP	103	0	6	B	0	M1
TTP	103	0	7	E	0	M1
TTP	103	96	0	C	1	M1
TTP	103	96	1	E	0	M1
TTP	103	96	1	B	0	M1
TTP	103	96	2	B	0	M1
TTP	103	96	3	E	0	M1
TTP	103	192	0	E	0	M1
TTP	103	192	0	C	1	M1
TTP	103	192	4	E	0	M1
BRK	103	288	1
BST	103	288	6
SI_	103	288	6	96	48	4
TAP	104	0	6
STR	104	0	7
SI_	104	0	7	96	48	3
STR	104	96	0
SI_	104	96	0	96	48	2
TAP	104	96	7
STR	104	192	0
SI_	104	192	0	96	48	4
TAP	104	192	4
TAP	104	288	0
STR	104	288	5
SI_	104	288	5	96	48	0
STR	105	0	3
SI_	105	0	3	96	48	7
TAP	105	0	5
TAP	105	96	3
TAP	105	96	7
TAP	105	192	0
TTP	105	200	1	E	0	M1
TTP	105	208	1	B	0	M1
TTP	105	216	2	B	0	M1
TTP	105	224	3	E	0	M1
TAP	105	240	6
TTP	105	248	6	E	0	M1
TTP	105	256	5	B	0	M1
TTP	105	264	4	B	0	M1
TTP	105	272	4	E	0	M1
BRK	105	288	0
STR	106	0	2
SI_	106	0	2	96	48	7
TAP	106	0	7
TAP	106	96	2
STR	106	96	4
SI_	106	96	4	96	48	0
TAP	106	192	0
TAP	106	192	4
TAP	106	288	7
TTP	106	296	7	E	0	M1
TTP	106	304	6	B	0	M1
TTP	106	312	5	B	0	M1
TTP	106	320	5	E	0	M1
TAP	106	336	1
TTP	106	344	2	E	0	M1
TTP	106	352	2	B	0	M1
TTP	106	360	3	B	0	M1
TTP	106	368	4	E	0	M1
BST	107	0	7
SF_	107	0	7	96	48	3
BRK	107	96	7
BST	107	192	7
SF_	107	192	7	96	48	3
BRK	107	288	7
BRK	108	0	0
BRK	108	0	6
HLD	108	96	1	48
HLD	108	96	3	48
HLD	108	192	4	48
HLD	108	192	6	48
TAP	108	288	3
TAP	108	288	4
TAP	108	336	2
TAP	108	360	3
TAP	109	0	1
TAP	109	48	0
TAP	109	48	1
TAP	109	96	2
TAP	109	96	7
TAP	109	144	5
TAP	109	168	4
TAP	109	192	6
TAP	109	240	6
TAP	109	240	7
TAP	109	288	0
TAP	109	312	5
TAP	109	336	0
TAP	109	360	5
TAP	110	0	0
TAP	110	24	1
TAP	110	48	2
TAP	110	72	3
TAP	110	96	1
TAP	110	120	2
TAP	110	144	3
TAP	110	168	4
TAP	110	192	2
TAP	110	216	3
TAP	110	240	4
TAP	110	264	5
TAP	110	288	3
TAP	110	312	4
TAP	110	336	5
TAP	110	360	6
TAP	111	0	3
STR	111	0	7
SI_	111	0	7	96	48	2
STR	111	96	5
SI_	111	96	5	96	48	0
STR	111	192	3
SI_	111	192	3	96	48	7
TAP	111	288	2
STR	111	288	3
SCL	111	288	3	96	96	5
TAP	112	0	3
TAP	112	0	4
BST	112	96	3
SCR	112	96	3	96	96	1
TAP	112	192	2
TAP	112	192	3
BST	112	288	3
SCL	112	288	3	96	96	5
TAP	113	0	3
TAP	113	0	4
BST	113	96	3
SCR	113	96	3	96	96	1
TAP	113	192	2
TAP	113	192	3
BST	113	288	3
SCL	113	288	3	96	96	5
TAP	114	0	3
TAP	114	0	5
BST	114	96	3
SCR	114	96	3	96	96	1
TAP	114	192	1
TAP	114	192	3
BST	114	288	3
SI_	114	288	3	96	48	7
TAP	115	0	3
TAP	115	0	7
TAP	115	96	1
TAP	115	108	2
TAP	115	120	3
TAP	115	132	4
TAP	115	144	7
TAP	115	156	6
TAP	115	168	5
TAP	115	180	4
STR	115	192	0
SI_	115	192	0	96	48	4
BST	115	288	7
SCL	115	288	7	96	96	1
TAP	116	0	1
TAP	116	0	7
BST	116	96	7
SCR	116	96	7	96	96	5
TAP	116	192	5
TAP	116	192	7
BST	116	288	7
SCL	116	288	7	96	96	1
TAP	117	0	1
TAP	117	0	7
BST	117	96	7
SCR	117	96	7	96	96	5
TAP	117	192	5
TAP	117	192	7
BRK	117	288	7
HLD	118	0	0	48
HLD	118	0	7	48
HLD	118	72	4	48
HLD	118	72	6	48
HLD	118	144	3	48
HLD	118	144	4	48
HLD	118	216	1	48
HLD	118	216	3	48
TAP	118	288	0
TAP	118	312	4
TAP	118	336	2
TAP	118	360	6
STR	119	0	0
SSL	119	0	0	96	144	4
TAP	119	96	3
TAP	119	192	7
STR	119	288	2
SI_	119	288	2	96	48	7
STR	119	288	6
SI_	119	288	6	96	48	3
BRK	120	0	2
BRK	120	0	6
TTP	120	8	0	C	1	M1

T_REC_TAP	623
T_REC_BRK	46
T_REC_XTP	0
T_REC_HLD	78
T_REC_XHO	0
T_REC_STR	91
T_REC_BST	17
T_REC_XST	0
T_REC_TTP	43
T_REC_THO	2
T_REC_SLD	112
T_REC_ALL	1012
T_NUM_TAP	757
T_NUM_BRK	63
T_NUM_HLD	80
T_NUM_SLD	112
T_NUM_ALL	1012
T_JUDGE_TAP	820
T_JUDGE_HLD	212
T_JUDGE_SLD	112
T_JUDGE_ALL	1144
TTM_EACHPAIRS	240
TTM_SCR_TAP	378500
TTM_SCR_BRK	163800
TTM_SCR_HLD	80000
TTM_SCR_SLD	168000
TTM_SCR_ALL	790300
TTM_SCR_S	760500
TTM_SCR_SS	784000
TTM_RAT_ACV	10080

