VERSION	0.00.00	1.03.00
FES_MODE	0
BPM_DEF	215.000	215.000	215.000	215.000
MET_DEF	4	4
RESOLUTION	384
CLK_DEF	384
COMPATIBLE_CODE	MA2

BPM	0	0	215.000
MET	0	0	4	4

TAP	3	0	3
TAP	3	96	3
TAP	3	96	4
TAP	3	192	3
TAP	3	288	3
TAP	3	288	4
TAP	4	0	3
TAP	4	96	3
TAP	4	96	4
TAP	4	192	3
TAP	4	288	3
TAP	4	288	4
TAP	5	0	3
TAP	5	96	3
TAP	5	96	4
TAP	5	192	3
TAP	5	288	3
TAP	5	288	4
STR	6	0	3
SI_	6	0	3	96	96	0
STR	6	96	4
SI_	6	96	4	96	96	7
TAP	7	0	3
TAP	7	0	4
TTP	7	96	0	C	0	M1
TTP	7	96	1	B	0	M1
TTP	7	96	6	B	0	M1
TAP	7	192	3
TAP	7	192	4
TTP	7	288	0	C	0	M1
TTP	7	288	1	B	0	M1
TTP	7	288	6	B	0	M1
TAP	8	0	3
TAP	8	0	4
TTP	8	96	0	C	0	M1
TTP	8	96	2	B	0	M1
TTP	8	96	6	B	0	M1
TAP	8	192	3
TAP	8	192	4
TTP	8	288	0	C	0	M1
TTP	8	288	1	B	0	M1
TTP	8	288	5	B	0	M1
TAP	9	0	3
TAP	9	0	4
TTP	9	96	0	C	0	M1
TTP	9	96	2	B	0	M1
TTP	9	96	6	B	0	M1
TAP	9	192	3
TAP	9	192	4
TTP	9	288	0	C	0	M1
TTP	9	288	1	B	0	M1
TTP	9	288	5	B	0	M1
STR	10	0	4
SI_	10	0	4	96	96	0
STR	10	96	3
SI_	10	96	3	96	96	7
TTP	11	0	5	E	0	M1
TTP	11	96	3	E	0	M1
STR	11	192	0
SI_	11	192	0	96	48	3
TAP	11	288	4
TTP	12	0	7	E	0	M1
TTP	12	96	5	E	0	M1
TAP	12	192	0
TAP	12	192	7
TAP	12	288	2
TAP	12	288	5
TTP	13	0	3	E	0	M1
TTP	13	96	5	E	0	M1
STR	13	192	7
SI_	13	192	7	96	48	4
TAP	13	288	3
TTP	14	0	1	E	0	M1
TTP	14	96	3	E	0	M1
TAP	14	192	0
TAP	14	192	7
TAP	14	288	2
TAP	14	288	5
XHO	15	0	4	288
TAP	15	96	3
TAP	15	192	3
TAP	15	288	3
XHO	16	0	3	288
TAP	16	96	4
TAP	16	192	4
TAP	16	288	4
XHO	17	0	2	96
TAP	17	96	3
XHO	17	192	1	96
TAP	17	288	2
TAP	18	0	0
STR	18	48	0
SI_	18	48	0	96	48	4
TAP	18	144	7
TAP	18	192	7
TAP	18	288	2
TAP	18	288	5
STR	19	0	1
SI_	19	0	1	96	48	3
STR	19	0	6
SI_	19	0	6	96	48	4
TAP	19	96	1
TAP	19	96	6
STR	19	192	1
SI_	19	192	1	96	48	3
STR	19	192	6
SI_	19	192	6	96	48	4
TAP	19	288	1
TAP	19	288	6
STR	20	0	1
SI_	20	0	1	96	48	3
STR	20	0	6
SI_	20	0	6	96	48	4
TAP	20	96	1
TAP	20	96	6
TAP	20	192	0
TAP	20	192	7
TAP	20	288	2
TAP	20	288	5
STR	21	0	0
SI_	21	0	0	96	48	3
STR	21	0	7
SI_	21	0	7	96	48	4
TAP	21	96	0
TAP	21	96	7
STR	21	192	0
SI_	21	192	0	96	48	3
STR	21	192	7
SI_	21	192	7	96	48	4
TAP	21	288	0
TAP	21	288	7
BST	22	0	1
SI_	22	0	1	96	48	5
BRK	22	0	6
BST	22	96	7
SI_	22	96	7	96	48	3
BST	22	192	0
SI_	22	192	0	96	48	4
BRK	22	288	6
TAP	23	0	0
STR	23	0	6
SI_	23	0	6	96	48	4
TTP	23	96	0	E	0	M1
TAP	23	96	6
TTP	23	120	0	C	0	M1
TTP	23	144	4	E	0	M1
STR	23	192	1
SI_	23	192	1	96	48	3
TAP	23	192	7
TTP	23	288	0	E	0	M1
TAP	23	288	1
TTP	23	312	0	C	0	M1
TTP	23	336	4	E	0	M1
TAP	24	0	0
STR	24	0	6
SI_	24	0	6	96	48	4
TTP	24	96	0	E	0	M1
TAP	24	96	6
TTP	24	120	0	C	0	M1
TTP	24	144	4	E	0	M1
TAP	24	192	1
TAP	24	192	7
TAP	24	288	2
TAP	24	288	5
STR	25	0	1
SI_	25	0	1	96	48	3
TAP	25	0	7
TTP	25	96	0	E	0	M1
TAP	25	96	1
TTP	25	120	0	C	0	M1
TTP	25	144	4	E	0	M1
TAP	25	192	0
STR	25	192	6
SI_	25	192	6	96	48	4
TTP	25	288	0	E	0	M1
TAP	25	288	6
TTP	25	312	0	C	0	M1
TTP	25	336	4	E	0	M1
STR	26	0	1
SI_	26	0	1	96	48	3
TAP	26	0	7
TTP	26	96	0	E	0	M1
TAP	26	96	1
TTP	26	120	0	C	0	M1
TTP	26	144	4	E	0	M1
TAP	26	192	0
TAP	26	192	6
XTP	26	288	2
XTP	26	288	5
STR	27	0	0
SI_	27	0	0	96	48	3
TAP	27	0	7
TAP	27	96	0
TTP	27	96	0	E	0	M1
TTP	27	120	0	C	0	M1
TTP	27	144	4	E	0	M1
TAP	27	192	0
STR	27	192	7
SI_	27	192	7	96	48	4
TTP	27	288	0	E	0	M1
TAP	27	288	7
TTP	27	312	0	C	0	M1
TTP	27	336	4	E	0	M1
STR	28	0	0
SI_	28	0	0	96	48	3
TAP	28	0	7
TAP	28	96	0
TTP	28	96	0	E	0	M1
TTP	28	120	0	C	0	M1
TTP	28	144	4	E	0	M1
TAP	28	192	0
TAP	28	192	7
TAP	28	288	2
TAP	28	288	5
TAP	29	0	0
STR	29	0	7
SI_	29	0	7	96	48	4
TTP	29	96	0	E	0	M1
TAP	29	96	7
TTP	29	120	0	C	0	M1
TTP	29	144	4	E	0	M1
STR	29	192	0
SI_	29	192	0	96	48	3
TAP	29	192	7
TAP	29	288	0
TTP	29	288	0	E	0	M1
TTP	29	312	0	C	0	M1
TTP	29	336	4	E	0	M1
TAP	30	0	0
STR	30	0	7
SI_	30	0	7	96	48	4
TTP	30	96	0	E	0	M1
TAP	30	96	7
TTP	30	120	0	C	0	M1
TTP	30	144	4	E	0	M1
TAP	30	192	0
TAP	30	192	7
TAP	30	288	2
TAP	30	288	5
STR	31	0	3
SI_	31	0	3	96	48	1
TAP	31	0	4
TAP	31	96	3
TTP	31	96	4	E	0	M1
TTP	31	120	0	C	0	M1
TTP	31	144	0	E	0	M1
TAP	31	192	3
STR	31	192	4
SI_	31	192	4	96	48	6
TAP	31	288	4
TTP	31	288	4	E	0	M1
TTP	31	312	0	C	0	M1
TTP	31	336	0	E	0	M1
STR	32	0	3
SI_	32	0	3	96	48	1
TAP	32	0	4
TAP	32	96	3
TTP	32	96	4	E	0	M1
TTP	32	120	0	C	0	M1
TTP	32	144	0	E	0	M1
TAP	32	192	3
TAP	32	192	4
TAP	32	288	1
TAP	32	288	6
TAP	33	0	3
STR	33	0	4
SI_	33	0	4	96	48	6
TAP	33	96	4
TTP	33	96	4	E	0	M1
TTP	33	120	0	C	0	M1
TTP	33	144	0	E	0	M1
STR	33	192	3
SI_	33	192	3	96	48	1
TAP	33	192	4
TAP	33	288	3
TTP	33	288	4	E	0	M1
TTP	33	312	0	C	0	M1
TTP	33	336	0	E	0	M1
TAP	34	0	3
STR	34	0	4
SI_	34	0	4	96	48	6
TAP	34	96	4
TTP	34	96	4	E	0	M1
TTP	34	120	0	C	0	M1
TTP	34	144	0	E	0	M1
TAP	34	192	3
TAP	34	192	4
BRK	34	288	1
BRK	34	288	6
STR	35	0	0
SCR	35	0	0	96	48	3
TAP	35	0	7
TAP	35	96	0
TTP	35	96	0	E	0	M1
TTP	35	120	0	C	1	M1
TTP	35	144	4	E	0	M1
TAP	35	192	0
STR	35	192	7
SCL	35	192	7	96	48	4
TTP	35	288	0	E	0	M1
TAP	35	288	7
TTP	35	312	0	C	1	M1
TTP	35	336	4	E	0	M1
STR	36	0	0
SCR	36	0	0	96	48	3
TAP	36	0	7
TAP	36	96	0
TTP	36	96	0	E	0	M1
TTP	36	120	0	C	1	M1
TTP	36	144	4	E	0	M1
TAP	36	192	0
STR	36	192	7
SCL	36	192	7	96	48	4
TTP	36	288	0	E	0	M1
TAP	36	288	7
TTP	36	312	0	C	1	M1
TTP	36	336	4	E	0	M1
STR	37	0	0
SCR	37	0	0	96	48	3
TAP	37	0	7
TAP	37	96	0
TTP	37	96	0	E	0	M1
TTP	37	120	0	C	1	M1
TTP	37	144	4	E	0	M1
TAP	37	192	0
STR	37	192	7
SCL	37	192	7	96	48	4
TTP	37	288	0	E	0	M1
TAP	37	288	7
TTP	37	312	0	C	1	M1
TTP	37	336	4	E	0	M1
TAP	38	0	1
TAP	38	0	6
TAP	38	96	3
TAP	38	96	4
TAP	38	192	0
TAP	38	216	7
TAP	38	240	0
TAP	38	264	7
TAP	38	288	1
TAP	38	288	6
STR	39	0	0
SI_	39	0	0	96	48	2
TAP	39	0	7
TAP	39	96	0
TTP	39	96	0	E	0	M1
TTP	39	120	0	C	0	M1
TTP	39	144	4	E	0	M1
TAP	39	192	0
STR	39	192	6
SI_	39	192	6	96	48	4
TTP	39	288	0	E	0	M1
TAP	39	288	6
TTP	39	312	0	C	0	M1
TTP	39	336	4	E	0	M1
STR	40	0	0
SI_	40	0	0	96	48	3
TAP	40	0	7
TAP	40	96	0
TTP	40	96	0	E	0	M1
TTP	40	120	0	C	0	M1
TTP	40	144	4	E	0	M1
TAP	40	192	0
STR	40	192	7
SCL	40	192	7	96	48	4
TTP	40	288	0	E	0	M1
TAP	40	288	7
TTP	40	312	0	C	0	M1
TTP	40	336	4	E	0	M1
STR	41	0	0
SCR	41	0	0	96	48	3
TAP	41	0	7
TAP	41	96	0
TTP	41	96	0	E	0	M1
TTP	41	120	0	C	0	M1
TTP	41	144	4	E	0	M1
TAP	41	192	0
STR	41	192	7
SI_	41	192	7	96	48	4
TTP	41	288	0	E	0	M1
TAP	41	288	7
TTP	41	312	0	C	0	M1
TTP	41	336	4	E	0	M1
XST	42	0	0
SI_	42	0	0	96	48	4
TAP	42	96	0
STR	42	96	6
SI_	42	96	6	96	48	2
TAP	42	192	3
TAP	42	192	6
XTP	42	288	1
XTP	42	288	5
TAP	43	0	2
TAP	43	0	3
TAP	43	48	1
TAP	43	96	1
TAP	43	144	2
TAP	43	144	3
TAP	43	192	1
TAP	43	240	1
TAP	43	288	2
TAP	43	288	3
TAP	43	336	1
TAP	44	0	1
TAP	44	48	2
TAP	44	48	3
TAP	44	96	1
TAP	44	144	1
TAP	44	192	3
TAP	44	192	4
TAP	44	240	3
TAP	44	240	4
XTP	44	288	1
XTP	44	288	6
TAP	45	0	4
TAP	45	0	5
TAP	45	48	6
TAP	45	96	6
TAP	45	144	4
TAP	45	144	5
TAP	45	192	6
TAP	45	240	6
TAP	45	288	4
TAP	45	288	5
TAP	45	336	6
TAP	46	0	6
TAP	46	48	4
TAP	46	48	5
TAP	46	96	6
TAP	46	144	6
TAP	46	192	3
TAP	46	192	4
TAP	46	240	3
TAP	46	240	4
XTP	46	288	1
XTP	46	288	6
TAP	47	0	2
TAP	47	0	3
TAP	47	48	0
TAP	47	96	0
TAP	47	144	2
TAP	47	144	3
TAP	47	192	0
TAP	47	240	0
TAP	47	288	2
TAP	47	288	3
TAP	47	336	0
TAP	48	0	0
TAP	48	48	2
TAP	48	48	3
TAP	48	96	0
TAP	48	144	0
TAP	48	192	3
TAP	48	192	4
TAP	48	240	3
TAP	48	240	4
XTP	48	288	1
XTP	48	288	6
TAP	49	0	4
TAP	49	0	5
TAP	49	48	7
TAP	49	96	7
TAP	49	144	4
TAP	49	144	5
TAP	49	192	7
TAP	49	240	7
TAP	49	288	4
TAP	49	288	5
TAP	49	336	7
TAP	50	0	7
TAP	50	48	4
TAP	50	48	5
TAP	50	96	7
TAP	50	144	7
TAP	50	192	3
TAP	50	192	4
TAP	50	240	3
TAP	50	240	4
STR	50	288	1
SCR	50	288	1	96	1152	0
XTP	50	288	6
THO	51	0	0	1152	C	0	M1
TTP	55	0	4	E	0	M1
TTP	55	96	3	E	0	M1
TTP	55	192	2	E	0	M1
TTP	55	288	1	E	0	M1
TTP	56	0	0	E	0	M1
TTP	56	96	7	E	0	M1
TTP	56	192	6	E	0	M1
TTP	56	288	5	E	0	M1
TAP	57	0	4
TAP	57	0	5
TAP	57	72	6
TAP	57	144	0
TAP	57	144	7
TAP	57	216	1
STR	57	288	2
SI_	57	288	2	96	48	6
TAP	57	288	3
STR	58	0	7
SI_	58	0	7	96	48	4
STR	58	96	3
SI_	58	96	3	96	48	0
TAP	58	192	7
TAP	58	288	7
TTP	59	0	0	C	1	M1
TTP	59	0	1	B	0	M1
TTP	59	0	2	B	0	M1
TTP	59	0	5	B	0	M1
TTP	59	0	6	B	0	M1
TAP	61	0	7
STR	61	96	7
SI_	61	96	7	96	48	3
STR	61	288	0
SCR	61	288	0	96	192	7
TTP	62	0	0	C	1	M1
HLD	63	0	1	192
TTP	63	192	0	C	1	M1
TTP	63	192	5	B	0	M1
HLD	64	0	0	192
TTP	64	192	0	C	1	M1
TTP	64	192	4	B	0	M1
HLD	65	0	7	192
TTP	65	192	0	C	1	M1
TTP	65	192	3	B	0	M1
TTP	66	0	0	C	1	M1
TTP	66	0	2	B	0	M1
TTP	66	0	3	B	0	M1
TTP	66	72	0	C	1	M1
TTP	66	72	4	B	0	M1
TTP	66	72	5	B	0	M1
TTP	66	144	0	C	1	M1
TTP	66	144	2	E	0	M1
TTP	66	144	6	E	0	M1
XTP	66	288	0
XTP	66	288	7
TAP	67	0	6
HLD	67	96	6	96
TTP	67	192	0	C	1	M1
TTP	67	192	2	B	0	M1
TAP	68	0	5
HLD	68	96	5	96
TTP	68	192	0	C	1	M1
TTP	68	192	1	B	0	M1
TAP	69	0	4
HLD	69	96	4	96
TTP	69	192	0	B	0	M1
TTP	69	192	0	C	1	M1
TAP	70	0	3
HLD	70	96	3	96
TTP	70	192	0	C	1	M1
TTP	70	192	7	B	0	M1
TAP	71	0	2
TAP	71	96	2
TTP	71	192	0	C	1	M1
TAP	71	192	2
TTP	71	192	6	B	0	M1
TAP	71	288	2
TAP	72	0	1
TAP	72	96	1
TTP	72	192	0	C	1	M1
TAP	72	192	1
TTP	72	192	5	B	0	M1
TAP	72	288	1
TAP	73	0	0
TAP	73	96	0
TAP	73	192	0
TTP	73	192	0	C	1	M1
TTP	73	192	4	B	0	M1
TAP	73	288	0
BRK	74	0	7
TTP	75	0	3	B	0	M1
TTP	75	0	3	E	0	M1
TTP	75	0	4	B	0	M1
TTP	75	0	5	E	0	M1
TTP	75	96	0	B	0	M1
TTP	75	96	1	E	0	M1
TTP	75	96	7	E	0	M1
TTP	75	96	7	B	0	M1
TAP	75	192	1
TAP	75	192	5
TAP	75	240	1
TAP	75	240	5
STR	75	288	2
SLL	75	288	2	96	192	5
TAP	75	288	6
TAP	75	336	2
TAP	75	336	6
TAP	76	0	2
STR	76	0	6
SLL	76	0	6	96	192	1
TAP	77	0	2
TAP	77	48	2
STR	77	96	1
SI_	77	96	1	96	48	6
STR	77	192	5
SI_	77	192	5	96	48	2
TAP	78	0	0
TAP	78	96	1
STR	78	192	2
SI_	78	192	2	96	48	0
TAP	78	192	6
BRK	78	288	2
TAP	79	0	1
TAP	79	0	3
TTP	79	96	0	C	0	M1
TTP	79	96	1	B	0	M1
TTP	79	96	5	B	0	M1
TAP	79	192	4
TAP	79	192	6
TTP	79	288	0	C	0	M1
TTP	79	288	2	B	0	M1
TTP	79	288	6	B	0	M1
TAP	80	0	1
TAP	80	0	3
TTP	80	96	0	C	0	M1
TTP	80	96	1	B	0	M1
TTP	80	96	5	B	0	M1
TAP	80	192	4
TAP	80	192	6
TTP	80	288	0	C	0	M1
TTP	80	288	2	B	0	M1
TTP	80	288	6	B	0	M1
TAP	81	0	1
TAP	81	0	3
TTP	81	96	0	C	0	M1
TTP	81	96	4	E	0	M1
TAP	81	192	4
TAP	81	192	6
TTP	81	288	0	C	0	M1
TTP	81	288	4	E	0	M1
HLD	82	0	2	384
HLD	82	0	3	96
THO	82	288	0	192	C	0	M1
STR	84	0	1
SI_	84	0	1	96	48	6
TAP	84	48	1
STR	84	96	5
SI_	84	96	5	96	48	1
TAP	84	144	5
STR	84	192	3
SI_	84	192	3	96	48	0
TAP	84	240	3
TAP	84	288	7
TAP	84	336	7
TAP	85	0	4
TAP	85	0	6
TAP	85	48	3
TAP	85	96	2
TAP	85	96	4
TAP	85	144	1
TAP	85	192	0
TAP	85	192	7
TAP	85	240	6
TAP	85	288	3
TAP	85	288	5
TAP	85	336	2
STR	86	0	1
SI_	86	0	1	96	48	6
TAP	86	48	1
STR	86	96	5
SI_	86	96	5	96	48	1
TAP	86	144	5
STR	86	192	3
SI_	86	192	3	96	48	0
TAP	86	240	3
TAP	86	288	7
TAP	86	336	7
TTP	87	0	5	E	0	M1
TTP	87	0	5	B	0	M1
TTP	87	0	6	B	0	M1
TTP	87	96	1	B	0	M1
TTP	87	96	2	B	0	M1
TTP	87	96	3	E	0	M1
TTP	87	192	0	E	0	M1
TTP	87	192	0	C	0	M1
TTP	87	192	4	E	0	M1
XTP	87	288	0
XTP	87	288	7
XST	88	0	0
SI_	88	0	0	96	48	4
XST	88	0	4
SI_	88	0	4	96	48	0
TAP	88	96	0
TAP	88	96	4
TTP	88	120	0	C	1	M1
XST	88	192	2
SI_	88	192	2	96	48	6
XST	88	192	6
SI_	88	192	6	96	48	2
TAP	88	288	2
TAP	88	288	6
TTP	88	312	0	C	1	M1
XST	89	0	3
SI_	89	0	3	96	48	7
XST	89	0	7
SI_	89	0	7	96	48	3
TAP	89	96	3
TAP	89	96	7
TTP	89	120	0	C	1	M1
XST	89	192	1
SI_	89	192	1	96	48	5
XST	89	192	5
SI_	89	192	5	96	48	1
TAP	89	288	1
TAP	89	288	5
TTP	89	312	0	C	1	M1
XST	90	0	0
SI_	90	0	0	96	48	4
XST	90	0	4
SI_	90	0	4	96	48	0
TAP	90	96	0
TAP	90	96	4
TTP	90	120	0	C	1	M1
XST	90	192	3
SI_	90	192	3	96	48	7
XST	90	192	7
SI_	90	192	7	96	48	3
TAP	90	288	3
TAP	90	288	7
TTP	90	312	0	C	1	M1
TTP	91	0	5	E	0	M1
TTP	91	0	5	B	0	M1
TTP	91	0	6	B	0	M1
TTP	91	96	1	B	0	M1
TTP	91	96	2	B	0	M1
TTP	91	96	3	E	0	M1
TTP	91	192	0	C	0	M1
TTP	91	192	0	E	0	M1
TTP	91	192	4	E	0	M1
XTP	91	288	1
XTP	91	288	6
HLD	92	0	5	384
TAP	92	96	3
TTP	92	192	0	B	0	M1
TTP	92	192	7	B	0	M1
TAP	92	336	3
HLD	93	0	2	384
TAP	93	96	3
TTP	93	192	0	B	0	M1
TTP	93	192	7	B	0	M1
TAP	93	336	4
TAP	94	0	5
TAP	94	48	5
TAP	94	96	3
TAP	94	144	3
TAP	94	192	4
TAP	94	240	4
STR	94	288	3
SCL	94	288	3	96	192	4
TAP	94	312	4
TAP	94	336	3
TAP	94	360	4
TTP	95	192	0	C	0	M1
XTP	95	288	0
XTP	95	288	7
STR	96	0	6
SI_	96	0	6	96	48	1
TAP	96	48	6
STR	96	96	2
SI_	96	96	2	96	48	6
TAP	96	144	2
STR	96	192	4
SI_	96	192	4	96	48	7
TAP	96	240	4
STR	96	288	0
SCR	96	288	0	96	96	4
TAP	96	336	0
STR	97	0	4
SCR	97	0	4	96	96	0
STR	97	96	0
SCR	97	96	0	96	96	4
TAP	97	192	4
TAP	97	288	0
STR	98	0	1
SI_	98	0	1	96	48	6
TAP	98	48	1
STR	98	96	5
SI_	98	96	5	96	48	1
TAP	98	144	5
STR	98	192	3
SI_	98	192	3	96	48	0
TAP	98	240	3
STR	98	288	7
SCL	98	288	7	96	96	3
TAP	98	336	7
STR	99	0	3
SCL	99	0	3	96	96	7
STR	99	96	7
SCL	99	96	7	96	96	3
TAP	99	192	3
TAP	99	288	7
STR	100	0	3
SI_	100	0	3	96	48	0
TAP	100	0	4
TAP	100	96	3
TTP	100	96	4	E	0	M1
TTP	100	120	0	C	0	M1
TTP	100	144	0	E	0	M1
TAP	100	192	3
STR	100	192	4
SI_	100	192	4	96	48	7
TAP	100	288	4
TTP	100	288	4	E	0	M1
TTP	100	312	0	C	0	M1
TTP	100	336	0	E	0	M1
STR	101	0	3
SI_	101	0	3	96	48	0
TAP	101	0	4
TAP	101	96	3
TTP	101	96	4	E	0	M1
TTP	101	120	0	C	0	M1
TTP	101	144	0	E	0	M1
TAP	101	192	3
STR	101	192	4
SI_	101	192	4	96	48	7
TAP	101	288	4
TTP	101	288	4	E	0	M1
TTP	101	312	0	C	0	M1
TTP	101	336	0	E	0	M1
STR	102	0	3
SI_	102	0	3	96	48	0
TAP	102	0	4
TAP	102	96	3
TTP	102	96	4	E	0	M1
TTP	102	120	0	C	0	M1
TTP	102	144	0	E	0	M1
TAP	102	192	3
STR	102	192	4
SI_	102	192	4	96	48	7
TAP	102	288	4
TTP	102	288	4	E	0	M1
TTP	102	312	0	C	0	M1
TTP	102	336	0	E	0	M1
STR	103	0	1
SI_	103	0	1	96	48	6
STR	103	96	7
SI_	103	96	7	96	48	3
TAP	103	192	0
XTP	103	288	1
XTP	103	288	6
STR	104	0	2
SI_	104	0	2	96	48	0
TAP	104	0	6
TAP	104	96	2
TTP	104	96	7	E	0	M1
TTP	104	120	0	C	0	M1
TTP	104	144	3	E	0	M1
TAP	104	192	1
STR	104	192	5
SI_	104	192	5	96	48	7
TTP	104	288	1	E	0	M1
TAP	104	288	5
TTP	104	312	0	C	0	M1
TTP	104	336	5	E	0	M1
STR	105	0	2
SI_	105	0	2	96	48	0
TAP	105	0	6
TAP	105	96	2
TTP	105	96	7	E	0	M1
TTP	105	120	0	C	0	M1
TTP	105	144	3	E	0	M1
TAP	105	192	1
STR	105	192	5
SI_	105	192	5	96	48	7
TTP	105	288	1	E	0	M1
TAP	105	288	5
TTP	105	312	0	C	0	M1
TTP	105	336	5	E	0	M1
STR	106	0	2
SI_	106	0	2	96	48	0
TAP	106	0	6
TAP	106	96	2
TTP	106	96	7	E	0	M1
TTP	106	120	0	C	0	M1
TTP	106	144	3	E	0	M1
TAP	106	192	1
STR	106	192	5
SI_	106	192	5	96	48	7
TTP	106	288	1	E	0	M1
TAP	106	288	5
TTP	106	312	0	C	0	M1
TTP	106	336	5	E	0	M1
TAP	107	0	2
TAP	107	0	6
TAP	107	48	2
TAP	107	48	6
TAP	107	96	1
TAP	107	96	5
TAP	107	144	1
TAP	107	144	5
TAP	107	192	0
TAP	107	192	4
TAP	107	240	0
TAP	107	240	4
TAP	107	288	3
TAP	107	288	7
STR	108	0	1
SCR	108	0	1	96	48	3
TAP	108	0	5
TAP	108	96	1
TTP	108	96	5	E	0	M1
TTP	108	120	0	C	0	M1
TTP	108	144	1	E	0	M1
TAP	108	192	2
STR	108	192	6
SCL	108	192	6	96	48	4
TTP	108	288	3	E	0	M1
TAP	108	288	6
TTP	108	312	0	C	0	M1
TTP	108	336	7	E	0	M1
STR	109	0	1
SCR	109	0	1	96	48	3
TAP	109	0	5
TAP	109	96	1
TTP	109	96	5	E	0	M1
TTP	109	120	0	C	0	M1
TTP	109	144	1	E	0	M1
TAP	109	192	2
STR	109	192	6
SCL	109	192	6	96	48	4
TTP	109	288	3	E	0	M1
TAP	109	288	6
TTP	109	312	0	C	0	M1
TTP	109	336	7	E	0	M1
STR	110	0	1
SCR	110	0	1	96	48	3
TAP	110	0	5
TAP	110	96	1
TTP	110	96	5	E	0	M1
TTP	110	120	0	C	0	M1
TTP	110	144	1	E	0	M1
TAP	110	192	2
STR	110	192	6
SCL	110	192	6	96	48	4
TTP	110	288	3	E	0	M1
TAP	110	288	6
TTP	110	312	0	C	0	M1
TTP	110	336	7	E	0	M1
TAP	111	0	1
TAP	111	0	5
TAP	111	96	3
TAP	111	96	7
STR	111	192	0
SCR	111	192	0	96	96	4
TAP	111	192	5
STR	111	288	4
SCR	111	288	4	96	96	0
BST	112	0	0
SCR	112	0	0	96	192	0
TTP	112	96	0	C	1	M1
BST	112	192	0
SCR	112	192	0	96	192	0
TTP	112	288	0	C	1	M1
BST	113	0	0
SCR	113	0	0	96	192	0
TTP	113	96	0	C	1	M1
BST	113	192	0
SCR	113	192	0	96	192	0
TTP	113	288	0	C	1	M1
BST	114	0	0
SCR	114	0	0	96	192	0
TTP	114	96	0	C	1	M1
BRK	114	192	0
TTP	114	288	0	C	1	M1
XTP	115	0	1
XTP	115	0	6
TAP	115	96	4
TAP	115	120	3
TAP	115	144	4
TAP	115	168	3
STR	115	192	4
SCR	115	192	4	96	96	0
BST	115	288	0
SCR	115	288	0	96	96	4
BST	116	0	4
SCR	116	0	4	96	192	4
TTP	116	96	0	C	1	M1
BST	116	192	4
SCR	116	192	4	96	192	4
TTP	116	288	0	C	1	M1
BST	117	0	4
SCR	117	0	4	96	192	4
TTP	117	96	0	C	1	M1
BRK	117	192	4
TTP	117	288	0	C	1	M1
XTP	118	0	0
XTP	118	0	7
XTP	118	72	5
XTP	118	72	6
XTP	118	144	3
XTP	118	144	4
XTP	118	216	1
XTP	118	216	2
STR	118	288	0
SI_	118	288	0	96	48	4
TAP	118	312	7
TAP	118	336	0
TAP	118	360	7
XTP	119	0	0
STR	119	96	6
SI_	119	96	6	96	48	2
STR	119	288	0
SI_	119	288	0	96	48	3
STR	119	288	4
SI_	119	288	4	96	48	7
BRK	120	0	0
BRK	120	0	4

T_REC_TAP	413
T_REC_BRK	10
T_REC_XTP	32
T_REC_HLD	11
T_REC_XHO	4
T_REC_STR	105
T_REC_BST	12
T_REC_XST	13
T_REC_TTP	276
T_REC_THO	2
T_REC_SLD	130
T_REC_ALL	1008
T_NUM_TAP	839
T_NUM_BRK	22
T_NUM_HLD	17
T_NUM_SLD	130
T_NUM_ALL	1008
T_JUDGE_TAP	861
T_JUDGE_HLD	90
T_JUDGE_SLD	130
T_JUDGE_ALL	1081
TTM_EACHPAIRS	178
TTM_SCR_TAP	419500
TTM_SCR_BRK	57200
TTM_SCR_HLD	17000
TTM_SCR_SLD	195000
TTM_SCR_ALL	688700
TTM_SCR_S	665950
TTM_SCR_SS	686500
TTM_RAT_ACV	10032

