VERSION	0.00.00	1.03.00
FES_MODE	0
BPM_DEF	215.000	215.000	215.000	215.000
MET_DEF	4	4
RESOLUTION	384
CLK_DEF	384
COMPATIBLE_CODE	MA2

BPM	0	0	215.000
MET	0	0	4	4

TAP	3	0	3
TAP	3	0	4
TAP	3	96	3
TAP	3	192	3
TAP	3	192	4
TAP	3	288	4
TAP	4	0	3
TAP	4	0	4
TAP	4	96	2
TAP	4	192	3
TAP	4	192	4
TAP	4	288	5
TAP	5	0	3
TAP	5	0	4
TAP	5	96	1
TAP	5	192	3
TAP	5	192	4
TAP	5	288	6
TAP	6	0	3
TAP	6	0	4
TAP	6	96	0
TAP	6	192	3
TAP	6	192	4
TAP	6	288	7
TAP	7	0	3
TAP	7	0	4
TTP	7	96	1	B	0	M1
TTP	7	96	2	B	0	M1
TAP	7	192	3
TAP	7	192	4
TTP	7	288	5	B	0	M1
TTP	7	288	6	B	0	M1
TAP	8	0	3
TAP	8	0	4
TTP	8	96	1	B	0	M1
TTP	8	96	1	E	0	M1
TAP	8	192	3
TAP	8	192	4
TTP	8	288	6	B	0	M1
TTP	8	288	7	E	0	M1
TAP	9	0	3
TAP	9	0	4
TTP	9	96	0	B	0	M1
TTP	9	96	7	B	0	M1
TAP	9	192	3
TAP	9	192	4
TTP	9	288	2	E	0	M1
TTP	9	288	6	E	0	M1
BRK	10	0	0
BRK	10	0	7
HLD	11	0	2	192
TAP	11	192	1
HLD	12	0	5	192
TAP	12	192	6
TAP	12	288	3
TAP	12	288	4
HLD	13	0	1	192
TAP	13	192	2
HLD	14	0	6	192
TAP	14	192	5
TAP	14	288	3
TAP	14	288	4
BRK	15	0	0
TAP	15	96	1
TAP	15	192	2
TAP	15	288	3
BRK	16	0	1
TAP	16	0	4
TAP	16	96	3
TAP	16	96	6
TAP	16	192	2
TAP	16	192	4
TAP	16	288	3
TAP	16	288	5
BRK	17	0	2
TAP	17	0	4
TAP	17	96	3
TAP	17	96	6
BRK	17	192	1
TAP	17	192	4
TAP	17	288	3
TAP	17	288	7
TTP	18	0	0	C	1	M1
TTP	18	0	1	B	0	M1
TTP	18	0	2	B	0	M1
TTP	18	0	5	B	0	M1
TTP	18	0	6	B	0	M1
TAP	19	0	3
TAP	19	0	4
TAP	19	96	2
TAP	19	96	3
TAP	19	192	4
TAP	19	192	5
TAP	19	288	1
TAP	19	288	2
TAP	20	0	5
TAP	20	0	6
TAP	20	96	3
TAP	20	96	4
TAP	20	192	2
TAP	20	240	2
TAP	20	288	1
TAP	20	288	3
TAP	21	0	4
TAP	21	0	5
TAP	21	96	2
TAP	21	96	3
TAP	21	192	3
TAP	21	192	4
TAP	21	288	5
TAP	21	336	5
TAP	22	0	4
TAP	22	0	6
TAP	22	96	1
TAP	22	96	3
XTP	22	192	0
XTP	22	192	7
XTP	22	240	0
XTP	22	240	7
BRK	22	288	1
BRK	22	288	6
TAP	23	0	3
TAP	23	48	4
TAP	23	96	3
TAP	23	192	4
TAP	23	192	5
TAP	23	288	2
TAP	23	288	3
TAP	24	0	5
TAP	24	0	6
TAP	24	96	1
TAP	24	96	2
XTP	24	192	0
XST	24	192	7
SCL	24	192	7	96	96	4
XTP	24	240	0
XTP	24	288	0
TAP	25	0	3
TAP	25	96	2
TAP	25	96	5
XST	25	192	0
SCR	25	192	0	96	96	3
XTP	25	192	7
XTP	25	240	7
XTP	25	288	7
XHO	26	0	4	48
XHO	26	96	3	48
XHO	26	96	5	48
XHO	26	192	2	48
XHO	26	192	6	48
XHO	26	288	1	48
XHO	26	288	7	48
BRK	27	0	0
TAP	27	96	1
TAP	27	96	7
HLD	27	144	1	96
TAP	27	144	7
HLD	27	240	3	96
HLD	27	336	5	96
HLD	28	48	7	96
TAP	28	144	1
HLD	28	192	1	96
TAP	28	288	0
TAP	28	336	1
TAP	29	0	2
TAP	29	0	7
TAP	29	96	0
TAP	29	96	6
TAP	29	144	0
HLD	29	144	6	96
HLD	29	240	4	96
HLD	29	336	2	96
HLD	30	48	0	96
TAP	30	144	6
HLD	30	192	6	96
TAP	30	288	7
TAP	30	336	6
TAP	31	0	0
HLD	31	0	5	48
TAP	31	96	1
HLD	31	96	5	48
TAP	31	192	2
HLD	31	192	5	48
TAP	31	288	3
HLD	31	288	5	48
HLD	32	0	2	48
TAP	32	0	4
HLD	32	96	2	48
TAP	32	96	5
HLD	32	192	2	48
TAP	32	192	6
XTP	32	288	2
XTP	32	288	7
XTP	32	336	2
XTP	32	336	7
XHO	33	0	0	48
XHO	33	0	1	48
HLD	33	96	2	48
HLD	33	96	3	48
HLD	33	192	4	48
HLD	33	192	5	48
HLD	33	288	6	48
HLD	33	288	7	48
BRK	34	0	0
XTP	34	0	5
BRK	34	96	1
XTP	34	96	4
BST	34	192	2
SI_	34	192	2	96	48	7
XTP	34	192	3
BRK	34	288	4
STR	35	0	1
SI_	35	0	1	96	48	5
TAP	35	0	6
BRK	35	96	4
STR	35	192	0
SI_	35	192	0	96	48	3
TAP	35	192	6
BRK	35	288	4
STR	36	0	1
SI_	36	0	1	96	48	5
TAP	36	0	6
BRK	36	96	4
STR	36	192	2
SI_	36	192	2	96	48	7
TAP	36	192	6
BRK	36	288	4
STR	37	0	1
SI_	37	0	1	96	48	5
TAP	37	0	6
BRK	37	96	4
STR	37	192	0
SI_	37	192	0	96	48	3
TAP	37	192	6
BRK	37	288	4
XTP	38	0	4
XTP	38	0	6
XTP	38	96	1
XTP	38	96	3
XTP	38	192	0
XTP	38	192	7
XTP	38	240	0
XTP	38	240	7
BRK	38	288	1
BRK	38	288	6
HLD	39	0	2	48
HLD	39	0	5	48
HLD	39	96	1	48
HLD	39	96	4	48
HLD	39	192	2	48
HLD	39	192	5	48
HLD	39	288	3	48
HLD	39	288	6	48
HLD	40	0	2	48
HLD	40	0	5	48
HLD	40	96	1	48
HLD	40	96	4	48
HLD	40	192	2	48
HLD	40	192	5	48
XTP	40	288	3
XTP	40	288	4
XTP	40	336	3
XTP	40	336	4
HLD	41	0	2	48
HLD	41	0	5	48
HLD	41	96	4	48
HLD	41	96	6	48
HLD	41	192	2	48
HLD	41	192	5	48
HLD	41	288	1	48
HLD	41	288	3	48
TAP	42	0	2
STR	42	0	5
SI_	42	0	5	96	48	0
STR	42	96	1
SI_	42	96	1	96	48	4
XTP	42	192	5
BRK	42	288	0
BRK	42	288	7
HLD	43	0	3	96
HLD	43	0	4	96
HLD	43	144	0	96
HLD	43	144	1	96
HLD	43	288	3	96
HLD	43	288	4	96
HLD	44	48	6	96
HLD	44	48	7	96
TAP	44	192	3
TAP	44	192	4
TAP	44	240	3
TAP	44	240	4
BRK	44	288	2
BRK	44	288	5
HLD	45	0	0	96
HLD	45	0	7	96
HLD	45	144	1	96
HLD	45	144	3	96
HLD	45	288	0	96
HLD	45	288	7	96
HLD	46	48	4	96
HLD	46	48	6	96
TAP	46	192	0
STR	46	192	7
SI_	46	192	7	96	48	4
BRK	46	288	3
HLD	47	0	3	96
HLD	47	0	5	96
HLD	47	144	6	96
HLD	47	144	7	96
HLD	47	288	2	96
HLD	47	288	4	96
HLD	48	48	0	96
HLD	48	48	1	96
TAP	48	192	3
TAP	48	192	4
TAP	48	240	3
TAP	48	240	4
BRK	48	288	2
BRK	48	288	5
HLD	49	0	0	96
HLD	49	0	7	96
HLD	49	144	5	96
HLD	49	144	6	96
HLD	49	288	0	96
HLD	49	288	7	96
HLD	50	48	1	96
HLD	50	48	2	96
TAP	50	192	0
STR	50	192	7
SI_	50	192	7	96	48	3
BST	50	288	3
SCL	50	288	3	96	576	4
BRK	51	0	0
HLD	55	0	2	192
HLD	55	192	3	192
HLD	56	0	4	192
HLD	56	192	5	192
STR	57	0	4
SUL	57	0	4	96	288	3
STR	59	0	3
SXR	59	0	3	96	192	3
STR	60	0	4
SXL	60	0	4	96	192	4
STR	61	0	2
SCL	61	0	2	96	192	5
STR	62	0	3
SUL	62	0	3	96	192	4
STR	62	0	5
SCR	62	0	5	96	192	2
BRK	63	0	3
BRK	63	0	5
TAP	63	96	4
TAP	63	288	4
BRK	64	0	0
BRK	64	0	7
TAP	64	96	3
TAP	64	288	3
BRK	65	0	0
BRK	65	0	6
TAP	65	96	4
TAP	65	288	4
XTP	66	0	1
XTP	66	0	7
XTP	66	72	1
XTP	66	72	7
XTP	66	144	1
XTP	66	144	7
BRK	67	0	2
BRK	67	0	3
HLD	67	96	1	192
TAP	67	288	0
BRK	68	0	5
HLD	68	96	6	192
TAP	68	288	7
BRK	69	0	4
HLD	69	96	1	192
TAP	69	288	2
BRK	70	0	3
HLD	70	96	6	192
TAP	70	288	5
BRK	71	0	2
TAP	71	96	3
TAP	71	192	4
TAP	71	288	5
BRK	72	0	1
TAP	72	96	0
TAP	72	192	7
TAP	72	288	6
BRK	73	0	0
TAP	73	96	1
TAP	73	96	7
TAP	73	192	2
TAP	73	192	6
TAP	73	288	3
TAP	73	288	5
TTP	74	0	0	B	0	M1
TTP	74	0	0	C	1	M1
TTP	74	0	4	B	0	M1
TAP	75	0	2
TAP	75	0	3
TAP	75	96	3
TAP	75	96	4
TAP	75	192	4
TAP	75	192	5
STR	75	288	5
SUR	75	288	5	96	192	2
STR	75	288	6
SCR	75	288	6	96	192	1
TAP	77	0	2
TAP	77	48	2
TAP	77	96	3
TAP	77	192	5
TAP	77	240	5
TAP	77	288	4
TAP	78	0	1
TAP	78	0	3
TAP	78	96	4
TAP	78	96	6
TAP	78	192	2
TAP	78	192	5
XTP	78	288	0
XTP	78	288	7
TTP	79	0	1	B	0	M1
TTP	79	0	1	E	0	M1
TTP	79	96	5	E	0	M1
TTP	79	96	5	B	0	M1
TTP	79	192	3	E	0	M1
TTP	79	192	3	B	0	M1
TTP	79	288	7	B	0	M1
TTP	79	288	7	E	0	M1
TTP	80	0	1	B	0	M1
TTP	80	0	2	B	0	M1
TTP	80	96	5	B	0	M1
TTP	80	96	6	B	0	M1
TTP	80	192	4	E	0	M1
TTP	80	240	0	C	0	M1
TTP	80	288	0	E	0	M1
TTP	81	0	3	E	0	M1
TTP	81	0	5	E	0	M1
TTP	81	96	1	E	0	M1
TTP	81	96	7	E	0	M1
TTP	81	192	0	E	0	M1
TTP	81	240	0	C	0	M1
TTP	81	288	4	E	0	M1
THO	82	0	0	576	C	0	M1
STR	84	0	2
SI_	84	0	2	96	48	4
TAP	84	0	7
TAP	84	96	6
STR	84	192	1
SI_	84	192	1	96	48	3
TAP	84	192	5
TAP	84	288	4
STR	85	0	2
SI_	85	0	2	96	48	4
TAP	85	0	4
TAP	85	96	5
STR	85	192	1
SI_	85	192	1	96	48	3
TAP	85	192	6
TAP	85	288	7
TAP	86	0	2
TAP	86	0	7
TAP	86	48	2
TAP	86	48	7
TAP	86	96	2
TAP	86	96	7
TAP	86	192	0
TAP	86	192	5
TAP	86	240	0
TAP	86	240	5
TAP	86	288	0
TAP	86	288	5
XHO	87	0	3	48
XHO	87	0	4	48
XHO	87	96	3	48
XHO	87	96	4	48
XTP	87	192	3
XTP	87	192	4
TAP	87	240	3
TAP	87	240	4
XTP	87	288	1
XTP	87	288	6
TAP	88	0	0
STR	88	0	5
SI_	88	0	5	96	48	3
TAP	88	96	1
TAP	88	192	2
STR	88	192	6
SI_	88	192	6	96	48	4
TAP	88	288	3
TAP	89	0	3
STR	89	0	5
SI_	89	0	5	96	48	3
TAP	89	96	2
TAP	89	192	1
STR	89	192	6
SI_	89	192	6	96	48	4
TAP	89	288	0
TAP	90	0	3
TAP	90	0	5
TAP	90	48	3
TAP	90	48	5
TAP	90	96	3
TAP	90	96	5
TAP	90	192	2
TAP	90	192	4
TAP	90	240	2
TAP	90	240	4
TAP	90	288	2
TAP	90	288	4
XHO	91	0	0	48
XHO	91	0	7	48
XHO	91	96	0	48
XHO	91	96	7	48
XTP	91	192	0
XTP	91	192	7
TAP	91	240	0
TAP	91	240	7
BRK	91	288	1
BRK	91	288	6
TAP	92	0	2
TAP	92	0	3
TAP	92	96	2
TAP	92	96	3
TAP	92	192	1
TAP	92	192	4
HLD	93	0	5	96
HLD	93	96	4	96
HLD	93	192	3	96
TAP	93	288	2
TAP	94	0	4
TAP	94	0	5
TAP	94	96	3
TAP	94	96	6
TAP	94	192	1
TAP	94	192	4
TAP	94	288	2
TAP	94	288	3
STR	95	0	0
SCR	95	0	0	96	96	3
STR	95	0	7
SCL	95	0	7	96	96	4
BRK	95	288	1
BRK	95	288	6
STR	96	0	0
SI_	96	0	0	96	48	3
TAP	96	0	7
TAP	96	96	4
HLD	96	144	4	96
HLD	96	240	5	96
TAP	96	336	6
STR	97	0	6
SI_	97	0	6	96	48	3
TAP	97	96	2
HLD	97	144	2	96
HLD	97	240	1	96
TAP	97	336	0
TAP	98	0	0
TAP	98	48	1
TAP	98	48	7
TAP	98	144	1
TAP	98	144	3
STR	98	240	3
SI_	98	240	3	96	48	0
TAP	98	240	5
TAP	98	336	6
TAP	99	0	6
TAP	99	48	5
TAP	99	48	7
TAP	99	144	0
TAP	99	144	2
TAP	99	240	1
TAP	99	240	6
BRK	99	288	1
BRK	99	288	6
TAP	100	0	0
STR	100	0	7
SI_	100	0	7	96	48	4
TAP	100	96	3
HLD	100	144	3	96
HLD	100	240	2	96
TAP	100	336	1
STR	101	0	1
SI_	101	0	1	96	48	4
TAP	101	96	5
TAP	101	144	5
TAP	101	192	3
TAP	101	240	3
TAP	101	288	4
TAP	101	336	4
TAP	102	0	3
TAP	102	0	5
TAP	102	96	1
TAP	102	96	4
TAP	102	192	2
TAP	102	192	6
TAP	102	288	0
TAP	102	288	4
XTP	103	0	2
XST	103	0	6
SI_	103	0	6	96	48	2
XST	103	96	0
SI_	103	96	0	96	48	4
XTP	103	192	5
BRK	103	288	0
BRK	103	288	7
XST	104	0	6
SI_	104	0	6	96	48	3
XST	104	96	7
SI_	104	96	7	96	48	2
XST	104	192	6
SI_	104	192	6	96	48	3
XST	104	288	7
SI_	104	288	7	96	48	2
XST	105	0	6
SI_	105	0	6	96	48	3
XST	105	96	7
SI_	105	96	7	96	48	2
XTP	105	192	6
XTP	105	240	6
XTP	105	288	5
XTP	105	288	7
XST	106	0	3
SI_	106	0	3	96	48	0
XST	106	96	4
SI_	106	96	4	96	48	7
XST	106	192	3
SI_	106	192	3	96	48	0
XTP	106	288	4
XTP	106	336	4
XHO	107	0	3	48
XHO	107	0	5	48
XHO	107	96	2	48
XHO	107	96	6	48
XHO	107	192	1	48
XHO	107	192	7	48
BRK	107	288	0
XST	108	0	1
SI_	108	0	1	96	48	4
XST	108	96	0
SI_	108	96	0	96	48	5
XST	108	192	1
SI_	108	192	1	96	48	4
XST	108	288	0
SI_	108	288	0	96	48	5
XST	109	0	1
SI_	109	0	1	96	48	4
XST	109	96	0
SI_	109	96	0	96	48	5
XTP	109	192	1
XTP	109	240	1
XTP	109	288	0
XTP	109	288	2
TAP	110	0	3
TAP	110	0	4
TAP	110	96	5
TAP	110	96	7
TAP	110	192	3
TAP	110	192	4
TAP	110	288	1
TAP	110	288	3
TAP	111	0	4
TAP	111	0	6
TAP	111	96	1
TAP	111	96	2
TAP	111	192	5
STR	111	192	6
SUL	111	192	6	96	96	1
XTP	111	288	0
BRK	112	96	0
BRK	112	96	7
TAP	112	192	3
STR	112	192	4
SI_	112	192	4	96	48	7
BRK	112	288	0
TAP	113	0	3
STR	113	0	5
SI_	113	0	5	96	48	1
BRK	113	96	0
TAP	113	192	3
STR	113	192	6
SI_	113	192	6	96	48	2
BRK	113	288	0
TAP	114	0	3
STR	114	0	5
SI_	114	0	5	96	48	1
BRK	114	96	0
TAP	114	192	3
STR	114	192	4
SI_	114	192	4	96	48	7
BRK	114	288	0
XTP	115	0	1
XTP	115	0	3
XTP	115	96	4
XTP	115	96	6
XTP	115	192	0
XTP	115	192	7
XTP	115	240	0
XTP	115	240	7
BRK	115	288	1
BRK	115	288	6
XST	116	0	2
SI_	116	0	2	96	48	4
XST	116	120	5
SI_	116	120	5	96	24	3
XST	116	192	1
SI_	116	192	1	96	48	5
XST	116	288	6
SI_	116	288	6	96	48	2
XST	117	0	0
SI_	117	0	0	96	48	4
XST	117	96	7
SI_	117	96	7	96	48	3
XTP	117	192	0
BRK	117	288	1
BRK	117	288	6
XST	118	0	3
SXR	118	0	3	96	288	0
XST	118	0	4
SXL	118	0	4	96	288	7
TAP	119	96	2
TAP	119	96	5
TAP	119	192	1
TAP	119	192	6
BST	119	288	0
SI_	119	288	0	96	48	3
BST	119	288	7
SI_	119	288	7	96	48	4

T_REC_TAP	297
T_REC_BRK	62
T_REC_XTP	66
T_REC_HLD	98
T_REC_XHO	23
T_REC_STR	39
T_REC_BST	4
T_REC_XST	27
T_REC_TTP	42
T_REC_THO	1
T_REC_SLD	70
T_REC_ALL	729
T_NUM_TAP	471
T_NUM_BRK	66
T_NUM_HLD	122
T_NUM_SLD	70
T_NUM_ALL	729
T_JUDGE_TAP	537
T_JUDGE_HLD	220
T_JUDGE_SLD	70
T_JUDGE_ALL	827
TTM_EACHPAIRS	222
TTM_SCR_TAP	235500
TTM_SCR_BRK	171600
TTM_SCR_HLD	122000
TTM_SCR_SLD	105000
TTM_SCR_ALL	634100
TTM_SCR_S	608700
TTM_SCR_SS	627500
TTM_RAT_ACV	10105

