VERSION	0.00.00	1.03.00
FES_MODE	0
BPM_DEF	215.000	215.000	215.000	215.000
MET_DEF	4	4
RESOLUTION	384
CLK_DEF	384
COMPATIBLE_CODE	MA2

BPM	0	0	215.000
MET	0	0	4	4

TAP	3	0	2
TAP	3	96	2
TAP	3	192	2
TAP	3	288	2
TAP	4	0	3
TAP	4	96	3
TAP	4	192	3
TAP	4	288	3
TAP	5	0	4
TAP	5	96	4
TAP	5	192	4
TAP	5	288	4
TAP	6	0	5
TAP	6	96	5
XTP	6	192	4
XTP	6	192	5
TAP	7	0	6
TAP	7	96	6
TAP	7	192	6
TAP	7	288	6
TAP	8	0	7
TAP	8	96	7
TAP	8	192	7
TAP	8	288	7
TAP	9	0	0
TAP	9	96	0
TAP	9	192	0
TAP	9	288	0
HLD	10	0	1	192
HLD	10	0	6	192
TTP	11	0	5	B	0	L1
TTP	11	192	3	B	0	L1
TTP	12	0	1	B	0	L1
TTP	12	192	0	C	0	L1
TTP	13	0	5	B	0	L1
TTP	13	192	3	B	0	L1
TTP	14	0	0	C	0	L1
TTP	15	0	3	B	0	L1
TTP	15	0	4	B	0	L1
TTP	16	0	2	B	0	L1
TTP	16	0	5	B	0	L1
TTP	17	0	1	B	0	L1
TTP	17	0	6	B	0	L1
TTP	18	0	0	C	1	L1
TAP	19	0	0
TAP	19	96	0
TAP	19	192	1
TAP	19	288	1
TAP	20	0	2
TAP	20	96	2
TAP	20	192	3
TAP	20	240	3
TAP	20	288	3
TAP	21	0	4
TAP	21	96	4
TAP	21	192	3
TAP	21	192	4
TAP	21	288	5
TAP	21	336	5
TAP	22	0	5
TAP	22	96	6
XTP	22	192	6
XTP	22	192	7
TAP	23	0	6
TAP	23	96	6
TAP	23	192	0
TAP	23	192	7
TAP	23	288	0
TAP	23	288	7
TAP	24	0	1
TAP	24	96	0
TAP	24	192	1
TAP	24	192	7
TAP	25	0	2
TAP	25	96	2
TAP	25	192	3
TAP	25	192	4
TAP	25	288	3
TAP	25	288	4
BRK	26	0	2
BRK	26	0	5
TAP	27	0	7
TAP	27	96	7
TAP	27	192	6
TAP	27	288	6
TAP	28	0	5
TAP	28	96	5
TAP	28	192	4
TAP	28	240	4
TAP	28	288	4
TAP	29	0	3
TAP	29	96	3
TAP	29	192	3
TAP	29	192	4
TAP	29	288	2
TAP	29	336	2
TAP	30	0	2
TAP	30	96	1
XTP	30	192	0
XTP	30	192	1
TAP	31	0	1
TAP	31	96	1
TAP	31	192	0
TAP	31	192	7
TAP	31	288	0
TAP	31	288	7
TAP	32	0	6
TAP	32	96	7
TAP	32	192	0
TAP	32	192	6
TAP	33	0	5
TAP	33	96	5
TAP	33	192	3
TAP	33	192	4
TAP	33	288	3
TAP	33	288	4
XTP	34	0	2
XTP	34	96	1
BRK	34	192	0
BRK	34	192	7
TAP	35	0	0
TAP	35	96	0
TAP	35	192	1
TAP	35	288	1
TAP	36	0	2
TAP	36	96	2
TAP	36	192	3
TAP	36	240	3
TAP	36	288	3
TAP	37	0	4
TAP	37	96	4
TAP	37	192	3
TAP	37	192	4
TAP	37	288	5
TAP	37	336	5
TAP	38	0	5
TAP	38	96	6
XTP	38	192	6
XTP	38	192	7
TAP	39	0	6
TAP	39	96	6
TAP	39	192	0
TAP	39	192	7
TAP	39	288	0
TAP	39	288	7
TAP	40	0	1
TAP	40	96	0
TAP	40	192	1
TAP	40	192	7
TAP	41	0	2
TAP	41	96	1
TAP	41	192	0
TAP	41	288	7
TAP	42	0	0
TAP	42	0	7
TAP	42	96	1
TAP	42	96	6
BRK	42	192	2
BRK	42	192	5
STR	43	0	4
SXL	43	0	4	96	432	7
TAP	44	192	0
TAP	44	288	0
STR	45	0	0
SUR	45	0	0	96	432	3
XTP	46	192	4
STR	47	0	3
SXR	47	0	3	96	432	0
TAP	48	192	7
TAP	48	288	7
STR	49	0	7
SUL	49	0	7	96	432	4
BRK	50	192	3
HLD	51	0	2	384
HLD	52	0	3	384
HLD	53	0	4	384
TAP	54	0	5
HLD	55	0	5	384
HLD	56	0	4	384
HLD	57	0	3	384
BRK	58	0	2
TAP	59	0	2
TAP	59	192	1
TAP	60	0	0
TAP	60	192	7
TAP	61	0	6
TAP	61	192	5
HLD	62	0	3	192
HLD	62	0	4	192
TTP	63	0	0	B	0	L1
TTP	63	0	6	B	0	L1
TTP	64	0	1	B	0	L1
TTP	64	0	7	B	0	L1
TTP	65	0	3	B	0	L1
TTP	65	0	4	B	0	L1
THO	66	0	0	192	C	0	L1
TTP	67	0	0	B	0	L1
TTP	67	0	6	B	0	L1
TTP	68	0	1	B	0	L1
TTP	68	0	7	B	0	L1
TTP	69	0	3	B	0	L1
TTP	69	0	4	B	0	L1
TTP	70	0	5	B	0	L1
TTP	70	0	6	B	0	L1
TTP	71	0	0	B	0	L1
TTP	71	0	7	B	0	L1
TTP	72	0	1	B	0	L1
TTP	72	0	2	B	0	L1
THO	73	0	0	384	C	1	L1
STR	75	0	0
SI_	75	0	0	96	192	3
SI_	75	0	0	96	192	5
HLD	76	0	4	192
STR	77	0	4
SI_	77	0	4	96	192	1
SI_	77	0	4	96	192	7
HLD	78	0	0	192
STR	79	0	1
SI_	79	0	1	96	192	4
SI_	79	0	1	96	192	6
HLD	80	0	5	192
STR	81	0	3
SI_	81	0	3	96	192	0
STR	81	0	4
SI_	81	0	4	96	192	7
HLD	82	0	1	384
HLD	82	0	6	384
BRK	83	192	0
BRK	83	288	0
TAP	84	0	6
TAP	84	0	7
TAP	84	96	0
TAP	84	192	1
TAP	84	192	3
TAP	84	288	2
TAP	85	0	4
TAP	85	0	5
TAP	85	96	3
TAP	85	96	6
XTP	85	192	2
XTP	85	192	7
TAP	86	0	1
TAP	86	48	1
TAP	86	96	1
TAP	86	192	7
TAP	86	240	7
TAP	86	288	7
TAP	87	0	6
TAP	87	0	7
TAP	87	96	6
TAP	87	96	7
TAP	87	192	1
TAP	87	240	1
BRK	87	288	1
TAP	88	0	2
TAP	88	0	3
TAP	88	96	1
TAP	88	192	2
TAP	88	192	3
TAP	88	288	1
TAP	89	0	0
TAP	89	0	1
TAP	89	96	7
TAP	89	192	0
TAP	89	192	1
TAP	89	288	7
TAP	90	0	6
TAP	90	0	7
TAP	90	96	1
TAP	90	192	6
TAP	90	192	7
TAP	90	288	1
TAP	91	0	0
TAP	91	0	1
TAP	91	96	0
TAP	91	96	1
BRK	91	192	2
BRK	91	192	7
XHO	92	0	2	192
XTP	92	192	3
XHO	93	0	6	192
XTP	93	192	4
XHO	94	0	0	192
XTP	94	192	2
XST	95	0	3
SCL	95	0	3	96	192	0
XST	95	0	4
SCR	95	0	4	96	192	7
TAP	96	0	0
TAP	96	0	1
TAP	96	96	7
TAP	96	192	4
TAP	96	192	6
TAP	96	288	5
TAP	97	0	2
TAP	97	0	3
TAP	97	96	1
TAP	97	96	4
XTP	97	192	0
XTP	97	192	5
TAP	98	0	6
TAP	98	48	6
TAP	98	96	6
TAP	98	192	0
TAP	98	240	0
TAP	98	288	0
TAP	99	0	0
TAP	99	0	1
TAP	99	96	0
TAP	99	96	1
TAP	99	192	6
TAP	99	240	6
BRK	99	288	6
TAP	100	0	4
TAP	100	0	5
TAP	100	96	6
TAP	100	192	4
TAP	100	192	5
TAP	100	288	6
TAP	101	0	6
TAP	101	0	7
TAP	101	96	0
TAP	101	192	6
TAP	101	192	7
TAP	101	288	0
TAP	102	0	0
TAP	102	0	1
TAP	102	96	6
TAP	102	192	0
TAP	102	192	1
TAP	102	288	6
TAP	103	0	6
TAP	103	0	7
TAP	103	96	0
TAP	103	96	5
BRK	103	192	1
BRK	103	192	4
TAP	104	0	2
TAP	104	96	1
TAP	104	192	0
XTP	104	288	6
XTP	104	288	7
TAP	105	0	5
TAP	105	96	4
XTP	105	192	2
XTP	105	192	3
XTP	105	240	2
XTP	105	240	3
XTP	105	288	2
XTP	105	288	3
TAP	106	0	1
TAP	106	96	2
TAP	106	192	3
XTP	106	288	4
XTP	106	288	5
XTP	106	336	4
XTP	106	336	5
XTP	107	0	4
XTP	107	0	5
TAP	107	96	3
TAP	107	96	6
BRK	107	192	2
BRK	107	192	7
TAP	108	0	5
TAP	108	96	6
TAP	108	192	7
XTP	108	288	0
XTP	108	288	1
TAP	109	0	2
TAP	109	96	3
XTP	109	192	4
XTP	109	192	5
XTP	109	240	4
XTP	109	240	5
XTP	109	288	4
XTP	109	288	5
TAP	110	0	6
TAP	110	96	5
TAP	110	192	4
XTP	110	288	2
XTP	110	288	3
XTP	110	336	2
XTP	110	336	3
XTP	111	0	2
XTP	111	0	3
TAP	111	96	1
TAP	111	96	4
BRK	111	192	0
BRK	111	192	5
HLD	112	0	0	96
HLD	112	0	7	96
TAP	112	192	1
TAP	112	192	3
TAP	112	288	2
TAP	113	0	4
TAP	113	0	5
TAP	113	96	3
TAP	113	96	6
XTP	113	192	2
XTP	113	192	7
TAP	114	0	0
TAP	114	0	1
TAP	114	48	0
TAP	114	48	1
TAP	114	96	0
TAP	114	96	1
TAP	114	192	6
TAP	114	192	7
TAP	114	240	6
TAP	114	240	7
TAP	114	288	6
TAP	114	288	7
XTP	115	0	1
XTP	115	0	4
TAP	115	96	0
TAP	115	192	1
TAP	115	240	1
BRK	115	288	1
TAP	116	0	2
TAP	116	0	3
TAP	116	96	1
TAP	116	192	2
TAP	116	192	3
TAP	116	288	1
TAP	117	0	0
TAP	117	0	1
TAP	117	96	7
TAP	117	192	0
TAP	117	192	1
TAP	117	288	7
TAP	118	0	6
TAP	118	0	7
TAP	118	96	0
TAP	118	96	5
TAP	118	192	1
TAP	118	192	4
TAP	118	288	2
TAP	118	288	3
XHO	119	0	0	96
XHO	119	0	7	96
TAP	119	192	0
TAP	119	192	7
TAP	119	288	1
TAP	119	288	6
BRK	120	0	2
BRK	120	0	5

T_REC_TAP	292
T_REC_BRK	23
T_REC_XTP	50
T_REC_HLD	17
T_REC_XHO	5
T_REC_STR	9
T_REC_BST	0
T_REC_XST	2
T_REC_TTP	32
T_REC_THO	2
T_REC_SLD	14
T_REC_ALL	446
T_NUM_TAP	385
T_NUM_BRK	23
T_NUM_HLD	24
T_NUM_SLD	14
T_NUM_ALL	446
T_JUDGE_TAP	408
T_JUDGE_HLD	124
T_JUDGE_SLD	14
T_JUDGE_ALL	546
TTM_EACHPAIRS	104
TTM_SCR_TAP	192500
TTM_SCR_BRK	59800
TTM_SCR_HLD	24000
TTM_SCR_SLD	21000
TTM_SCR_ALL	297300
TTM_SCR_S	286150
TTM_SCR_SS	295000
TTM_RAT_ACV	10077

