VERSION	0.00.00	1.03.00
FES_MODE	0
BPM_DEF	215.000	215.000	215.000	215.000
MET_DEF	4	4
RESOLUTION	384
CLK_DEF	384
COMPATIBLE_CODE	MA2

BPM	0	0	215.000
MET	0	0	4	4

XTP	7	0	0
XTP	8	0	0
XTP	9	0	7
BRK	10	0	7
TAP	11	0	0
TAP	12	0	0
TAP	13	0	1
TAP	14	0	1
XTP	15	0	2
XTP	16	0	2
XTP	17	0	3
XTP	17	192	3
BRK	18	0	3
TAP	19	0	4
TAP	19	192	4
TAP	20	0	4
TAP	21	0	5
TAP	21	192	5
TAP	22	0	5
TAP	23	0	6
TAP	23	192	6
TAP	24	0	6
TAP	25	0	7
TAP	25	192	7
TAP	26	0	7
TAP	27	0	0
TAP	27	192	0
TAP	28	0	0
TAP	29	0	1
TAP	29	192	1
TAP	30	0	1
TAP	31	0	2
TAP	31	192	2
TAP	32	0	2
TAP	33	0	3
TAP	33	192	3
XTP	34	0	3
XTP	34	0	4
TAP	35	0	2
TAP	35	192	2
TAP	36	0	1
TAP	36	192	1
TAP	37	0	0
TAP	37	192	0
XTP	38	0	0
XTP	38	0	7
TAP	39	0	6
TAP	39	192	6
TAP	40	0	5
TAP	40	192	5
TAP	41	0	4
TAP	41	192	4
BRK	42	0	3
BRK	42	0	4
HLD	43	0	3	576
HLD	45	0	4	576
HLD	47	0	3	576
HLD	49	0	4	576
BRK	51	0	3
BRK	51	0	4
TAP	55	0	0
TAP	56	0	0
TAP	57	0	7
TAP	58	0	7
STR	59	0	0
SI_	59	0	0	96	288	3
STR	61	0	7
SI_	61	0	7	96	288	4
TTP	63	0	3	B	0	L1
TTP	64	0	2	B	0	L1
TTP	65	0	1	B	0	L1
TTP	66	0	0	B	0	L1
TTP	66	0	7	B	0	L1
TTP	67	0	6	B	0	L1
TTP	68	0	5	B	0	L1
TTP	69	0	4	B	0	L1
TTP	70	0	4	E	0	L1
TTP	71	0	3	B	0	L1
TTP	71	0	4	B	0	L1
TTP	72	0	2	B	0	L1
TTP	72	0	5	B	0	L1
THO	73	0	0	384	C	1	L1
XHO	75	0	7	384
XHO	77	0	0	384
TAP	79	0	7
TAP	79	192	7
TAP	80	0	6
TAP	80	0	7
TAP	81	0	0
TAP	81	192	0
TAP	82	0	0
TAP	82	0	1
TAP	84	0	0
TAP	84	96	0
TAP	84	192	0
TAP	85	0	1
TAP	85	96	1
TAP	85	192	1
TAP	86	0	2
TAP	86	96	2
TAP	86	192	2
TAP	87	0	3
TAP	87	96	3
TAP	87	192	3
TAP	88	0	4
TAP	88	96	4
TAP	88	192	4
TAP	89	0	5
TAP	89	96	5
TAP	89	192	5
TAP	90	0	6
TAP	90	96	6
TAP	90	192	6
XTP	91	0	0
XTP	91	0	7
HLD	92	0	7	192
HLD	93	0	0	192
HLD	94	0	7	192
XTP	95	0	1
XTP	95	0	6
TAP	96	0	6
TAP	96	96	6
TAP	96	192	6
TAP	97	0	5
TAP	97	96	5
TAP	97	192	5
TAP	98	0	4
TAP	98	96	4
TAP	98	192	4
XTP	99	0	3
XTP	99	96	4
XTP	99	192	3
TAP	100	0	2
TAP	100	96	2
TAP	100	192	2
TAP	101	0	1
TAP	101	96	1
TAP	101	192	1
TAP	102	0	0
TAP	102	96	0
TAP	102	192	0
XTP	103	0	7
XTP	103	96	0
BRK	103	192	7
TAP	104	0	0
TAP	104	96	0
TAP	104	192	0
TAP	104	288	0
TAP	105	0	1
TAP	105	96	1
TAP	105	192	1
TAP	105	288	1
TAP	106	0	2
TAP	106	96	2
TAP	106	192	2
TAP	106	288	2
XTP	107	0	3
XTP	107	96	4
XTP	107	192	3
TAP	108	0	4
TAP	108	96	4
TAP	108	192	4
TAP	108	288	4
TAP	109	0	5
TAP	109	96	5
TAP	109	192	5
TAP	109	288	5
TAP	110	0	6
TAP	110	96	6
TAP	110	192	6
TAP	110	288	6
XTP	111	0	7
XTP	111	96	0
BRK	111	192	7
TAP	112	0	6
TAP	112	96	6
TAP	112	192	5
TAP	112	288	5
TAP	113	0	4
TAP	113	96	4
TAP	113	192	3
TAP	113	288	3
TAP	114	0	2
TAP	114	96	2
TAP	114	192	1
TAP	114	288	1
TAP	115	0	0
TAP	115	96	0
XTP	115	192	0
XTP	115	192	7
TAP	116	0	0
TAP	116	96	0
TAP	116	192	1
TAP	116	288	1
TAP	117	0	2
TAP	117	96	2
TAP	117	192	3
TAP	117	288	3
STR	118	0	3
SI_	118	0	3	96	288	0
STR	118	0	4
SI_	118	0	4	96	288	7
XTP	120	0	1
XTP	120	0	6

T_REC_TAP	136
T_REC_BRK	8
T_REC_XTP	29
T_REC_HLD	7
T_REC_XHO	2
T_REC_STR	4
T_REC_BST	0
T_REC_XST	0
T_REC_TTP	13
T_REC_THO	1
T_REC_SLD	4
T_REC_ALL	204
T_NUM_TAP	182
T_NUM_BRK	8
T_NUM_HLD	10
T_NUM_SLD	4
T_NUM_ALL	204
T_JUDGE_TAP	190
T_JUDGE_HLD	84
T_JUDGE_SLD	4
T_JUDGE_ALL	278
TTM_EACHPAIRS	11
TTM_SCR_TAP	91000
TTM_SCR_BRK	20800
TTM_SCR_HLD	10000
TTM_SCR_SLD	6000
TTM_SCR_ALL	127800
TTM_SCR_S	123200
TTM_SCR_SS	127000
TTM_RAT_ACV	10062

