VERSION	0.00.00	1.03.00
FES_MODE	0
BPM_DEF	200.000	200.000	200.000	200.000
MET_DEF	4	4
RESOLUTION	384
CLK_DEF	384
COMPATIBLE_CODE	MA2

BPM	0	0	200.000
MET	0	0	4	4

THO	1	0	0	384	C	0	M1
TTP	1	0	1	B	0	M1
TTP	1	0	2	B	0	M1
TTP	1	0	5	B	0	M1
TTP	1	0	6	B	0	M1
TAP	2	288	4
HLD	3	0	5	672
TTP	3	288	0	C	0	M1
TTP	4	0	1	B	0	M1
TTP	4	0	2	B	0	M1
TAP	4	288	3
HLD	5	0	2	672
THO	5	144	0	240	C	0	M1
TAP	6	288	3
HLD	7	0	2	672
TAP	7	0	4
TTP	7	288	1	B	0	M1
TTP	7	288	2	B	0	M1
TTP	8	0	0	C	0	M1
TAP	8	288	4
TAP	9	0	3
HLD	9	0	5	576
THO	9	144	0	240	C	0	M1
XST	11	0	0
SCR	11	0	0	96	192	3
XTP	11	0	4
XTP	12	0	4
XST	12	0	7
SCR	12	0	7	96	192	4
XST	13	0	0
SCL	13	0	0	96	192	4
SCR	13	0	0	96	192	4
XTP	13	0	4
TAP	14	0	3
TAP	14	0	5
TAP	14	96	5
TAP	14	96	7
TAP	14	192	1
TAP	14	192	7
TAP	14	288	1
TAP	14	288	3
XHO	15	0	2	288
XTP	15	0	4
TAP	15	96	5
TAP	15	144	5
TAP	15	192	6
TAP	15	240	6
TAP	15	288	7
TAP	15	336	7
XTP	16	0	3
XHO	16	0	7	288
TAP	16	96	2
TAP	16	144	2
TAP	16	192	1
TAP	16	240	1
TAP	16	288	0
TAP	16	336	0
XTP	17	0	0
TAP	17	24	7
TAP	17	48	0
TAP	17	72	7
TAP	17	96	0
TAP	17	120	7
TAP	17	144	0
TAP	17	168	7
XTP	17	192	0
XTP	17	216	1
XTP	17	240	2
XTP	17	264	3
XTP	17	288	6
XTP	17	312	5
XTP	17	336	4
XTP	17	360	3
THO	18	0	0	96	C	0	M1
XTP	18	192	7
XTP	18	216	0
XTP	18	240	7
BST	18	288	1
SI_	18	288	1	96	48	4
BRK	18	288	6
XTP	19	0	4
TAP	19	96	5
TAP	19	144	4
TAP	19	192	3
TAP	19	192	6
TAP	19	240	2
TAP	19	288	0
HLD	19	288	1	96
TAP	20	0	3
TAP	20	48	2
TAP	20	48	4
TAP	20	96	5
TAP	20	144	4
TAP	20	144	6
TAP	20	192	7
TAP	20	240	0
TAP	20	240	6
STR	20	288	1
SCR	20	288	1	96	48	4
TAP	20	288	5
XTP	21	0	4
TAP	21	96	5
TAP	21	144	4
TAP	21	144	6
TAP	21	192	3
TAP	21	216	4
TAP	21	240	3
XTP	21	288	2
XTP	21	288	5
TTP	22	0	3	E	0	M1
TTP	22	0	3	B	0	M1
TTP	22	0	4	B	0	M1
TTP	22	0	5	E	0	M1
TTP	22	96	0	C	0	M1
TTP	22	96	2	E	0	M1
TTP	22	96	6	E	0	M1
TTP	22	192	0	B	0	M1
TTP	22	192	1	E	0	M1
TTP	22	192	7	B	0	M1
TTP	22	192	7	E	0	M1
XTP	22	288	0
XST	22	288	7
SI_	22	288	7	96	48	3
XTP	23	0	3
TAP	23	96	2
TAP	23	144	3
TAP	23	192	1
TAP	23	192	4
TAP	23	240	5
HLD	23	288	6	96
TAP	23	288	7
TAP	24	0	4
TAP	24	48	3
TAP	24	48	5
TAP	24	96	2
TAP	24	144	1
TAP	24	144	3
TAP	24	192	0
TAP	24	240	1
TAP	24	240	7
TAP	24	288	2
STR	24	288	6
SCL	24	288	6	96	48	3
XTP	25	0	3
TAP	25	96	2
TAP	25	144	1
TAP	25	144	4
TAP	25	192	6
TAP	25	216	7
TAP	25	240	6
XTP	25	288	0
XTP	25	288	5
TTP	26	0	0	B	0	M1
TTP	26	0	1	E	0	M1
TTP	26	0	7	E	0	M1
TTP	26	0	7	B	0	M1
TTP	26	96	0	C	0	M1
TTP	26	96	2	E	0	M1
TTP	26	96	6	E	0	M1
TTP	26	192	3	B	0	M1
TTP	26	192	3	E	0	M1
TTP	26	192	4	B	0	M1
TTP	26	192	5	E	0	M1
XTP	26	288	3
XTP	26	288	4
STR	27	0	2
SI_	27	0	2	96	48	5
BST	27	0	7
SI_	27	0	7	96	48	4
TAP	27	48	2
TAP	27	48	7
TAP	27	192	1
TAP	27	240	0
TAP	27	288	2
TAP	27	288	7
BST	28	0	1
SI_	28	0	1	96	48	4
STR	28	0	6
SI_	28	0	6	96	48	3
TAP	28	48	1
TAP	28	48	6
TAP	28	192	7
TAP	28	240	0
TAP	28	288	1
TAP	28	288	6
BST	29	0	0
SI_	29	0	0	96	48	3
BST	29	0	5
SI_	29	0	5	96	48	2
TAP	29	48	0
TAP	29	48	5
TAP	29	192	6
TAP	29	240	7
TAP	29	288	0
TAP	29	288	5
TTP	30	0	2	B	0	M1
TTP	30	0	2	E	0	M1
TTP	30	0	3	B	0	M1
TTP	30	0	4	E	0	M1
TTP	30	96	0	C	0	M1
TTP	30	96	1	E	0	M1
TTP	30	96	5	E	0	M1
TTP	30	192	0	E	0	M1
TTP	30	192	6	B	0	M1
TTP	30	192	6	E	0	M1
TTP	30	192	7	B	0	M1
XTP	30	288	6
XTP	30	288	7
BST	31	0	2
SI_	31	0	2	96	48	5
STR	31	0	4
SI_	31	0	4	96	48	7
TAP	31	48	2
TAP	31	48	4
TAP	31	192	6
TAP	31	240	5
TAP	31	288	0
TAP	31	288	4
STR	32	0	1
SI_	32	0	1	96	48	4
BST	32	0	3
SI_	32	0	3	96	48	6
TAP	32	48	1
TAP	32	48	3
TAP	32	192	3
TAP	32	240	2
TAP	32	288	1
TAP	32	288	7
BST	33	0	3
SI_	33	0	3	96	48	0
BST	33	0	5
SI_	33	0	5	96	48	2
TAP	33	48	3
TAP	33	48	5
TAP	33	192	1
TAP	33	240	2
TAP	33	288	3
TAP	33	288	6
TTP	34	0	0	E	0	M1
TTP	34	0	6	B	0	M1
TTP	34	0	6	E	0	M1
TTP	34	0	7	B	0	M1
TTP	34	96	0	C	0	M1
TTP	34	96	1	E	0	M1
TTP	34	96	5	E	0	M1
TTP	34	192	2	E	0	M1
TTP	34	192	2	B	0	M1
TTP	34	192	3	B	0	M1
TTP	34	192	4	E	0	M1
XTP	34	288	2
XTP	34	288	3
BRK	35	0	3
TAP	35	0	5
TAP	35	96	1
XTP	35	96	3
XTP	35	192	3
TAP	35	192	6
TAP	35	288	2
XTP	35	288	3
XTP	36	0	3
TAP	36	48	3
XTP	36	96	5
TAP	36	144	5
XTP	36	192	3
TAP	36	240	3
XTP	36	288	6
TAP	36	336	6
XTP	37	0	3
TAP	37	24	7
TAP	37	48	3
TAP	37	72	7
XTP	37	96	2
TAP	37	120	6
TAP	37	144	2
TAP	37	168	6
XTP	37	192	1
TAP	37	216	5
TAP	37	240	1
TAP	37	264	5
XTP	37	288	7
TAP	38	0	4
TAP	38	0	6
TTP	38	96	1	B	0	M1
TTP	38	96	2	E	0	M1
TTP	38	96	5	B	0	M1
TTP	38	96	6	E	0	M1
STR	38	192	0
SF_	38	192	0	96	48	4
TAP	38	192	2
BRK	38	288	0
XTP	39	0	1
XTP	39	0	6
TTP	39	96	2	E	0	M1
TTP	39	144	1	E	0	M1
TTP	39	192	6	B	0	M1
TTP	39	192	7	E	0	M1
TTP	39	288	0	C	0	M1
TTP	39	288	1	B	0	M1
TTP	39	288	5	B	0	M1
TAP	40	0	7
HLD	40	48	7	96
TAP	40	96	6
HLD	40	144	6	96
TAP	40	192	5
HLD	40	240	5	96
TAP	40	288	4
TAP	40	336	4
XTP	41	0	3
XTP	41	0	6
TTP	41	96	2	E	0	M1
TTP	41	144	1	E	0	M1
TTP	41	192	7	E	0	M1
TTP	41	240	6	E	0	M1
TTP	41	288	0	C	0	M1
TTP	41	288	3	B	0	M1
TTP	41	288	4	B	0	M1
STR	42	0	0
SI_	42	0	0	96	48	4
STR	42	48	6
SI_	42	48	6	96	48	2
XTP	42	192	3
XTP	42	288	1
XTP	42	288	5
XTP	43	0	0
XTP	43	0	7
TTP	43	96	6	E	0	M1
TTP	43	144	7	E	0	M1
TTP	43	192	1	E	0	M1
TTP	43	192	1	B	0	M1
TTP	43	288	0	C	0	M1
TTP	43	288	2	B	0	M1
TTP	43	288	6	B	0	M1
TAP	44	0	0
HLD	44	48	0	96
TAP	44	96	1
HLD	44	144	1	96
TAP	44	192	2
HLD	44	240	2	96
TAP	44	288	3
TAP	44	336	3
XTP	45	0	1
XTP	45	0	4
TTP	45	96	4	B	0	M1
TTP	45	96	5	E	0	M1
TTP	45	144	0	B	0	M1
TTP	45	144	1	E	0	M1
TTP	45	192	6	B	0	M1
TTP	45	192	7	E	0	M1
TTP	45	240	2	B	0	M1
TTP	45	240	3	E	0	M1
TTP	45	288	0	E	0	M1
TTP	45	336	4	E	0	M1
THO	46	0	0	192	C	0	M1
BRK	46	288	0
BRK	46	288	7
TAP	47	0	5
TAP	47	48	3
TAP	47	48	6
TAP	47	96	2
TAP	47	144	1
TAP	47	144	4
TAP	47	192	5
TAP	47	240	3
TAP	47	240	6
HLD	47	288	7	96
TTP	48	0	3	E	0	M1
TTP	48	48	0	B	0	M1
TTP	48	48	1	E	0	M1
TTP	48	96	5	E	0	M1
TTP	48	144	7	B	0	M1
TTP	48	144	7	E	0	M1
TTP	48	192	1	B	0	M1
TTP	48	192	2	B	0	M1
TTP	48	240	0	C	0	M1
TTP	48	288	5	B	0	M1
TTP	48	288	6	B	0	M1
XTP	49	0	0
XTP	49	0	7
TAP	49	96	0
TAP	49	144	1
TAP	49	144	3
TAP	49	192	7
TAP	49	240	4
TAP	49	240	6
XTP	49	288	3
XTP	49	288	4
TTP	50	0	5	E	0	M1
TTP	50	48	7	B	0	M1
TTP	50	48	7	E	0	M1
TTP	50	96	3	E	0	M1
TTP	50	144	0	B	0	M1
TTP	50	144	1	E	0	M1
TTP	50	192	0	C	0	M1
BST	50	288	1
SI_	50	288	1	96	48	5
BST	50	288	6
SI_	50	288	6	96	48	0
TAP	51	96	4
TAP	51	144	3
TAP	51	192	1
TAP	51	192	5
TAP	51	240	0
TAP	51	288	6
TAP	51	336	4
TTP	52	0	3	B	0	M1
TTP	52	48	1	B	0	M1
TTP	52	48	2	E	0	M1
TTP	52	96	4	B	0	M1
TTP	52	144	6	E	0	M1
TTP	52	144	6	B	0	M1
TTP	52	192	3	E	0	M1
TTP	52	240	0	B	0	M1
TTP	52	240	1	E	0	M1
TTP	52	288	5	E	0	M1
TTP	52	336	7	B	0	M1
TTP	52	336	7	E	0	M1
TAP	53	0	3
TAP	53	24	5
TAP	53	48	3
TAP	53	72	5
TAP	53	96	1
TAP	53	120	7
TAP	53	144	1
TAP	53	168	7
XTP	53	192	0
XTP	53	224	1
XTP	53	240	2
XTP	53	252	3
XTP	53	288	7
XTP	53	320	6
XTP	53	336	5
XTP	53	352	4
THO	54	0	0	192	C	1	M1
STR	55	0	0
SXR	55	0	0	96	576	5
TAP	55	0	1
TAP	56	0	2
STR	57	0	3
SXR	57	0	3	96	576	0
TAP	57	0	4
TAP	58	0	5
STR	59	0	6
SXR	59	0	6	96	576	3
TAP	59	0	7
TAP	60	0	0
HLD	61	0	2	384
STR	61	0	4
SCR	61	0	4	96	192	7
TAP	62	0	6
TAP	62	192	2
TAP	62	192	4
TAP	63	0	3
TAP	63	0	5
TAP	63	48	4
TAP	63	96	1
TAP	63	96	4
TAP	63	144	3
TAP	63	192	3
TAP	63	192	6
TAP	63	240	4
TAP	63	288	0
TAP	63	288	4
TAP	63	336	0
TAP	63	336	4
XTP	64	0	0
XTP	64	12	1
XTP	64	24	2
XTP	64	36	3
XTP	64	48	4
XTP	64	60	5
XTP	64	72	6
XTP	64	84	7
TTP	64	96	0	E	0	M1
TTP	64	108	1	E	0	M1
TTP	64	120	2	E	0	M1
TTP	64	132	3	E	0	M1
TTP	64	144	4	E	0	M1
TTP	64	156	5	E	0	M1
TTP	64	168	6	E	0	M1
TTP	64	180	7	E	0	M1
TTP	64	192	0	E	0	M1
XTP	64	288	0
XTP	64	288	7
BRK	65	0	1
BRK	65	0	6
TAP	65	48	2
TAP	65	72	3
TAP	65	96	1
TAP	65	144	1
TAP	65	144	3
STR	65	192	1
SI_	65	192	1	96	48	4
TAP	65	216	0
TAP	65	264	0
TAP	65	288	1
TAP	65	336	6
TAP	66	0	3
TAP	66	0	6
TAP	66	48	5
TAP	66	72	4
STR	66	96	6
SI_	66	96	6	96	48	2
TAP	66	144	6
TAP	66	192	0
TAP	66	240	0
XTP	66	288	1
XTP	66	288	4
XTP	67	0	3
XTP	67	0	5
TAP	67	48	2
TAP	67	72	3
TAP	67	96	1
TAP	67	144	0
TAP	67	144	7
XHO	67	192	6	72
XTP	67	192	7
XHO	67	264	5	72
XTP	67	336	4
STR	68	0	3
SI_	68	0	3	96	48	7
TAP	68	48	3
STR	68	96	6
SCL	68	96	6	96	48	3
TAP	68	144	6
TAP	68	192	0
TAP	68	240	1
XTP	68	288	2
XTP	68	288	7
XTP	69	0	1
XTP	69	0	6
TAP	69	48	2
TAP	69	72	3
TAP	69	96	2
TAP	69	144	3
TAP	69	144	6
STR	69	192	6
SI_	69	192	6	96	48	3
TAP	69	216	7
TAP	69	264	7
TAP	69	288	6
TAP	69	336	0
XTP	70	0	1
XTP	70	0	4
XTP	70	72	3
XTP	70	72	6
XTP	70	144	3
XTP	70	144	4
TAP	70	192	2
TAP	70	216	3
TAP	70	240	2
TAP	70	264	3
BRK	70	288	0
XTP	71	0	1
XTP	71	0	4
TAP	71	48	5
TAP	71	72	4
TAP	71	96	6
TAP	71	144	0
TAP	71	144	7
XTP	71	192	0
XHO	71	192	1	72
XHO	71	264	2	72
XTP	71	336	3
STR	72	0	4
SI_	72	0	4	96	48	0
TAP	72	48	4
STR	72	96	1
SCR	72	96	1	96	48	4
TAP	72	144	1
TAP	72	192	7
TAP	72	240	6
XTP	72	288	0
XTP	72	288	5
BRK	73	0	0
BRK	73	0	7
TAP	73	48	6
TAP	73	72	4
TAP	73	96	5
TAP	73	144	2
TAP	73	144	3
TAP	73	192	1
TAP	73	216	0
TAP	73	264	0
TAP	73	288	2
TAP	73	336	2
TAP	73	336	7
TAP	74	0	3
TAP	74	0	4
TAP	74	48	5
TAP	74	72	4
TAP	74	96	6
TAP	74	144	1
TAP	74	144	6
XTP	74	192	2
XTP	74	224	2
XTP	74	256	3
XTP	74	288	1
XTP	74	288	4
XTP	75	0	3
XTP	75	0	6
TAP	75	48	5
TAP	75	72	4
TAP	75	96	6
TAP	75	144	6
TAP	75	144	7
TAP	75	192	0
TAP	75	192	5
TAP	75	240	2
TAP	75	264	3
TAP	75	288	1
TAP	75	336	0
TAP	75	336	7
XST	76	0	6
SI_	76	0	6	96	48	3
XST	76	0	7
SI_	76	0	7	96	48	3
XTP	76	96	6
XTP	76	96	7
TAP	76	192	2
TAP	76	192	4
TAP	76	240	2
TAP	76	240	4
BRK	76	288	0
BRK	76	288	6
XTP	77	0	5
TAP	77	48	4
TAP	77	96	3
TAP	77	96	6
TAP	77	144	5
XTP	77	192	2
TAP	77	240	3
TAP	77	288	1
TAP	77	288	7
TAP	77	336	1
TAP	77	336	7
XTP	78	0	1
TAP	78	24	3
TAP	78	48	2
TAP	78	72	4
XTP	78	96	3
TAP	78	120	5
TAP	78	144	4
TAP	78	168	6
XTP	78	192	0
TAP	78	216	7
TAP	78	240	0
BRK	78	288	1
BRK	78	288	6
STR	79	0	5
SCL	79	0	5	96	48	2
TAP	79	96	2
HLD	79	144	1	96
TAP	79	240	0
TAP	79	288	2
TAP	79	288	7
STR	80	0	1
SCL	80	0	1	96	48	6
TAP	80	96	6
HLD	80	144	5	96
TAP	80	240	4
TAP	80	288	3
TAP	80	288	6
STR	81	0	7
SI_	81	0	7	96	48	3
TAP	81	96	3
STR	81	144	2
SCL	81	144	2	96	48	7
TAP	81	240	6
XTP	81	288	6
TTP	82	0	5	E	0	M1
TTP	82	48	6	E	0	M1
TTP	82	96	7	E	0	M1
TTP	82	96	7	B	0	M1
TTP	82	144	1	E	0	M1
TTP	82	192	2	E	0	M1
TTP	82	240	3	E	0	M1
TTP	82	240	3	B	0	M1
TTP	82	288	0	C	0	M1
TAP	83	0	1
HLD	83	0	6	96
TAP	83	96	7
TAP	83	144	0
STR	83	144	5
SI_	83	144	5	96	48	0
TAP	83	240	2
XTP	83	288	2
HLD	84	0	1	96
TAP	84	0	3
TAP	84	96	0
TAP	84	144	2
STR	84	144	7
SI_	84	144	7	96	48	3
TAP	84	240	1
TAP	84	288	1
TAP	85	0	0
TAP	85	48	1
TAP	85	48	3
TAP	85	96	2
TAP	85	144	3
TAP	85	144	5
TAP	85	192	6
TAP	85	240	0
TAP	85	240	7
XST	85	288	0
SI_	85	288	0	96	48	3
XST	85	288	1
SI_	85	288	1	96	48	4
XTP	86	0	0
XTP	86	0	1
TAP	86	192	5
TAP	86	216	4
TAP	86	240	5
BRK	86	288	0
STR	87	0	2
SI_	87	0	2	96	48	6
TAP	87	0	3
TAP	87	96	6
STR	87	144	5
SCL	87	144	5	96	48	2
TAP	87	240	0
TAP	87	288	0
STR	88	0	1
SCL	88	0	1	96	48	6
TAP	88	0	3
TAP	88	96	6
STR	88	144	5
SI_	88	144	5	96	48	1
TAP	88	240	2
TAP	88	288	2
STR	89	0	3
SI_	89	0	3	96	48	7
TAP	89	0	4
TAP	89	96	7
STR	89	144	6
SCL	89	144	6	96	48	3
TAP	89	240	2
XTP	89	288	2
TTP	90	0	1	E	0	M1
TTP	90	48	2	E	0	M1
TTP	90	96	3	B	0	M1
TTP	90	96	3	E	0	M1
TTP	90	144	5	E	0	M1
TTP	90	192	6	E	0	M1
TTP	90	240	7	E	0	M1
TTP	90	240	7	B	0	M1
TTP	90	288	0	C	0	M1
XST	91	0	5
SI_	91	0	5	96	48	3
TAP	91	48	5
TAP	91	96	0
TAP	91	144	0
XST	91	192	1
SI_	91	192	1	96	48	5
TAP	91	240	1
TAP	91	288	5
TAP	91	336	6
XST	92	0	7
SI_	92	0	7	96	48	3
TAP	92	48	7
XST	92	96	0
SI_	92	96	0	96	48	4
TAP	92	144	0
XST	92	192	7
SI_	92	192	7	96	48	3
TAP	92	240	7
XTP	92	288	0
TAP	92	336	0
TAP	93	0	0
TAP	93	24	7
TAP	93	48	0
TAP	93	72	7
TAP	93	96	1
TAP	93	120	6
TAP	93	144	1
TAP	93	168	6
TAP	93	192	2
TAP	93	216	5
TAP	93	240	2
TAP	93	264	5
TAP	93	288	3
TAP	93	312	4
TAP	93	336	3
TAP	93	360	4
XTP	94	0	3
XTP	94	12	2
XTP	94	24	1
XTP	94	36	0
XTP	94	48	7
XTP	94	60	6
XTP	94	72	5
XTP	94	84	4
XTP	94	96	3
XTP	94	108	2
XTP	94	120	1
XTP	94	132	0
XTP	94	144	7
XTP	94	156	6
XTP	94	168	5
XTP	94	180	4
TTP	94	192	4	E	0	M1
TTP	94	204	3	E	0	M1
TTP	94	216	2	E	0	M1
TTP	94	228	1	E	0	M1
TTP	94	240	0	E	0	M1
TTP	94	252	7	E	0	M1
TTP	94	264	6	E	0	M1
TTP	94	276	5	E	0	M1
TTP	94	288	4	E	0	M1
XTP	95	0	0
XST	95	0	7
SCL	95	0	7	96	192	4
XST	96	0	0
SCL	96	0	0	96	192	3
XTP	96	0	3
XTP	97	0	3
XST	97	0	7
SCL	97	0	7	96	192	3
SCR	97	0	7	96	192	3
TAP	98	0	1
TAP	98	0	3
TAP	98	96	1
TAP	98	96	7
TAP	98	192	5
TAP	98	192	7
TAP	98	288	3
TAP	98	288	5
XTP	99	0	0
XST	99	0	4
SI_	99	0	4	96	144	0
TAP	99	96	1
TAP	99	144	1
TAP	99	192	2
TAP	99	240	2
TAP	99	288	3
TAP	99	336	3
XST	100	0	3
SI_	100	0	3	96	144	7
XTP	100	0	7
TAP	100	96	6
TAP	100	144	6
TAP	100	192	5
TAP	100	240	5
TAP	100	288	4
TAP	100	336	4
XTP	101	0	5
TAP	101	24	3
TAP	101	48	5
TAP	101	72	3
XTP	101	96	4
TAP	101	120	2
TAP	101	144	4
TAP	101	168	2
XTP	101	192	4
TAP	101	216	5
TAP	101	240	6
TAP	101	264	7
XTP	101	288	2
TAP	101	312	1
TAP	101	336	0
TAP	101	360	7
THO	102	0	0	96	C	0	M1
XTP	102	192	0
XTP	102	192	7
TAP	102	208	1
TAP	102	208	6
TAP	102	224	2
TAP	102	224	5
TAP	102	240	3
TAP	102	240	4
BRK	102	288	1
BRK	102	288	6

T_REC_TAP	399
T_REC_BRK	17
T_REC_XTP	145
T_REC_HLD	18
T_REC_XHO	6
T_REC_STR	32
T_REC_BST	11
T_REC_XST	18
T_REC_TTP	155
T_REC_THO	7
T_REC_SLD	63
T_REC_ALL	871
T_NUM_TAP	749
T_NUM_BRK	28
T_NUM_HLD	31
T_NUM_SLD	63
T_NUM_ALL	871
T_JUDGE_TAP	777
T_JUDGE_HLD	138
T_JUDGE_SLD	63
T_JUDGE_ALL	978
TTM_EACHPAIRS	146
TTM_SCR_TAP	374500
TTM_SCR_BRK	72800
TTM_SCR_HLD	31000
TTM_SCR_SLD	94500
TTM_SCR_ALL	572800
TTM_SCR_S	552900
TTM_SCR_SS	570000
TTM_RAT_ACV	10049

