VERSION	0.00.00	1.03.00
FES_MODE	0
BPM_DEF	200.000	200.000	200.000	200.000
MET_DEF	4	4
RESOLUTION	384
CLK_DEF	384
COMPATIBLE_CODE	MA2

BPM	0	0	200.000
MET	0	0	4	4

HLD	3	0	2	768
TAP	3	0	4
TAP	3	192	3
TAP	4	96	4
TAP	4	192	4
HLD	5	0	5	768
TAP	5	192	4
TAP	6	96	3
TAP	6	192	3
HLD	7	0	3	768
TAP	7	192	2
TAP	8	96	2
TAP	8	192	2
HLD	9	0	4	576
TAP	9	192	5
TAP	10	96	5
TAP	10	192	5
TTP	11	0	0	C	0	M1
TTP	11	0	4	B	0	M1
TTP	11	0	5	B	0	M1
TTP	11	0	5	E	0	M1
TTP	11	0	6	B	0	M1
HLD	11	192	0	96
HLD	11	192	7	96
TTP	12	0	0	C	0	M1
TTP	12	0	1	B	0	M1
TTP	12	0	2	B	0	M1
TTP	12	0	3	E	0	M1
TTP	12	0	3	B	0	M1
HLD	12	192	0	96
HLD	12	192	7	96
TTP	13	0	0	C	0	M1
TTP	13	0	4	B	0	M1
TTP	13	0	5	B	0	M1
TTP	13	0	5	E	0	M1
TTP	13	0	6	B	0	M1
HLD	13	192	0	96
HLD	13	192	7	96
TAP	14	0	1
TAP	14	48	1
TAP	14	96	3
TAP	14	192	6
TAP	14	240	6
TAP	14	288	4
TTP	15	0	0	C	0	M1
TTP	15	0	1	B	0	M1
TTP	15	0	2	B	0	M1
TTP	15	0	3	B	0	M1
TTP	15	0	3	E	0	M1
TAP	15	192	0
TAP	15	192	7
TAP	15	288	0
TAP	15	288	7
TTP	16	0	0	C	0	M1
TTP	16	0	4	B	0	M1
TTP	16	0	5	B	0	M1
TTP	16	0	5	E	0	M1
TTP	16	0	6	B	0	M1
TAP	16	192	0
TAP	16	192	7
TAP	16	288	0
TAP	16	288	7
TTP	17	0	1	B	0	M1
TTP	17	0	2	B	0	M1
TTP	17	0	2	E	0	M1
TTP	17	0	3	B	0	M1
TTP	17	0	3	E	0	M1
TTP	17	192	4	B	0	M1
TTP	17	192	5	B	0	M1
TTP	17	192	5	E	0	M1
TTP	17	192	6	B	0	M1
TTP	17	192	6	E	0	M1
THO	18	0	0	288	C	1	M1
TAP	19	0	6
TAP	19	48	6
TAP	19	96	7
TAP	19	192	0
HLD	19	192	1	96
TAP	19	288	3
TAP	20	0	1
TAP	20	48	1
TAP	20	96	0
HLD	20	192	6	96
TAP	20	192	7
TAP	20	288	4
TAP	21	0	6
TAP	21	48	6
TAP	21	96	7
HLD	21	192	1	96
HLD	21	192	6	96
TTP	22	0	7	E	0	M1
TTP	22	0	7	B	0	M1
TTP	22	96	1	B	0	M1
TTP	22	96	1	E	0	M1
TTP	22	192	5	B	0	M1
TTP	22	192	5	E	0	M1
TTP	22	288	3	E	0	M1
TTP	22	288	3	B	0	M1
TAP	23	0	6
TAP	23	48	6
TAP	23	96	4
HLD	23	192	2	96
TAP	23	192	3
TAP	23	288	0
TAP	24	0	1
TAP	24	48	1
TAP	24	96	3
TAP	24	192	4
HLD	24	192	5	96
TAP	24	288	7
TAP	25	0	6
TAP	25	48	6
TAP	25	96	4
HLD	25	192	1	96
HLD	25	192	6	96
TTP	26	0	2	B	0	M1
TTP	26	0	3	E	0	M1
TTP	26	96	4	B	0	M1
TTP	26	96	5	E	0	M1
TTP	26	192	0	B	0	M1
TTP	26	192	1	E	0	M1
TTP	26	288	6	B	0	M1
TTP	26	288	7	E	0	M1
STR	27	0	1
SI_	27	0	1	96	48	3
TAP	27	0	7
TAP	27	192	4
HLD	27	192	5	96
TAP	27	288	3
TAP	28	0	0
STR	28	0	6
SI_	28	0	6	96	48	4
HLD	28	192	2	96
TAP	28	192	3
TAP	28	288	4
STR	29	0	1
SI_	29	0	1	96	48	3
TAP	29	0	7
HLD	29	192	1	96
HLD	29	192	6	96
TTP	30	0	6	E	0	M1
TTP	30	0	7	E	0	M1
TTP	30	96	1	E	0	M1
TTP	30	96	2	E	0	M1
TTP	30	192	3	E	0	M1
TTP	30	192	4	E	0	M1
TTP	30	192	5	E	0	M1
TTP	30	288	0	C	0	M1
TTP	30	288	1	B	0	M1
TTP	30	288	6	B	0	M1
TAP	31	0	0
STR	31	0	7
SI_	31	0	7	96	48	5
HLD	31	192	2	96
TAP	31	192	3
TAP	31	288	0
STR	32	0	0
SI_	32	0	0	96	48	2
TAP	32	0	7
TAP	32	192	4
HLD	32	192	5	96
TAP	32	288	7
TAP	33	0	0
STR	33	0	7
SI_	33	0	7	96	48	5
HLD	33	192	1	96
HLD	33	192	6	96
TTP	34	0	5	E	0	M1
TTP	34	0	6	E	0	M1
TTP	34	96	2	E	0	M1
TTP	34	96	3	E	0	M1
TTP	34	192	0	E	0	M1
TTP	34	192	1	E	0	M1
TTP	34	192	7	E	0	M1
TTP	34	288	0	C	0	M1
TTP	34	288	2	B	0	M1
TTP	34	288	5	B	0	M1
HLD	35	0	3	96
HLD	35	0	4	96
TAP	35	192	3
TAP	35	192	4
TAP	35	288	2
TAP	35	288	5
HLD	36	0	6	96
HLD	36	96	7	96
HLD	36	192	0	96
HLD	36	288	1	96
HLD	37	0	2	96
HLD	37	96	3	96
HLD	37	192	4	96
STR	37	288	5
SUR	37	288	5	96	192	2
STR	38	192	7
SI_	38	192	7	96	48	3
TAP	39	0	2
TAP	39	0	4
TAP	39	96	3
TAP	39	144	5
HLD	39	192	5	96
TAP	39	288	4
TAP	40	0	3
TAP	40	0	6
TAP	40	48	6
TAP	40	96	6
TAP	40	144	6
TAP	40	192	6
TAP	40	240	6
TAP	40	288	4
TAP	40	288	6
TAP	41	0	3
TAP	41	0	5
TAP	41	96	4
TAP	41	144	2
HLD	41	192	2	96
TAP	41	288	3
TAP	42	0	1
TAP	42	0	4
TAP	42	48	1
TAP	42	96	1
TAP	42	144	1
TAP	42	192	1
TAP	42	240	1
TAP	42	288	1
TAP	42	288	3
TAP	43	0	2
TAP	43	0	4
TAP	43	96	3
TAP	43	144	5
HLD	43	192	5	96
TAP	43	288	4
TAP	44	0	3
TAP	44	0	6
TAP	44	48	6
TAP	44	96	6
TAP	44	144	6
TAP	44	192	6
TAP	44	240	6
TAP	44	288	4
TAP	44	288	6
TAP	45	0	3
TAP	45	0	5
TAP	45	96	4
TAP	45	144	2
HLD	45	192	2	96
TAP	45	288	3
TAP	46	0	1
TAP	46	0	6
TAP	46	48	1
TAP	46	48	6
TAP	46	96	1
TAP	46	96	6
BRK	46	192	0
BRK	46	192	7
TAP	47	0	4
TAP	47	0	5
TAP	47	96	7
TAP	47	192	2
TAP	47	192	3
TAP	47	288	0
XTP	48	0	4
XTP	48	0	6
TAP	48	48	6
TAP	48	96	6
TAP	48	144	6
XTP	48	192	6
XTP	48	192	7
TAP	48	240	6
TAP	48	288	6
XTP	48	288	7
TAP	49	0	2
TAP	49	0	3
TAP	49	96	0
TAP	49	192	4
TAP	49	192	5
TAP	49	288	7
XTP	50	0	1
XTP	50	0	3
TAP	50	48	1
TAP	50	96	1
TAP	50	144	1
XTP	50	192	0
XTP	50	192	1
TAP	50	240	1
XTP	50	288	0
TAP	50	288	1
TAP	51	0	5
TAP	51	96	4
TAP	51	96	7
TAP	51	192	2
TAP	51	288	0
TAP	51	288	3
XTP	52	0	4
XTP	52	0	6
TAP	52	48	6
TAP	52	96	6
TAP	52	144	6
XTP	52	192	6
XTP	52	192	7
TAP	52	240	6
TAP	52	288	6
XTP	52	288	7
XTP	53	0	1
XTP	53	48	2
XTP	53	96	3
XTP	53	144	4
XTP	53	192	5
XTP	53	240	6
STR	53	288	7
SXL	53	288	7	96	288	3
SXR	53	288	7	96	288	3
HLD	55	0	2	672
HLD	55	0	4	192
STR	56	0	3
SCR	56	0	3	96	192	6
HLD	57	0	3	192
HLD	57	0	5	672
STR	58	0	4
SCL	58	0	4	96	192	1
HLD	59	0	2	672
HLD	59	0	4	192
STR	60	0	3
SCR	60	0	3	96	192	6
HLD	61	0	3	192
HLD	61	0	5	384
STR	62	0	4
SCR	62	0	4	96	192	1
HLD	63	0	5	96
HLD	63	96	7	96
HLD	63	192	0	96
HLD	63	288	2	96
TAP	64	0	3
TAP	64	96	4
TAP	64	96	5
HLD	64	192	1	96
HLD	64	192	6	96
TTP	65	0	2	E	0	M1
TTP	65	0	6	E	0	M1
TTP	65	96	0	B	0	M1
TTP	65	144	4	B	0	M1
TTP	65	192	2	B	0	M1
TTP	65	240	6	B	0	M1
TTP	65	288	0	C	0	M1
TTP	66	0	0	B	0	M1
TTP	66	0	1	E	0	M1
TTP	66	0	7	B	0	M1
TTP	66	96	3	B	0	M1
TTP	66	96	4	B	0	M1
TTP	66	96	5	E	0	M1
TTP	66	192	0	C	1	M1
TTP	66	192	2	B	0	M1
TTP	66	192	6	B	0	M1
TAP	67	0	0
TAP	67	0	7
TAP	67	96	1
TAP	67	144	1
TAP	67	192	3
TAP	67	240	3
TAP	67	288	4
TAP	67	336	4
TAP	68	0	6
TAP	68	48	6
TAP	68	96	0
TAP	68	96	7
TAP	68	192	3
TAP	68	192	4
BRK	68	288	1
BRK	68	288	6
TTP	69	0	0	C	0	M1
TTP	69	0	3	B	0	M1
TTP	69	0	4	B	0	M1
TTP	69	96	7	B	0	M1
TTP	69	144	2	B	0	M1
TTP	69	192	5	B	0	M1
TTP	69	240	0	B	0	M1
TTP	69	288	0	C	0	M1
XTP	70	0	1
XTP	70	0	6
XTP	70	72	2
XTP	70	72	5
XTP	70	144	3
XTP	70	144	4
XTP	70	240	0
XTP	70	240	7
BRK	70	288	0
BRK	70	288	7
TAP	71	0	3
TAP	71	0	4
TAP	71	96	5
TAP	71	144	5
TAP	71	192	7
TAP	71	240	7
TAP	71	288	0
TAP	71	336	0
TAP	72	0	2
TAP	72	48	2
TAP	72	96	1
TAP	72	96	3
TAP	72	192	4
TAP	72	192	5
BRK	72	288	3
BRK	72	288	6
TTP	73	0	0	B	0	M1
TTP	73	0	0	C	0	M1
TTP	73	0	1	B	0	M1
TTP	73	96	6	B	0	M1
TTP	73	144	3	B	0	M1
TTP	73	192	4	B	0	M1
TTP	73	240	1	B	0	M1
TTP	73	288	0	C	0	M1
TTP	74	0	0	B	0	M1
TTP	74	0	7	E	0	M1
TTP	74	0	7	B	0	M1
TTP	74	96	3	B	0	M1
TTP	74	96	3	E	0	M1
TTP	74	96	4	B	0	M1
TTP	74	192	0	C	1	M1
TTP	74	192	1	B	0	M1
TTP	74	192	5	B	0	M1
TAP	75	0	0
TAP	75	0	7
TAP	75	96	6
TAP	75	144	6
TAP	75	192	4
TAP	75	240	4
TAP	75	288	3
TAP	75	336	3
XTP	76	0	1
XTP	76	48	0
XTP	76	96	7
XTP	76	144	6
XHO	76	192	2	96
XHO	76	192	5	96
TTP	77	0	0	B	0	M1
TTP	77	0	1	E	0	M1
TTP	77	0	7	E	0	M1
TTP	77	0	7	B	0	M1
TTP	77	96	3	B	0	M1
TTP	77	96	3	E	0	M1
TTP	77	96	4	B	0	M1
TTP	77	96	5	E	0	M1
TAP	77	192	0
TAP	77	192	7
TAP	77	288	2
TAP	77	288	5
TAP	78	0	4
TAP	78	24	3
TAP	78	48	4
TAP	78	72	3
TAP	78	96	4
TAP	78	120	3
TAP	78	144	4
TAP	78	168	3
HLD	78	192	4	96
BRK	78	288	0
TAP	79	0	1
STR	79	0	3
SI_	79	0	3	96	48	7
TAP	79	192	4
HLD	79	192	6	96
TAP	79	288	0
STR	80	0	3
SI_	80	0	3	96	48	7
TAP	80	0	5
HLD	80	192	0	96
TAP	80	192	4
TAP	80	288	6
STR	81	0	1
SI_	81	0	1	96	48	3
STR	81	96	7
SI_	81	96	7	96	48	4
STR	81	192	1
SI_	81	192	1	96	48	4
STR	81	288	7
SCR	81	288	7	96	192	5
BRK	82	288	2
BRK	82	288	6
STR	83	0	4
SI_	83	0	4	96	48	0
TAP	83	0	5
HLD	83	192	1	96
TAP	83	192	3
TAP	83	288	7
TAP	84	0	2
STR	84	0	4
SI_	84	0	4	96	48	0
TAP	84	192	3
HLD	84	192	7	96
TAP	84	288	1
STR	85	0	6
SI_	85	0	6	96	48	4
STR	85	96	1
SI_	85	96	1	96	48	4
STR	85	192	6
SI_	85	192	6	96	48	3
STR	85	288	1
SSR	85	288	1	96	192	5
BRK	86	288	1
BRK	86	288	5
TAP	87	0	2
STR	87	0	3
SI_	87	0	3	96	48	7
TAP	87	192	4
HLD	87	192	6	96
TAP	87	288	0
STR	88	0	4
SI_	88	0	4	96	48	0
TAP	88	0	5
HLD	88	192	1	96
TAP	88	192	3
TAP	88	288	7
STR	89	0	5
SI_	89	0	5	96	48	0
STR	89	96	3
SI_	89	96	3	96	48	1
STR	89	192	5
SI_	89	192	5	96	48	1
STR	89	288	3
SCR	89	288	3	96	192	1
BRK	90	288	1
BRK	90	288	6
TAP	91	0	2
TAP	91	48	2
TAP	91	96	2
TAP	91	96	3
TAP	91	192	5
TAP	91	240	5
TAP	91	288	4
TAP	91	288	5
TAP	92	0	1
TAP	92	48	1
TAP	92	96	1
TAP	92	96	3
TAP	92	192	6
TAP	92	240	6
TAP	92	288	4
TAP	92	288	6
TAP	93	0	1
TAP	93	48	1
TAP	93	96	6
TAP	93	144	6
XTP	93	192	0
XTP	93	216	7
XTP	93	240	0
XTP	93	264	7
XTP	93	288	0
XTP	93	312	7
XTP	93	336	0
XTP	93	360	7
XTP	94	0	1
XTP	94	24	6
XTP	94	48	1
XTP	94	72	6
XTP	94	96	1
XTP	94	120	6
XTP	94	144	1
XTP	94	168	6
XTP	94	192	2
XTP	94	216	5
XTP	94	240	2
XTP	94	264	5
XTP	94	288	2
BRK	95	0	3
BRK	95	0	4
HLD	95	192	0	96
HLD	95	192	7	96
TTP	96	0	0	C	0	M1
TTP	96	0	1	B	0	M1
TTP	96	0	2	B	0	M1
TTP	96	0	3	E	0	M1
TTP	96	0	3	B	0	M1
HLD	96	192	0	96
HLD	96	192	7	96
TTP	97	0	0	C	0	M1
TTP	97	0	4	B	0	M1
TTP	97	0	5	E	0	M1
TTP	97	0	5	B	0	M1
TTP	97	0	6	B	0	M1
HLD	97	192	0	96
HLD	97	192	7	96
TAP	98	0	1
TAP	98	48	1
TAP	98	96	3
TAP	98	192	6
TAP	98	240	6
TAP	98	288	4
TTP	99	0	0	C	0	M1
TTP	99	0	1	B	0	M1
TTP	99	0	2	B	0	M1
TTP	99	0	3	E	0	M1
TTP	99	0	3	B	0	M1
TAP	99	192	0
TAP	99	192	7
TAP	99	288	0
TAP	99	288	7
TTP	100	0	0	C	0	M1
TTP	100	0	4	B	0	M1
TTP	100	0	5	E	0	M1
TTP	100	0	5	B	0	M1
TTP	100	0	6	B	0	M1
TAP	100	192	0
TAP	100	192	7
TAP	100	288	0
TAP	100	288	7
TTP	101	0	1	B	0	M1
TTP	101	0	2	E	0	M1
TTP	101	0	2	B	0	M1
TTP	101	0	3	E	0	M1
TTP	101	0	3	B	0	M1
TTP	101	192	4	B	0	M1
TTP	101	192	5	E	0	M1
TTP	101	192	5	B	0	M1
TTP	101	192	6	E	0	M1
TTP	101	192	6	B	0	M1
THO	102	0	0	192	C	1	M1
BRK	102	288	0
BRK	102	288	7

T_REC_TAP	260
T_REC_BRK	19
T_REC_XTP	54
T_REC_HLD	66
T_REC_XHO	2
T_REC_STR	31
T_REC_BST	0
T_REC_XST	0
T_REC_TTP	150
T_REC_THO	2
T_REC_SLD	32
T_REC_ALL	616
T_NUM_TAP	495
T_NUM_BRK	19
T_NUM_HLD	70
T_NUM_SLD	32
T_NUM_ALL	616
T_JUDGE_TAP	514
T_JUDGE_HLD	248
T_JUDGE_SLD	32
T_JUDGE_ALL	794
TTM_EACHPAIRS	109
TTM_SCR_TAP	247500
TTM_SCR_BRK	49400
TTM_SCR_HLD	70000
TTM_SCR_SLD	48000
TTM_SCR_ALL	414900
TTM_SCR_S	400650
TTM_SCR_SS	413000
TTM_RAT_ACV	10046

