VERSION	0.00.00	1.03.00
FES_MODE	0
BPM_DEF	200.000	200.000	200.000	200.000
MET_DEF	4	4
RESOLUTION	384
CLK_DEF	384
COMPATIBLE_CODE	MA2

BPM	0	0	200.000
MET	0	0	4	4

HLD	3	0	2	384
TAP	4	0	3
HLD	5	0	5	384
TAP	6	0	4
HLD	7	0	3	384
TAP	8	0	4
STR	9	0	3
SI_	9	0	3	96	384	7
STR	9	0	4
SI_	9	0	4	96	384	0
XTP	11	0	1
XTP	11	0	6
XTP	12	0	4
XTP	12	0	6
XTP	13	0	1
XTP	13	0	3
TAP	14	0	4
TAP	14	96	4
TAP	14	192	3
TAP	14	288	3
XTP	15	0	3
XTP	15	0	4
TAP	15	192	5
TAP	15	288	4
XTP	16	0	3
XTP	16	0	6
TAP	16	192	3
TAP	16	288	4
XTP	17	0	2
XTP	17	0	5
TAP	17	96	2
TAP	17	96	5
TAP	17	192	3
TAP	17	192	4
TAP	17	288	3
TAP	17	288	4
HLD	18	0	3	192
HLD	18	0	4	192
XTP	18	288	2
XTP	18	288	5
TAP	19	0	2
TAP	19	96	2
TAP	19	192	3
TAP	20	0	4
TAP	20	96	4
TAP	20	192	5
TAP	21	0	1
TAP	21	96	1
TAP	21	192	2
TAP	21	288	2
TAP	22	0	3
TAP	22	96	3
TAP	22	96	4
TAP	22	192	2
TAP	22	192	5
TAP	23	0	6
TAP	23	96	6
TAP	23	192	5
TAP	24	0	3
TAP	24	96	3
TAP	24	192	2
TAP	25	0	5
TAP	25	96	5
TAP	25	192	6
TAP	25	288	6
TAP	26	0	7
TAP	26	96	0
TAP	26	96	7
TAP	26	192	1
TAP	26	192	6
XHO	27	0	2	192
TAP	27	192	3
TAP	27	288	4
XHO	28	0	5	192
TAP	28	192	4
TAP	28	288	3
XHO	29	0	2	192
TAP	29	192	3
TAP	29	288	3
TAP	29	288	4
TAP	30	0	5
TAP	30	96	6
TAP	30	192	0
TAP	30	192	7
XHO	31	0	1	192
TAP	31	192	0
TAP	31	288	7
XHO	32	0	6	192
TAP	32	192	7
TAP	32	288	0
XHO	33	0	1	192
TAP	33	192	0
TAP	33	288	0
TAP	33	288	7
TAP	34	0	6
TAP	34	96	5
TAP	34	192	3
TAP	34	192	4
XST	35	0	2
SLL	35	0	2	96	480	4
XST	35	0	5
SLR	35	0	5	96	480	3
TAP	37	0	2
TAP	37	96	3
TAP	37	96	4
TAP	37	192	5
TAP	37	288	3
TAP	37	288	4
TAP	38	0	2
TAP	38	0	5
TAP	38	96	1
TAP	38	96	6
XTP	38	192	0
XTP	38	192	7
HLD	39	0	1	192
HLD	39	192	2	192
TAP	40	0	3
TAP	40	96	3
TAP	40	192	2
TAP	40	192	4
HLD	41	0	6	192
HLD	41	192	5	192
TAP	42	0	4
TAP	42	96	4
TAP	42	192	3
TAP	42	192	5
HLD	43	0	2	192
HLD	43	192	1	192
TAP	44	0	0
TAP	44	96	0
TAP	44	192	1
TAP	44	192	7
HLD	45	0	7	192
HLD	45	192	0	192
TAP	46	0	7
TAP	46	96	7
XTP	46	192	0
XTP	46	192	6
HLD	47	0	5	96
HLD	47	192	3	96
HLD	47	192	4	96
TAP	48	0	2
TAP	48	96	2
TAP	48	192	1
TAP	48	192	3
HLD	49	0	2	96
HLD	49	192	3	96
HLD	49	192	4	96
TAP	50	0	5
TAP	50	96	5
XTP	50	192	4
XTP	50	192	6
HLD	51	0	6	96
HLD	51	192	0	96
HLD	51	192	7	96
TAP	52	0	1
TAP	52	96	1
XTP	52	192	2
XTP	52	192	3
THO	53	0	0	384	C	1	L1
TTP	55	0	2	B	0	L1
TTP	55	192	3	B	0	L1
TTP	56	0	4	B	0	L1
TTP	56	192	5	B	0	L1
TTP	57	0	1	B	0	L1
TTP	57	0	6	B	0	L1
TTP	58	0	2	B	0	L1
TTP	58	0	5	B	0	L1
TTP	59	0	2	E	0	L1
TTP	59	192	3	E	0	L1
TTP	60	0	4	E	0	L1
TTP	60	192	5	E	0	L1
TTP	61	0	2	E	0	L1
TTP	61	0	6	E	0	L1
TTP	62	0	3	E	0	L1
TTP	62	0	5	E	0	L1
TAP	63	0	1
TAP	63	96	0
TAP	63	192	7
TAP	63	288	6
TAP	64	0	0
TAP	64	0	7
TAP	64	96	0
TAP	64	96	7
BRK	64	192	1
BRK	64	192	6
TAP	65	0	0
TAP	65	96	1
TAP	65	192	2
TAP	65	240	2
TAP	65	288	2
TAP	66	0	3
TAP	66	0	4
TAP	66	96	4
TAP	66	96	5
TAP	66	192	3
TAP	66	192	6
TAP	67	0	5
TAP	67	48	5
TAP	67	96	5
TAP	67	192	3
TAP	67	240	3
TAP	67	288	3
TAP	68	0	3
TAP	68	0	4
TAP	68	96	2
TAP	68	96	5
XTP	68	192	1
XTP	68	192	6
TAP	69	0	7
TAP	69	96	6
TAP	69	192	5
TAP	69	240	5
TAP	69	288	5
TAP	70	0	3
TAP	70	0	4
TAP	70	96	2
TAP	70	96	3
TAP	70	192	1
TAP	70	192	4
TAP	71	0	2
TAP	71	48	2
TAP	71	96	2
TAP	71	192	4
TAP	71	240	4
TAP	71	288	4
TAP	72	0	3
TAP	72	0	4
TAP	72	96	2
TAP	72	96	5
XTP	72	192	1
XTP	72	192	6
TAP	73	0	4
TAP	73	96	5
TAP	73	192	6
TAP	73	240	6
TAP	73	288	6
TAP	74	0	0
TAP	74	0	1
TAP	74	96	2
TAP	74	96	7
XTP	74	192	3
XTP	74	192	6
TAP	75	0	1
TAP	75	48	1
TAP	75	96	1
TAP	75	192	7
TAP	75	240	7
TAP	75	288	7
TAP	76	0	6
TAP	76	0	7
TAP	76	96	0
TAP	76	96	5
XTP	76	192	1
XTP	76	192	4
XHO	77	0	2	96
XHO	77	0	3	96
XHO	77	192	4	96
XHO	77	192	5	96
TAP	78	0	3
TAP	78	0	4
TAP	78	96	2
TAP	78	96	5
BRK	78	192	1
BRK	78	192	6
STR	79	0	0
SI_	79	0	0	96	288	4
TAP	80	192	5
TAP	80	288	5
STR	81	0	5
SCL	81	0	5	96	288	2
TAP	82	192	1
TAP	82	288	1
STR	83	0	1
SI_	83	0	1	96	288	5
TAP	84	192	7
TAP	84	288	7
STR	85	0	7
SI_	85	0	7	96	288	2
SI_	85	0	7	96	288	4
XTP	86	192	3
STR	87	0	2
SCR	87	0	2	96	288	5
TAP	88	192	6
TAP	88	288	6
STR	89	0	6
SUL	89	0	6	96	288	2
TAP	90	192	0
TAP	90	288	0
STR	91	0	0
SI_	91	0	0	96	288	4
STR	91	0	7
SI_	91	0	7	96	288	3
TAP	92	192	2
TAP	92	192	5
TAP	92	288	2
TAP	92	288	5
STR	93	0	2
SI_	93	0	2	96	288	6
STR	93	0	3
SI_	93	0	3	96	288	7
BRK	94	192	0
BRK	94	192	5
XHO	95	0	2	192
XHO	95	0	3	192
XHO	96	0	4	192
XHO	96	0	6	192
XHO	97	0	0	192
XHO	97	0	1	192
TAP	98	0	0
TAP	98	0	1
TAP	98	96	2
TAP	98	192	3
TAP	98	288	4
TAP	99	0	5
TAP	99	96	5
TAP	99	192	3
TAP	99	192	5
TAP	99	288	3
TAP	99	288	5
TAP	100	0	2
TAP	100	96	2
TAP	100	192	2
TAP	100	192	4
TAP	100	288	2
TAP	100	288	4
TAP	101	0	3
TAP	101	48	3
TAP	101	96	4
TAP	101	144	4
TAP	101	192	3
TAP	101	192	4
TAP	101	288	2
TAP	101	288	5
XHO	102	0	0	192
XHO	102	0	7	192
BRK	102	288	1
BRK	102	288	6

T_REC_TAP	213
T_REC_BRK	8
T_REC_XTP	31
T_REC_HLD	22
T_REC_XHO	18
T_REC_STR	12
T_REC_BST	0
T_REC_XST	2
T_REC_TTP	16
T_REC_THO	1
T_REC_SLD	15
T_REC_ALL	338
T_NUM_TAP	274
T_NUM_BRK	8
T_NUM_HLD	41
T_NUM_SLD	15
T_NUM_ALL	338
T_JUDGE_TAP	282
T_JUDGE_HLD	154
T_JUDGE_SLD	15
T_JUDGE_ALL	451
TTM_EACHPAIRS	79
TTM_SCR_TAP	137000
TTM_SCR_BRK	20800
TTM_SCR_HLD	41000
TTM_SCR_SLD	22500
TTM_SCR_ALL	221300
TTM_SCR_S	213900
TTM_SCR_SS	220500
TTM_RAT_ACV	10036

