VERSION	0.00.00	1.03.00
FES_MODE	0
BPM_DEF	200.000	200.000	200.000	200.000
MET_DEF	4	4
RESOLUTION	384
CLK_DEF	384
COMPATIBLE_CODE	MA2

BPM	0	0	200.000
MET	0	0	4	4

XTP	11	0	0
XTP	11	0	7
XTP	12	0	0
XTP	12	0	7
XTP	13	0	0
XTP	13	0	7
TAP	14	0	0
TAP	14	192	0
XTP	15	0	0
XTP	15	0	7
XTP	16	0	0
XTP	16	0	7
XTP	17	0	0
XTP	17	0	7
XTP	17	192	0
XTP	17	192	7
TAP	18	0	7
TAP	19	0	0
TAP	19	192	0
TAP	20	0	0
TAP	21	0	1
TAP	21	192	1
XTP	22	0	1
TAP	23	0	2
TAP	23	192	2
TAP	24	0	2
TAP	25	0	3
TAP	25	192	3
XTP	26	0	3
XTP	26	0	4
XHO	27	0	4	192
XHO	28	0	4	192
XHO	29	0	4	192
TAP	30	0	5
TAP	30	192	5
XHO	31	0	6	192
XHO	32	0	6	192
XHO	33	0	6	192
TAP	34	0	7
TAP	34	192	7
STR	35	0	0
SI_	35	0	0	96	288	4
STR	37	0	7
SI_	37	0	7	96	288	3
TTP	39	0	3	E	0	L1
TTP	40	0	2	E	0	L1
TTP	41	0	1	E	0	L1
TTP	42	0	0	B	0	L1
TTP	42	0	7	B	0	L1
TTP	43	0	7	E	0	L1
TTP	44	0	6	E	0	L1
TTP	45	0	5	E	0	L1
TTP	46	0	3	B	0	L1
TTP	46	0	4	B	0	L1
HLD	47	0	2	384
HLD	49	0	5	384
TTP	51	0	3	B	0	L1
TTP	51	0	4	B	0	L1
TTP	52	0	2	B	0	L1
TTP	52	0	5	B	0	L1
THO	53	0	0	384	C	1	L1
STR	55	0	0
SI_	55	0	0	96	288	3
TAP	57	0	7
TAP	58	0	7
STR	59	0	7
SI_	59	0	7	96	288	4
TAP	61	0	0
TAP	62	0	0
XTP	63	0	0
XTP	63	0	7
TAP	65	0	0
TAP	65	192	0
TAP	66	0	1
TAP	66	192	1
TAP	67	0	2
TAP	67	192	2
TAP	68	0	3
TAP	68	96	3
XTP	68	192	3
HLD	69	0	4	192
HLD	70	0	5	192
TAP	71	0	6
TAP	71	192	6
TAP	72	0	7
TAP	72	96	7
BRK	72	192	7
HLD	73	0	0	192
HLD	74	0	1	192
TAP	75	0	2
TAP	75	192	2
TAP	76	0	3
TAP	76	96	3
XTP	76	192	3
TAP	77	0	2
TAP	77	0	4
TAP	77	192	3
TAP	77	192	5
TAP	78	0	3
TAP	78	96	4
BRK	78	192	3
TAP	79	0	4
TAP	79	192	4
TAP	80	0	3
TAP	80	192	3
TAP	81	0	2
TAP	81	192	2
TAP	82	0	0
TAP	82	0	1
TAP	83	0	0
TAP	83	192	0
TAP	84	0	7
TAP	84	192	7
TAP	85	0	6
TAP	85	192	6
TAP	86	0	4
TAP	86	0	5
TAP	87	0	4
TAP	87	96	4
TAP	87	192	4
TAP	88	0	5
TAP	88	96	5
TAP	88	192	5
TAP	89	0	6
TAP	89	96	6
TAP	89	192	6
TAP	90	0	6
TAP	90	0	7
TAP	91	0	0
TAP	91	96	0
TAP	91	192	0
TAP	92	0	1
TAP	92	96	1
TAP	92	192	1
TAP	93	0	2
TAP	93	96	2
TAP	93	192	2
TAP	94	0	3
TAP	94	96	3
TAP	94	192	3
XTP	95	0	3
XTP	95	0	4
XTP	96	0	4
XTP	96	0	5
XTP	97	0	2
XTP	97	0	3
TAP	98	0	4
TAP	98	96	4
TAP	98	192	3
TAP	98	288	3
XTP	99	0	2
XTP	99	0	4
XTP	100	0	3
XTP	100	0	5
XTP	101	0	3
XTP	101	0	4
XTP	101	192	3
XTP	101	192	4
TAP	102	0	3
TAP	102	96	3
TAP	102	192	4
BRK	102	288	4

T_REC_TAP	89
T_REC_BRK	3
T_REC_XTP	35
T_REC_HLD	6
T_REC_XHO	6
T_REC_STR	4
T_REC_BST	0
T_REC_XST	0
T_REC_TTP	14
T_REC_THO	1
T_REC_SLD	4
T_REC_ALL	162
T_NUM_TAP	142
T_NUM_BRK	3
T_NUM_HLD	13
T_NUM_SLD	4
T_NUM_ALL	162
T_JUDGE_TAP	145
T_JUDGE_HLD	64
T_JUDGE_SLD	4
T_JUDGE_ALL	213
TTM_EACHPAIRS	21
TTM_SCR_TAP	71000
TTM_SCR_BRK	7800
TTM_SCR_HLD	13000
TTM_SCR_SLD	6000
TTM_SCR_ALL	97800
TTM_SCR_S	94600
TTM_SCR_SS	97500
TTM_RAT_ACV	10030

