VERSION	0.00.00	1.03.00
FES_MODE	0
BPM_DEF	190.000	190.000	190.000	190.000
MET_DEF	4	4
RESOLUTION	384
CLK_DEF	384
COMPATIBLE_CODE	MA2

BPM	0	0	190.000
MET	0	0	4	4

TAP	2	0	4
HLD	2	0	5	384
TAP	2	192	3
TAP	2	288	2
HLD	3	0	2	288
TAP	3	192	3
TAP	3	288	4
TAP	4	0	3
HLD	4	0	5	384
TAP	4	192	2
TAP	4	288	2
TTP	5	0	1	E	0	M1
TTP	5	96	0	C	0	M1
TTP	5	192	4	E	0	M1
TTP	5	192	6	E	0	M1
HLD	6	0	2	384
TAP	6	0	3
TAP	6	192	3
TAP	6	288	4
HLD	7	0	5	288
TAP	7	192	4
TAP	7	288	3
HLD	8	0	2	384
TAP	8	0	4
TAP	8	192	5
TAP	8	288	5
TTP	9	0	7	E	0	M1
TTP	9	96	0	C	0	M1
TTP	9	192	2	E	0	M1
TTP	9	192	4	E	0	M1
HLD	10	0	2	288
BRK	10	0	5
TAP	10	96	5
TAP	10	192	5
TAP	10	288	5
THO	11	0	0	288	C	0	M1
XTP	11	0	5
TAP	11	96	5
TAP	11	192	5
TAP	11	288	5
XHO	12	0	0	288
TAP	12	0	5
TAP	12	96	5
TAP	12	192	5
TAP	12	288	5
THO	13	0	0	192	C	0	M1
XTP	13	0	5
TTP	13	96	7	E	0	M1
TTP	13	144	6	E	0	M1
TTP	13	192	5	E	0	M1
TAP	13	288	1
TAP	13	288	6
XTP	14	0	7
TAP	14	48	7
TAP	14	96	3
TAP	14	144	3
TAP	14	192	5
TAP	14	240	5
TAP	14	288	1
TAP	14	336	1
XTP	15	0	7
TAP	15	48	7
XTP	15	96	0
TAP	15	144	0
XTP	15	192	7
TAP	15	216	0
TAP	15	240	7
TAP	15	264	0
XTP	15	288	6
TAP	15	312	1
TAP	15	336	5
TAP	15	360	2
XHO	16	0	4	192
HLD	16	192	3	192
THO	17	0	0	192	C	0	M1
STR	17	192	0
SI_	17	192	0	96	48	4
BRK	18	0	5
TAP	18	96	3
TAP	18	96	5
TAP	18	144	3
TAP	18	192	4
TAP	18	192	5
TAP	18	288	2
TAP	18	288	5
TAP	18	336	2
TAP	19	0	1
TAP	19	0	5
STR	19	96	3
SXR	19	96	3	96	192	3
TAP	19	96	5
XTP	19	192	5
TAP	19	288	5
TAP	19	336	5
XTP	20	0	5
TAP	20	96	4
TAP	20	96	5
TAP	20	144	4
TAP	20	192	3
TAP	20	192	5
TAP	20	288	0
TAP	20	288	5
HLD	21	0	3	96
TAP	21	0	5
TAP	21	48	5
TAP	21	96	5
TAP	21	192	2
TAP	21	192	5
TAP	21	288	5
TAP	21	312	4
TAP	21	336	5
XTP	22	0	2
XTP	22	0	5
TAP	22	96	2
TAP	22	96	4
TAP	22	144	3
TAP	22	192	2
TAP	22	192	4
TAP	22	288	2
HLD	22	288	3	96
TAP	22	336	2
TAP	23	0	2
TAP	23	96	2
STR	23	96	4
SXL	23	96	4	96	192	4
XTP	23	192	2
TAP	23	240	2
TAP	23	288	2
TAP	23	336	2
XTP	24	0	2
TAP	24	96	1
TAP	24	96	6
TAP	24	144	2
TAP	24	168	3
TAP	24	192	2
TAP	24	240	2
TAP	24	264	6
TAP	24	288	2
TAP	24	336	2
TAP	24	360	3
XHO	25	0	2	72
XHO	25	72	3	72
XTP	25	144	4
XTP	25	192	2
XTP	25	192	5
STR	25	288	3
SCL	25	288	3	96	192	0
TAP	25	288	4
HLD	26	0	5	384
TTP	26	288	0	E	0	M1
TTP	27	0	0	C	0	M1
TTP	27	96	4	E	0	M1
TTP	27	192	5	E	0	M1
TTP	27	288	3	E	0	M1
HLD	28	0	2	192
TAP	28	0	5
HLD	28	192	3	192
TTP	29	0	1	B	0	M1
TTP	29	0	2	B	0	M1
TTP	29	0	2	E	0	M1
TAP	29	288	3
TAP	29	336	4
HLD	30	0	2	384
HLD	30	0	5	288
TTP	31	0	5	E	0	M1
TTP	31	96	0	C	0	M1
TTP	31	192	6	B	0	M1
TTP	31	288	0	E	0	M1
TTP	32	0	1	B	0	M1
TTP	32	96	1	E	0	M1
TTP	32	96	2	B	0	M1
TTP	32	192	5	B	0	M1
TTP	32	288	5	E	0	M1
TTP	32	288	6	B	0	M1
THO	33	0	0	192	C	0	M1
TAP	33	288	7
TAP	33	336	7
XST	34	0	7
SXR	34	0	7	96	384	7
STR	35	0	2
SXR	35	0	2	96	384	2
STR	36	0	6
SXR	36	0	6	96	384	6
STR	37	0	3
SXR	37	0	3	96	384	3
STR	38	0	5
SCR	38	0	5	96	288	0
TTP	38	192	0	C	0	M1
STR	39	0	1
SCR	39	0	1	96	288	4
TTP	39	192	0	C	0	M1
TTP	40	0	6	B	0	M1
TTP	40	96	5	B	0	M1
TTP	40	96	7	E	0	M1
TTP	40	192	2	B	0	M1
TTP	40	288	1	B	0	M1
TTP	40	288	3	E	0	M1
TTP	41	0	0	C	0	M1
TAP	41	96	0
TAP	41	144	0
TAP	41	192	7
TAP	41	288	1
TAP	41	288	6
HLD	42	0	2	96
HLD	42	0	4	144
TAP	42	192	3
HLD	42	192	5	96
TAP	42	288	3
HLD	43	0	2	144
HLD	43	0	4	96
HLD	43	192	3	96
TAP	43	192	5
TAP	43	288	5
HLD	44	0	1	144
HLD	44	0	4	96
HLD	44	192	2	96
TAP	44	192	3
STR	44	288	3
SXL	44	288	3	96	240	3
TAP	45	0	1
TAP	45	288	2
TAP	45	336	2
HLD	46	0	4	96
TAP	46	96	3
HLD	46	144	5	144
HLD	46	192	3	96
HLD	47	0	3	96
TAP	47	0	4
TAP	47	96	4
HLD	47	144	2	144
HLD	47	192	4	96
TTP	48	0	5	B	0	M1
TTP	48	96	5	E	0	M1
TTP	48	96	6	B	0	M1
TTP	48	192	2	B	0	M1
TTP	48	288	1	B	0	M1
TTP	48	288	3	E	0	M1
THO	49	0	0	192	C	0	M1
TAP	49	288	0
TAP	49	336	7
STR	50	0	1
SUR	50	0	1	96	240	4
TAP	50	0	6
TAP	50	192	4
TAP	50	288	5
STR	51	0	6
SUL	51	0	6	96	240	3
TAP	51	192	3
TAP	51	288	2
HLD	52	0	1	96
HLD	52	96	2	96
HLD	52	192	3	96
STR	52	288	4
SUR	52	288	4	96	240	4
SXR	52	288	4	96	240	4
TAP	53	288	5
TAP	53	336	3
HLD	54	0	4	144
TAP	54	96	3
TAP	54	192	2
HLD	54	192	4	192
STR	54	288	2
SCL	54	288	2	96	144	7
STR	55	96	5
SCL	55	96	5	96	144	2
TAP	55	192	0
STR	55	288	1
SXL	55	288	1	96	288	5
HLD	56	0	7	384
HLD	57	0	6	96
HLD	57	96	5	96
HLD	57	192	4	96
HLD	57	288	3	96
THO	58	0	0	1152	C	0	M1
TTP	62	0	0	C	0	M1
TTP	62	0	5	E	0	M1
TTP	63	0	0	C	0	M1
TTP	63	0	1	E	0	M1
TTP	64	0	0	C	0	M1
TTP	64	0	7	E	0	M1
HLD	65	0	3	96
HLD	65	0	4	192
TAP	65	192	3
TAP	65	240	4
TAP	65	288	2
TAP	65	288	5
HLD	66	0	3	96
XST	66	0	4
SXL	66	0	4	96	576	3
HLD	66	192	3	96
TTP	67	0	3	E	0	M1
TTP	67	96	0	C	0	M1
TTP	67	192	2	E	0	M1
TTP	67	288	1	E	0	M1
STR	68	0	0
SXL	68	0	0	96	480	7
HLD	68	0	7	96
HLD	68	192	7	96
TTP	69	0	7	E	0	M1
TTP	69	96	0	C	0	M1
TTP	69	192	6	E	0	M1
TTP	69	288	5	E	0	M1
TAP	70	0	1
TAP	70	0	7
TAP	70	96	5
TAP	70	96	7
TAP	70	192	3
TAP	70	192	5
TAP	70	288	1
TAP	70	288	3
TAP	71	0	2
TAP	71	0	4
TAP	71	48	2
TAP	71	96	3
TAP	71	96	6
TAP	71	144	6
TAP	71	192	0
TAP	71	216	7
TAP	71	240	0
TAP	71	264	7
TAP	71	288	1
TAP	71	312	6
TAP	71	336	2
TAP	71	360	5
HLD	72	0	3	192
HLD	72	0	4	384
THO	73	0	0	192	C	0	M1
STR	73	192	7
SI_	73	192	7	96	48	2
SI_	73	192	7	96	48	4
BRK	74	0	1
BRK	74	0	5
XST	74	96	2
SI_	74	96	2	96	48	0
XST	74	96	6
SCL	74	96	6	96	48	3
XTP	74	192	2
XTP	74	192	6
TAP	74	288	1
TAP	74	336	2
TAP	75	0	3
STR	75	0	6
SI_	75	0	6	96	48	3
TAP	75	48	7
TAP	75	96	3
TAP	75	96	6
TAP	75	144	2
STR	75	192	1
SI_	75	192	1	96	48	4
TAP	75	240	0
TAP	75	288	1
TAP	75	288	4
XST	76	0	6
SI_	76	0	6	96	48	4
XST	76	0	7
SI_	76	0	7	96	48	4
XTP	76	96	6
XST	76	96	7
SI_	76	96	7	96	48	1
SI_	76	96	7	96	48	2
XTP	76	192	7
TAP	76	288	3
TAP	76	336	5
STR	77	0	2
SI_	77	0	2	96	48	7
STR	77	0	6
SV_	77	0	6	96	48	3
TAP	77	96	2
TAP	77	96	6
TAP	77	192	0
TAP	77	192	4
TAP	77	240	1
TAP	77	288	2
TAP	77	288	6
XST	78	0	7
SI_	78	0	7	96	48	3
SI_	78	0	7	96	48	5
XST	78	96	7
SI_	78	96	7	96	48	1
XTP	78	192	1
XTP	78	192	7
TAP	78	288	2
TAP	78	336	3
TAP	79	0	4
STR	79	0	6
SI_	79	0	6	96	48	3
TAP	79	48	7
TAP	79	96	3
TAP	79	96	6
TAP	79	144	2
STR	79	192	1
SI_	79	192	1	96	48	5
TAP	79	240	0
TAP	79	288	1
TAP	79	288	5
XST	80	0	7
SI_	80	0	7	96	48	3
XTP	80	96	3
XTP	80	96	7
XTP	80	192	2
XTP	80	192	5
TAP	80	288	0
TAP	80	288	7
TAP	80	336	6
STR	81	0	2
SI_	81	0	2	96	48	7
STR	81	0	5
SI_	81	0	5	96	48	0
TAP	81	48	3
TAP	81	48	4
TAP	81	96	2
TAP	81	96	5
TAP	81	192	1
TAP	81	192	6
TAP	81	216	2
TAP	81	216	5
TAP	81	240	3
TAP	81	240	4
BRK	81	288	1
BRK	81	288	6
XST	82	0	0
SCR	82	0	0	96	48	3
XST	82	0	4
SI_	82	0	4	96	48	6
XTP	82	48	0
XTP	82	48	4
XTP	82	96	0
XTP	82	96	4
XTP	82	192	1
XTP	82	192	5
TAP	82	288	6
TAP	82	336	5
STR	83	0	1
SCR	83	0	1	96	48	4
TAP	83	0	4
TAP	83	48	0
TAP	83	96	1
TAP	83	96	4
TAP	83	144	5
STR	83	192	6
SCL	83	192	6	96	48	3
TAP	83	240	7
TAP	83	288	3
TAP	83	288	6
XST	84	0	0
SV_	84	0	0	96	48	3
SV_	84	0	0	96	48	5
XTP	84	48	0
XTP	84	96	0
XTP	84	192	2
XTP	84	192	6
TAP	84	288	4
TAP	84	336	0
STR	85	0	1
SCR	85	0	1	96	48	4
STR	85	0	5
SV_	85	0	5	96	48	0
TAP	85	96	1
TAP	85	96	5
TAP	85	192	3
TAP	85	192	7
TAP	85	240	6
TAP	85	288	0
TAP	85	288	5
XTP	86	0	3
XTP	86	0	6
XTP	86	48	2
XTP	86	48	7
XST	86	96	0
SI_	86	96	0	96	48	3
XST	86	96	1
SI_	86	96	1	96	48	3
XST	86	192	0
SI_	86	192	0	96	48	5
SI_	86	192	0	96	48	6
XTP	86	192	1
STR	86	288	0
SI_	86	288	0	96	48	4
STR	87	0	0
SF_	87	0	0	96	48	4
TAP	87	96	0
TAP	87	192	2
TAP	87	192	6
TAP	87	240	2
TAP	87	240	6
BRK	87	288	0
BRK	87	288	4
TAP	88	0	1
TAP	88	0	6
TAP	88	48	2
TAP	88	72	3
TAP	88	96	2
TAP	88	144	2
TAP	88	168	0
TAP	88	192	2
TAP	88	240	2
TAP	88	264	3
TAP	88	288	2
TAP	88	336	2
TAP	88	336	3
XHO	89	0	1	48
XHO	89	0	3	48
XHO	89	72	2	48
XHO	89	72	4	48
XTP	89	144	3
XTP	89	144	5
XST	89	192	2
SCL	89	192	2	96	48	7
XST	89	192	6
SCL	89	192	6	96	48	3
XTP	89	240	2
XTP	89	240	6
XTP	89	288	2
XTP	89	288	6
TTP	90	0	0	C	1	M1
TTP	90	0	3	B	0	M1
TTP	90	0	7	B	0	M1
TTP	92	0	0	C	1	M1
TTP	92	0	1	B	0	M1
TTP	92	0	2	B	0	M1
TTP	92	0	5	B	0	M1
TTP	92	0	6	B	0	M1
TTP	93	144	1	E	0	M1
TTP	93	156	1	B	0	M1
TTP	93	168	2	B	0	M1
TTP	93	180	3	B	0	M1
TTP	93	192	4	E	0	M1
XTP	93	240	6
XTP	93	288	0
XTP	93	288	6
THO	94	0	0	192	C	0	M1
TTP	94	0	2	B	0	M1
TTP	94	0	3	B	0	M1
TTP	94	0	4	B	0	M1
TTP	94	0	5	B	0	M1
TTP	95	0	0	B	0	M1
THO	95	0	0	192	C	0	M1
TTP	95	0	1	B	0	M1
TTP	95	0	6	B	0	M1
TTP	95	0	7	B	0	M1
TAP	96	0	0
TAP	96	48	0
TAP	96	96	1
TAP	96	96	7
TAP	96	144	1
TAP	96	144	7
TTP	96	192	1	E	0	M1
TTP	96	216	0	B	0	M1
TTP	96	264	7	B	0	M1
TTP	96	288	7	E	0	M1
TTP	96	312	5	E	0	M1
TTP	96	336	4	E	0	M1
TTP	96	360	3	E	0	M1
THO	97	0	0	288	C	1	M1
STR	97	192	7
SI_	97	192	7	96	48	3
BRK	97	288	7
XTP	98	0	1
XTP	98	48	0
XTP	98	48	1
XST	98	96	2
SI_	98	96	2	96	48	0
XST	98	96	7
SI_	98	96	7	96	48	5
XTP	98	192	2
XST	98	192	7
SF_	98	192	7	96	48	3
XTP	98	288	7
TAP	99	0	0
STR	99	0	5
SCR	99	0	5	96	48	0
TAP	99	48	4
TAP	99	96	0
TAP	99	96	5
TAP	99	144	1
STR	99	192	2
SCL	99	192	2	96	48	7
TAP	99	240	3
TAP	99	288	2
TAP	99	288	7
XST	100	0	4
SF_	100	0	4	96	48	0
XTP	100	96	4
XTP	100	192	2
XTP	100	192	6
TAP	100	288	0
TAP	100	288	7
TAP	100	336	0
TAP	100	336	7
TAP	100	352	1
TAP	100	352	6
TAP	100	368	2
TAP	100	368	5
XTP	101	0	3
XTP	101	0	4
XTP	101	72	4
XTP	101	72	6
XTP	101	144	1
XTP	101	144	3
XST	101	192	0
SI_	101	192	0	96	48	4
XST	101	192	7
SI_	101	192	7	96	48	3
XTP	101	240	1
XTP	101	240	6
BRK	101	288	0
BRK	101	288	7
XTP	102	0	0
XTP	102	0	1
TAP	102	48	1
TAP	102	96	1
TAP	102	96	2
TAP	102	144	2
TAP	102	192	2
XTP	102	192	3
TAP	102	240	3
TAP	102	288	3
TAP	102	288	4
TAP	102	336	5
TAP	102	360	4
XTP	103	0	5
TAP	103	48	3
TAP	103	48	6
XTP	103	96	3
XTP	103	96	6
TAP	103	144	1
TAP	103	144	4
XTP	103	192	1
XTP	103	192	4
XTP	103	240	3
XTP	103	264	5
XTP	103	288	3
XTP	103	312	5
XTP	103	336	3
TTP	104	0	1	B	0	M1
TTP	104	24	7	B	0	M1
TTP	104	48	3	B	0	M1
TTP	104	72	5	B	0	M1
TTP	104	96	0	B	0	M1
TTP	104	120	6	B	0	M1
TTP	104	144	2	B	0	M1
TTP	104	168	4	B	0	M1
TTP	104	192	1	E	0	M1
TTP	104	216	7	E	0	M1
TTP	104	240	3	E	0	M1
TTP	104	264	5	E	0	M1
TTP	104	288	0	C	1	M1
TAP	105	48	0
XTP	105	48	1
XTP	105	120	4
TAP	105	120	6
XTP	105	192	2
TAP	105	192	3
XTP	105	264	5
TAP	105	264	7
XTP	105	336	3
TAP	105	336	4
BRK	106	0	1
BRK	106	0	6
TTP	107	0	0	B	0	M1
TTP	107	0	7	B	0	M1
TTP	108	0	0	C	0	M1
HLD	109	0	4	96
HLD	109	192	3	432
HLD	109	192	4	624

T_REC_TAP	273
T_REC_BRK	13
T_REC_XTP	84
T_REC_HLD	51
T_REC_XHO	8
T_REC_STR	35
T_REC_BST	0
T_REC_XST	24
T_REC_TTP	102
T_REC_THO	10
T_REC_SLD	65
T_REC_ALL	665
T_NUM_TAP	518
T_NUM_BRK	13
T_NUM_HLD	69
T_NUM_SLD	65
T_NUM_ALL	665
T_JUDGE_TAP	531
T_JUDGE_HLD	284
T_JUDGE_SLD	65
T_JUDGE_ALL	880
TTM_EACHPAIRS	136
TTM_SCR_TAP	259000
TTM_SCR_BRK	33800
TTM_SCR_HLD	69000
TTM_SCR_SLD	97500
TTM_SCR_ALL	459300
TTM_SCR_S	444300
TTM_SCR_SS	458000
TTM_RAT_ACV	10028

