VERSION	0.00.00	1.03.00
FES_MODE	0
BPM_DEF	190.000	190.000	190.000	190.000
MET_DEF	4	4
RESOLUTION	384
CLK_DEF	384
COMPATIBLE_CODE	MA2

BPM	0	0	190.000
MET	0	0	4	4

STR	2	0	7
SCL	2	0	7	96	480	4
STR	3	0	0
SCR	3	0	0	96	480	3
STR	4	0	7
SCL	4	0	7	96	480	4
STR	5	0	0
SCR	5	0	0	96	480	3
STR	6	0	4
SCR	6	0	4	96	480	7
STR	7	0	3
SCL	7	0	3	96	480	0
STR	8	0	4
SCR	8	0	4	96	480	7
TAP	9	0	3
HLD	9	192	2	192
XTP	10	0	7
TAP	10	96	7
TAP	10	192	7
TAP	10	288	7
TAP	11	0	6
TAP	11	96	6
STR	11	192	6
SI_	11	192	6	96	96	2
XTP	12	0	0
TAP	12	96	0
TAP	12	192	0
TAP	12	288	0
TAP	13	0	1
TAP	13	0	2
TAP	13	96	0
TAP	13	96	3
TAP	13	192	4
TAP	13	192	7
TAP	13	288	5
TAP	13	288	6
TAP	14	0	7
TAP	14	48	7
TAP	14	96	6
TAP	14	144	6
TAP	14	192	5
TAP	14	240	5
TAP	14	288	4
TAP	14	336	4
TAP	15	0	3
TAP	15	48	3
TAP	15	96	2
TAP	15	144	2
TAP	15	192	1
TAP	15	240	1
TAP	15	288	0
TAP	15	336	0
XTP	16	0	0
XTP	16	0	7
HLD	16	192	4	96
HLD	16	192	6	96
HLD	17	0	0	96
HLD	17	0	7	96
TAP	17	192	1
TAP	17	192	3
TAP	17	288	3
TAP	17	288	4
BRK	18	0	1
BRK	18	0	6
TAP	18	96	1
TAP	18	96	6
TAP	18	192	3
TAP	18	192	6
TAP	18	288	3
TAP	18	288	6
TAP	19	0	3
TAP	19	0	5
TAP	19	96	3
TAP	19	96	5
TAP	19	192	0
TAP	19	192	5
XTP	19	288	0
XTP	19	288	5
TAP	19	336	1
TAP	19	336	6
XTP	20	0	2
XTP	20	0	7
TAP	20	96	2
TAP	20	96	7
TAP	20	192	4
TAP	20	192	7
TAP	20	288	4
TAP	20	288	7
XTP	21	0	4
XTP	21	0	7
TAP	21	48	3
TAP	21	48	6
XTP	21	96	2
XTP	21	96	5
TAP	21	192	2
TAP	21	192	5
XTP	21	288	2
XTP	21	288	5
TAP	21	336	1
TAP	21	336	4
XTP	22	0	0
XTP	22	0	3
TAP	22	96	0
TAP	22	96	3
TAP	22	192	0
TAP	22	192	7
XTP	22	288	0
XTP	22	288	7
TAP	22	336	1
TAP	22	336	6
XTP	23	0	2
XTP	23	0	5
TAP	23	96	2
TAP	23	96	5
XTP	23	192	2
XTP	23	192	5
TAP	23	240	1
TAP	23	240	4
XTP	23	288	2
XTP	23	288	5
TAP	23	336	3
TAP	23	336	6
XTP	24	0	2
XTP	24	0	5
TTP	24	96	4	E	0	M1
TTP	24	192	0	C	0	M1
TTP	24	288	0	E	0	M1
STR	25	0	0
SI_	25	0	0	96	48	4
STR	25	0	7
SI_	25	0	7	96	48	3
XTP	25	192	1
XTP	25	192	6
HLD	26	0	3	192
STR	26	0	7
SCL	26	0	7	96	480	4
HLD	27	0	2	192
HLD	28	0	1	192
STR	28	0	4
SXL	28	0	4	96	480	4
HLD	29	0	0	192
STR	30	0	0
SCR	30	0	0	96	480	3
HLD	30	0	4	192
HLD	31	0	5	192
STR	32	0	3
SXR	32	0	3	96	480	3
HLD	32	0	6	192
HLD	33	0	7	192
BST	34	0	7
SI_	34	0	7	96	864	4
TAP	35	0	2
TAP	35	192	1
STR	36	0	0
SI_	36	0	0	96	864	3
TAP	37	0	5
TAP	37	192	6
STR	38	0	7
SI_	38	0	7	96	864	4
TAP	39	0	3
TAP	39	192	2
TAP	40	0	1
TAP	40	192	0
TAP	41	0	0
TAP	41	0	4
TAP	41	288	3
TAP	41	336	4
HLD	42	0	2	192
HLD	42	192	0	192
HLD	43	0	7	192
TAP	43	192	5
TAP	43	288	4
STR	44	0	3
SCL	44	0	3	96	96	0
STR	44	192	7
SCL	44	192	7	96	96	4
STR	45	0	0
SCR	45	0	0	96	96	3
TAP	45	192	4
TAP	45	288	4
TAP	45	336	3
HLD	46	0	5	192
TAP	46	192	7
HLD	46	288	7	96
TAP	47	0	0
HLD	47	96	0	96
TAP	47	192	2
TAP	47	288	3
STR	48	0	4
SCR	48	0	4	96	96	7
STR	48	192	0
SCR	48	192	0	96	96	3
STR	49	0	4
SCR	49	0	4	96	96	7
TAP	49	192	0
TAP	49	288	0
TAP	49	336	7
HLD	50	0	1	192
HLD	50	192	3	192
HLD	51	0	4	192
TAP	51	192	6
TAP	51	288	7
STR	52	0	0
SCR	52	0	0	96	96	3
STR	52	192	4
SCR	52	192	4	96	96	7
STR	53	0	3
SCL	53	0	3	96	96	0
TAP	53	192	7
TAP	53	288	7
TAP	53	336	0
HLD	54	0	6	192
TAP	54	192	4
HLD	54	288	4	96
TAP	55	0	3
HLD	55	96	3	96
TAP	55	192	1
TAP	55	288	0
STR	56	0	7
SCL	56	0	7	96	288	1
STR	57	0	0
SI_	57	0	0	96	96	3
STR	57	192	7
SI_	57	192	7	96	96	4
HLD	58	0	0	2880
TTP	60	0	4	E	0	M1
TTP	61	0	6	E	0	M1
TTP	62	0	2	E	0	M1
TTP	63	0	0	C	0	M1
TTP	64	0	0	E	0	M1
TTP	64	96	0	C	0	M1
TTP	64	192	4	E	0	M1
TTP	65	0	0	C	1	M1
XTP	66	0	3
XTP	66	0	4
TAP	66	96	5
TAP	66	192	6
TAP	66	288	7
TAP	66	336	7
TAP	67	48	1
TAP	67	48	5
TAP	67	144	3
TAP	67	192	3
TAP	67	240	4
TAP	67	288	2
TAP	68	0	3
TAP	68	0	4
TAP	68	96	2
TAP	68	192	1
TAP	68	288	0
TAP	68	336	0
TAP	69	48	2
TAP	69	48	6
TAP	69	144	4
TAP	69	192	4
TAP	69	240	3
TAP	69	288	5
TAP	70	0	3
TAP	70	0	4
TAP	70	96	4
TAP	70	96	5
TAP	70	192	5
TAP	70	192	6
TAP	70	288	6
TAP	70	288	7
TAP	71	0	0
TAP	71	0	7
TAP	71	96	0
TAP	71	96	1
TAP	71	192	1
TAP	71	192	2
TAP	71	288	2
TAP	71	288	3
TAP	72	0	3
TAP	72	0	4
TTP	72	192	3	E	0	M1
TTP	72	192	3	B	0	M1
TTP	72	192	4	B	0	M1
TTP	72	192	5	E	0	M1
TTP	73	0	0	B	0	M1
TTP	73	0	1	E	0	M1
TTP	73	0	7	E	0	M1
TTP	73	0	7	B	0	M1
TTP	73	192	0	C	1	M1
TTP	73	192	2	E	0	M1
TTP	73	192	6	E	0	M1
TAP	74	0	0
TAP	74	0	7
TAP	74	96	0
TAP	74	96	5
TAP	74	192	3
TAP	74	192	5
TAP	74	288	3
TAP	74	288	6
TAP	75	0	1
TAP	75	0	6
TAP	75	96	1
TAP	75	96	3
TAP	75	192	2
TAP	75	192	3
HLD	75	288	2	48
HLD	75	288	7	48
TAP	76	0	4
TAP	76	0	7
TAP	76	96	4
TAP	76	96	6
TAP	76	192	6
TAP	76	192	7
TAP	76	288	5
TAP	76	288	7
TAP	77	0	1
TAP	77	0	5
TAP	77	96	1
TAP	77	96	4
TAP	77	192	3
TAP	77	192	4
XTP	77	288	2
XTP	77	288	3
TAP	77	336	3
TAP	77	336	4
XTP	78	0	4
XTP	78	0	5
TAP	78	96	0
TAP	78	96	5
TAP	78	192	0
TAP	78	192	2
TAP	78	288	1
TAP	78	288	2
TAP	79	0	1
TAP	79	0	4
TAP	79	96	0
TAP	79	96	4
TAP	79	192	0
TAP	79	192	6
HLD	79	288	5	48
HLD	79	288	6	48
TAP	80	0	5
TAP	80	0	7
TAP	80	96	0
TAP	80	96	7
TAP	80	192	0
TAP	80	192	4
TAP	80	288	2
TAP	80	288	4
XTP	81	0	2
XTP	81	0	5
TAP	81	48	3
TAP	81	48	4
XTP	81	96	2
XTP	81	96	5
XTP	81	192	1
XTP	81	192	6
TAP	81	240	0
TAP	81	240	7
XTP	81	288	1
XTP	81	288	6
XTP	82	0	4
XTP	82	0	5
TAP	82	48	3
TAP	82	48	4
XTP	82	96	2
XTP	82	96	3
TAP	82	192	6
TAP	82	192	7
TAP	82	288	2
TAP	82	288	6
TAP	83	0	2
TAP	83	0	3
TAP	83	96	0
TAP	83	96	3
TAP	83	192	0
TAP	83	192	7
XTP	83	288	4
XTP	83	288	7
TAP	83	336	3
TAP	83	336	6
XTP	84	0	2
XTP	84	0	5
TAP	84	96	0
TAP	84	96	5
TAP	84	192	0
TAP	84	192	6
TAP	84	288	4
TAP	84	288	6
TAP	85	0	4
TAP	85	0	7
TAP	85	96	0
TAP	85	96	7
XTP	85	192	0
XTP	85	192	3
TAP	85	240	1
TAP	85	240	4
XTP	85	288	2
XTP	85	288	5
XTP	86	0	2
XTP	86	0	5
TAP	86	48	1
TAP	86	48	4
XTP	86	96	0
XTP	86	96	3
TAP	86	192	0
TAP	86	192	7
XTP	86	288	0
XTP	86	288	7
TAP	86	336	1
TAP	86	336	6
XTP	87	0	2
XTP	87	0	5
TAP	87	96	2
TAP	87	96	5
XTP	87	192	3
XTP	87	192	4
TAP	87	240	2
TAP	87	240	5
XTP	87	288	1
XTP	87	288	6
TAP	88	0	0
TAP	88	48	0
TAP	88	96	1
TAP	88	144	1
TAP	88	192	2
TAP	88	240	2
TAP	88	288	3
TAP	88	336	3
TAP	89	0	4
TAP	89	48	4
TAP	89	96	5
TAP	89	144	5
TAP	89	192	6
TAP	89	240	6
TAP	89	288	7
TAP	89	336	7
STR	90	0	0
SI_	90	0	0	96	672	4
XTP	91	336	6
STR	92	0	6
SI_	92	0	6	96	672	2
XTP	93	192	0
XTP	93	240	0
XTP	93	288	0
STR	94	0	1
SI_	94	0	1	96	672	5
XTP	95	0	6
XTP	95	336	7
TAP	96	0	7
TAP	96	96	1
TAP	96	96	6
XTP	96	192	0
XTP	96	240	0
XTP	96	288	0
XTP	96	336	0
HLD	97	0	0	192
TAP	98	0	3
TAP	98	0	4
TAP	98	48	3
TAP	98	48	4
TAP	98	96	3
TAP	98	96	4
TTP	98	192	5	B	0	M1
TTP	98	192	5	E	0	M1
TTP	98	288	2	B	0	M1
TTP	98	288	3	E	0	M1
TTP	99	0	6	B	0	M1
TTP	99	0	7	E	0	M1
TTP	99	96	1	B	0	M1
TTP	99	96	1	E	0	M1
TTP	99	192	3	E	0	M1
TTP	99	192	3	B	0	M1
TTP	99	192	4	B	0	M1
TTP	99	192	5	E	0	M1
TAP	99	288	0
TAP	99	288	7
TAP	99	336	0
TAP	99	336	7
TAP	100	0	0
TAP	100	0	7
TTP	100	96	5	B	0	M1
TTP	100	96	5	E	0	M1
TTP	100	96	6	B	0	M1
TTP	100	192	1	B	0	M1
TTP	100	192	2	B	0	M1
TTP	100	192	3	E	0	M1
TAP	100	288	3
TAP	100	288	4
TAP	100	336	3
TAP	100	336	4
TAP	101	0	3
TAP	101	0	4
TAP	101	72	3
TAP	101	72	5
TAP	101	144	2
TAP	101	144	4
TAP	101	192	2
TAP	101	192	4
BRK	101	288	0
TAP	102	0	3
TAP	102	0	4
TAP	102	48	3
TAP	102	48	4
TAP	102	96	3
TAP	102	96	5
TAP	102	144	3
TAP	102	144	5
TAP	102	192	2
TAP	102	192	5
TAP	102	240	2
TAP	102	240	5
TAP	102	288	2
TAP	102	288	6
TAP	102	336	2
TAP	102	336	6
TAP	103	0	1
TAP	103	0	6
TAP	103	48	1
TAP	103	48	6
TAP	103	96	1
TAP	103	96	7
TAP	103	144	1
TAP	103	144	7
TAP	103	192	0
TAP	103	192	7
TAP	103	240	0
TAP	103	240	7
TAP	103	288	0
TAP	103	288	7
TTP	104	0	4	B	0	M1
TTP	104	0	5	B	0	M1
TTP	104	0	6	E	0	M1
TTP	104	96	2	B	0	M1
TTP	104	96	2	E	0	M1
TTP	104	96	3	B	0	M1
TTP	104	192	0	E	0	M1
TTP	104	192	1	E	0	M1
TTP	104	192	7	E	0	M1
TTP	104	288	0	C	1	M1
TTP	104	288	3	E	0	M1
TTP	104	288	5	E	0	M1
XTP	105	48	0
XTP	105	48	7
XTP	105	120	1
XTP	105	120	6
XTP	105	192	2
XTP	105	192	5
XTP	105	264	3
XTP	105	264	4
XHO	105	336	3	48
XHO	105	336	4	48
TTP	107	0	6	E	0	M1
TTP	108	0	2	E	0	M1
THO	109	0	0	816	C	0	M1

T_REC_TAP	311
T_REC_BRK	3
T_REC_XTP	84
T_REC_HLD	31
T_REC_XHO	2
T_REC_STR	31
T_REC_BST	1
T_REC_XST	0
T_REC_TTP	54
T_REC_THO	1
T_REC_SLD	32
T_REC_ALL	550
T_NUM_TAP	480
T_NUM_BRK	4
T_NUM_HLD	34
T_NUM_SLD	32
T_NUM_ALL	550
T_JUDGE_TAP	484
T_JUDGE_HLD	171
T_JUDGE_SLD	32
T_JUDGE_ALL	687
TTM_EACHPAIRS	158
TTM_SCR_TAP	240000
TTM_SCR_BRK	10400
TTM_SCR_HLD	34000
TTM_SCR_SLD	48000
TTM_SCR_ALL	332400
TTM_SCR_S	322050
TTM_SCR_SS	332000
TTM_RAT_ACV	10012

