VERSION	0.00.00	1.03.00
FES_MODE	0
BPM_DEF	190.000	190.000	190.000	190.000
MET_DEF	4	4
RESOLUTION	384
CLK_DEF	384
COMPATIBLE_CODE	MA2

BPM	0	0	190.000
MET	0	0	4	4

HLD	6	0	3	1344
HLD	8	0	4	576
XTP	10	0	4
XTP	10	0	5
TAP	10	192	4
TAP	10	192	5
TAP	11	0	3
TAP	11	96	3
TAP	11	192	3
XTP	12	0	2
XTP	12	0	3
TAP	12	192	2
TAP	12	192	3
TAP	13	0	4
TAP	13	96	4
XTP	13	192	3
XTP	13	192	4
TAP	14	0	2
TAP	14	96	2
TAP	14	192	2
TAP	14	192	4
TAP	15	0	5
TAP	15	96	5
TAP	15	192	3
TAP	15	192	5
TTP	16	0	0	C	1	L1
XTP	18	0	2
TAP	18	96	2
TAP	18	192	3
TAP	18	288	3
TAP	19	0	4
TAP	19	96	4
TAP	19	192	3
TAP	19	192	5
TAP	20	0	5
TAP	20	96	5
TAP	20	192	4
TAP	20	288	4
TAP	21	0	3
TAP	21	96	3
TAP	21	192	2
TAP	21	192	4
TAP	22	0	1
TAP	22	96	1
TAP	22	192	2
TAP	22	288	2
TAP	23	0	3
TAP	23	96	3
TAP	23	192	2
TAP	23	192	5
STR	24	0	3
SI_	24	0	3	96	288	0
STR	24	0	4
SI_	24	0	4	96	288	7
BRK	25	192	1
BRK	25	192	6
HLD	26	0	2	384
HLD	27	0	3	384
HLD	28	0	4	384
TAP	29	0	5
TAP	30	0	4
HLD	30	0	5	384
HLD	31	0	4	384
HLD	32	0	3	384
TAP	33	0	2
STR	34	0	1
SXL	34	0	1	96	672	5
TAP	37	0	6
STR	38	0	6
SXR	38	0	6	96	672	2
TAP	41	0	3
TAP	41	0	4
TTP	42	0	3	B	0	L1
TTP	42	0	4	B	0	L1
TTP	42	192	2	B	0	L1
TTP	42	192	5	B	0	L1
TTP	43	0	1	B	0	L1
TTP	43	0	6	B	0	L1
TTP	44	0	3	B	0	L1
TTP	44	0	4	B	0	L1
TTP	44	192	2	B	0	L1
TTP	44	192	5	B	0	L1
TTP	45	0	1	B	0	L1
TTP	45	0	6	B	0	L1
TTP	46	0	3	E	0	L1
TTP	46	0	5	E	0	L1
TTP	46	192	2	E	0	L1
TTP	46	192	6	E	0	L1
TTP	47	0	1	E	0	L1
TTP	47	0	7	E	0	L1
THO	48	0	0	384	C	0	L1
TTP	50	0	1	E	0	L1
TTP	50	192	0	C	0	L1
TTP	51	0	5	E	0	L1
TTP	51	192	6	E	0	L1
TTP	52	0	7	E	0	L1
TTP	52	192	0	C	0	L1
TTP	53	0	1	B	0	L1
TTP	53	0	6	B	0	L1
TTP	54	0	5	B	0	L1
TTP	54	192	4	B	0	L1
TTP	55	0	3	B	0	L1
TTP	55	192	2	B	0	L1
TTP	55	192	5	B	0	L1
TTP	56	0	1	B	0	L1
TTP	56	0	6	B	0	L1
THO	57	0	0	384	C	1	L1
TTP	62	0	1	E	0	L1
TTP	62	0	7	E	0	L1
TTP	63	0	1	B	0	L1
TTP	63	0	6	B	0	L1
TTP	64	0	2	B	0	L1
TTP	64	0	5	B	0	L1
THO	65	0	0	192	C	0	L1
TAP	66	0	6
TAP	66	96	6
TAP	66	192	5
TAP	67	0	4
TAP	67	96	4
TAP	67	192	3
TAP	68	0	1
TAP	68	96	1
TAP	68	192	2
TAP	69	0	3
TAP	69	96	3
TAP	69	192	2
TAP	69	192	4
TAP	70	0	5
TAP	70	96	5
TAP	70	192	4
TAP	70	288	4
TAP	71	0	3
TAP	71	96	3
TAP	71	192	2
TAP	71	288	2
HLD	72	0	2	576
HLD	72	0	5	576
BRK	74	0	1
BRK	74	0	6
TAP	74	96	2
TAP	74	192	3
TAP	74	288	4
TAP	75	0	3
TAP	75	96	2
TAP	75	96	3
TAP	75	192	1
TAP	75	192	4
TAP	76	0	1
TAP	76	0	6
TAP	76	96	5
TAP	76	192	4
TAP	76	288	3
TAP	77	0	4
TAP	77	96	4
TAP	77	96	5
TAP	77	192	3
TAP	77	192	6
TAP	78	0	2
TAP	78	0	5
TAP	78	96	1
TAP	78	192	0
TAP	78	288	7
TAP	79	0	0
TAP	79	96	0
TAP	79	96	1
TAP	79	192	2
TAP	79	192	7
TAP	80	0	1
TAP	80	0	4
TAP	80	96	1
TAP	80	96	4
TAP	80	192	2
TAP	80	192	3
TAP	80	288	2
TAP	80	288	3
TAP	81	0	4
TAP	81	0	5
TAP	81	96	4
TAP	81	96	5
XTP	81	192	3
XTP	81	192	6
TAP	82	0	6
TAP	82	48	6
TAP	82	96	6
TAP	82	192	4
TAP	82	192	5
TAP	82	288	3
TAP	82	288	4
TAP	83	0	2
TAP	83	96	3
TAP	83	192	1
TAP	83	192	4
TAP	84	0	1
TAP	84	48	1
TAP	84	96	1
TAP	84	192	2
TAP	84	192	3
TAP	84	288	3
TAP	84	288	4
TAP	85	0	5
TAP	85	96	4
TAP	85	192	3
TAP	85	192	6
TAP	86	0	5
TAP	86	48	5
TAP	86	96	5
TAP	86	192	6
TAP	86	192	7
TAP	86	288	0
TAP	87	0	1
TAP	87	96	0
TAP	87	192	2
TAP	87	192	7
STR	88	0	0
SI_	88	0	0	96	288	4
STR	88	0	7
SI_	88	0	7	96	288	3
XTP	89	192	2
XTP	89	192	5
XST	90	0	3
SI_	90	0	3	96	384	1
XST	90	0	4
SI_	90	0	4	96	384	0
XST	92	0	0
SI_	92	0	0	96	384	4
XST	92	0	7
SI_	92	0	7	96	384	5
XHO	94	0	2	384
TAP	94	192	3
TAP	94	288	4
XHO	95	0	5	384
TAP	95	192	4
TAP	95	288	3
TAP	96	0	2
TAP	96	96	2
TAP	96	96	5
TAP	96	192	1
TAP	96	192	6
TAP	96	288	1
TAP	96	288	6
HLD	97	0	0	192
HLD	97	0	7	192
TAP	97	288	1
TAP	97	288	6
XTP	98	0	2
TAP	98	48	2
TAP	98	96	2
TAP	98	192	2
TAP	98	192	3
TAP	98	288	3
TAP	98	288	4
TAP	99	0	4
TAP	99	0	5
TAP	99	96	3
TAP	99	96	6
XTP	99	192	2
XTP	99	192	7
TAP	100	0	6
TAP	100	48	6
TAP	100	96	6
TAP	100	192	4
TAP	100	192	5
TAP	100	288	3
TAP	100	288	4
TAP	101	0	2
TAP	101	0	3
TAP	101	96	1
TAP	101	96	4
XTP	101	192	0
XTP	101	192	5
TAP	102	0	1
TAP	102	48	1
TAP	102	96	1
TAP	102	192	2
TAP	102	192	3
TAP	102	288	4
TAP	102	288	5
TAP	103	0	6
TAP	103	48	6
TAP	103	96	6
TAP	103	192	4
TAP	103	192	5
TAP	103	288	2
TAP	103	288	3
XTP	104	0	0
XTP	104	0	1
XTP	104	48	0
XTP	104	48	1
XTP	104	96	0
XTP	104	96	1
XTP	104	192	6
XTP	104	192	7
XTP	104	240	6
XTP	104	240	7
XTP	104	288	6
XTP	104	288	7
TAP	105	0	0
TAP	105	0	7
TAP	105	96	1
TAP	105	96	6
TAP	105	192	2
TAP	105	192	5
TAP	105	288	3
TAP	105	288	4
BRK	106	0	1
BRK	106	0	6

T_REC_TAP	195
T_REC_BRK	6
T_REC_XTP	28
T_REC_HLD	12
T_REC_XHO	2
T_REC_STR	6
T_REC_BST	0
T_REC_XST	4
T_REC_TTP	40
T_REC_THO	3
T_REC_SLD	10
T_REC_ALL	306
T_NUM_TAP	273
T_NUM_BRK	6
T_NUM_HLD	17
T_NUM_SLD	10
T_NUM_ALL	306
T_JUDGE_TAP	279
T_JUDGE_HLD	156
T_JUDGE_SLD	10
T_JUDGE_ALL	445
TTM_EACHPAIRS	74
TTM_SCR_TAP	136500
TTM_SCR_BRK	15600
TTM_SCR_HLD	17000
TTM_SCR_SLD	15000
TTM_SCR_ALL	184100
TTM_SCR_S	178000
TTM_SCR_SS	183500
TTM_RAT_ACV	10032

