VERSION	0.00.00	1.03.00
FES_MODE	0
BPM_DEF	190.000	190.000	190.000	190.000
MET_DEF	4	4
RESOLUTION	384
CLK_DEF	384
COMPATIBLE_CODE	MA2

BPM	0	0	190.000
MET	0	0	4	4

XTP	10	0	0
TAP	11	0	0
XTP	12	0	7
BRK	13	0	7
TAP	14	0	0
TAP	14	192	0
TAP	15	0	7
TAP	15	192	7
HLD	16	0	1	576
HLD	16	0	6	576
TAP	18	0	1
TAP	18	192	1
TAP	19	0	2
TAP	19	192	2
TAP	20	0	3
TAP	20	192	3
XTP	21	0	4
BRK	21	192	4
TAP	22	0	5
TAP	22	192	5
TAP	23	0	6
TAP	23	192	6
STR	24	0	7
SI_	24	0	7	96	288	3
TAP	26	0	2
TAP	27	0	2
TAP	27	0	3
TAP	28	0	3
TAP	29	0	3
TAP	29	0	4
TAP	30	0	4
TAP	31	0	4
TAP	31	0	5
TAP	32	0	5
TAP	32	192	5
TAP	33	0	5
HLD	34	0	6	384
HLD	36	0	7	384
HLD	38	0	0	384
HLD	40	0	1	384
TTP	42	0	1	E	0	L1
TTP	43	0	1	B	0	L1
TTP	44	0	2	B	0	L1
TTP	45	0	3	B	0	L1
TTP	46	0	4	B	0	L1
TTP	47	0	5	B	0	L1
TTP	48	0	6	B	0	L1
TTP	49	0	7	E	0	L1
TTP	50	0	0	B	0	L1
TTP	50	0	7	B	0	L1
TTP	51	0	1	B	0	L1
TTP	51	0	6	B	0	L1
TTP	52	0	2	B	0	L1
TTP	52	0	5	B	0	L1
TTP	53	0	3	B	0	L1
TTP	53	0	4	B	0	L1
THO	54	0	0	1536	C	1	L1
HLD	62	0	3	192
HLD	62	0	4	192
HLD	63	0	2	192
HLD	63	0	5	192
HLD	64	0	1	192
HLD	64	0	6	192
BRK	65	0	0
BRK	65	0	7
TAP	66	0	1
TAP	66	96	1
TAP	66	192	1
TAP	67	0	2
TAP	67	96	2
TAP	67	192	2
TAP	68	0	3
TAP	68	96	3
TAP	68	192	3
TAP	69	0	4
TAP	69	96	4
TAP	69	192	4
TAP	70	0	5
TAP	70	96	5
TAP	70	192	5
TAP	71	0	6
TAP	71	96	6
TAP	71	192	6
BRK	72	0	0
BRK	72	0	7
TAP	74	0	7
TAP	74	96	7
TAP	74	192	7
TAP	75	0	6
TAP	75	96	6
TAP	75	192	6
TAP	75	192	7
TAP	76	0	5
TAP	76	96	5
TAP	76	192	5
TAP	77	0	4
TAP	77	96	4
TAP	77	192	3
TAP	77	192	4
TAP	78	0	3
TAP	78	96	3
TAP	78	192	3
TAP	79	0	2
TAP	79	96	2
TAP	79	192	2
TAP	79	192	3
TAP	80	0	1
TAP	80	96	1
TAP	80	192	1
TAP	81	0	0
TAP	81	96	0
XTP	81	192	0
XTP	81	192	7
TAP	82	0	0
TAP	82	96	0
TAP	82	192	0
TAP	83	0	1
TAP	83	96	1
TAP	83	192	0
TAP	83	192	1
TAP	84	0	2
TAP	84	96	2
TAP	84	192	2
TAP	85	0	3
TAP	85	96	3
TAP	85	192	3
TAP	85	192	4
TAP	86	0	4
TAP	86	96	4
TAP	86	192	4
TAP	87	0	5
TAP	87	96	5
TAP	87	192	4
TAP	87	192	5
TAP	88	0	6
TAP	88	96	6
TAP	88	192	6
TAP	89	0	7
TAP	89	96	7
BRK	89	192	0
BRK	89	192	7
STR	90	0	0
SI_	90	0	0	96	288	4
XTP	92	0	7
TAP	92	192	7
TAP	93	0	7
STR	94	0	7
SI_	94	0	7	96	288	3
XTP	96	0	0
TAP	96	192	0
BRK	97	0	0
BRK	97	0	7
TAP	98	0	0
TAP	98	96	0
TAP	98	192	1
TAP	98	288	1
TAP	99	0	2
TAP	99	96	2
TAP	99	192	3
TAP	99	288	3
TAP	100	0	4
TAP	100	96	4
TAP	100	192	5
TAP	100	288	5
TAP	101	0	6
TAP	101	96	6
TAP	101	192	0
TAP	101	192	7
TAP	102	0	6
TAP	102	96	6
TAP	102	192	5
TAP	102	288	5
TAP	103	0	4
TAP	103	96	4
TAP	103	192	3
TAP	103	288	3
XTP	104	0	2
XTP	104	96	2
XTP	104	192	1
XTP	104	288	1
STR	105	0	0
SI_	105	0	0	96	288	3
STR	105	0	7
SI_	105	0	7	96	288	4

T_REC_TAP	124
T_REC_BRK	10
T_REC_XTP	11
T_REC_HLD	12
T_REC_XHO	0
T_REC_STR	5
T_REC_BST	0
T_REC_XST	0
T_REC_TTP	16
T_REC_THO	1
T_REC_SLD	5
T_REC_ALL	184
T_NUM_TAP	156
T_NUM_BRK	10
T_NUM_HLD	13
T_NUM_SLD	5
T_NUM_ALL	184
T_JUDGE_TAP	166
T_JUDGE_HLD	112
T_JUDGE_SLD	5
T_JUDGE_ALL	283
TTM_EACHPAIRS	20
TTM_SCR_TAP	78000
TTM_SCR_BRK	26000
TTM_SCR_HLD	13000
TTM_SCR_SLD	7500
TTM_SCR_ALL	124500
TTM_SCR_S	119800
TTM_SCR_SS	123500
TTM_RAT_ACV	10080

