VERSION	0.00.00	1.03.00
FES_MODE	0
BPM_DEF	165.000	165.000	165.000	165.000
MET_DEF	4	4
RESOLUTION	384
CLK_DEF	384
COMPATIBLE_CODE	MA2

BPM	0	0	165.000
MET	0	0	4	4
CLK	0	0
CLK	0	96
CLK	0	192
CLK	0	288

TAP	2	0	3
TAP	2	48	5
TAP	2	72	5
TAP	2	144	2
TAP	2	144	4
TAP	2	192	1
TAP	2	192	3
TAP	2	240	2
TAP	2	288	3
TAP	2	288	5
TAP	3	0	4
TAP	3	48	2
TAP	3	72	2
TAP	3	144	3
TAP	3	144	5
TAP	3	192	4
STR	3	192	6
SI_	3	192	6	96	48	4
TAP	3	288	6
TAP	4	0	3
TAP	4	48	5
TAP	4	72	5
TAP	4	144	2
TAP	4	144	4
TAP	4	192	1
TAP	4	192	3
TAP	4	240	2
TAP	4	288	3
TAP	4	288	5
TAP	5	0	4
TAP	5	48	2
TAP	5	72	2
TAP	5	144	1
TAP	5	144	6
TAP	5	192	0
TAP	5	192	7
TTP	5	288	3	E	0	M1
TTP	5	288	3	B	0	M1
TTP	5	288	4	B	0	M1
TTP	5	288	5	E	0	M1
TAP	6	0	3
TAP	6	0	6
TAP	6	48	5
TAP	6	72	5
TAP	6	144	2
TAP	6	144	4
TAP	6	192	1
TAP	6	192	3
TTP	6	288	6	B	0	M1
TTP	6	288	6	E	0	M1
TTP	6	288	7	B	0	M1
TAP	7	0	1
TAP	7	0	4
TAP	7	48	2
TAP	7	72	2
TAP	7	144	3
TAP	7	144	5
TAP	7	192	4
TAP	7	192	6
TTP	7	288	0	B	0	M1
TTP	7	288	1	B	0	M1
TTP	7	288	2	E	0	M1
TAP	8	0	3
TAP	8	0	4
TTP	8	96	5	B	0	M1
TTP	8	96	5	E	0	M1
TTP	8	96	6	B	0	M1
TTP	8	96	7	E	0	M1
TAP	8	192	0
TAP	8	216	7
TAP	8	240	0
TTP	8	288	1	E	0	M1
TTP	8	288	1	B	0	M1
TTP	8	288	2	B	0	M1
TTP	8	288	3	E	0	M1
TAP	9	0	1
TAP	9	48	2
TAP	9	48	3
TAP	9	96	4
TAP	9	144	1
TAP	9	144	6
TAP	9	192	0
STR	9	192	7
SI_	9	192	7	96	48	3
TAP	9	288	7
TAP	10	0	3
TAP	10	0	4
TAP	10	96	2
TAP	10	96	5
TTP	10	192	1	E	0	M1
TTP	10	216	7	E	0	M1
TTP	10	240	2	B	0	M1
TTP	10	264	5	B	0	M1
TTP	10	288	0	B	0	M1
TTP	10	312	7	B	0	M1
TTP	10	336	2	E	0	M1
TTP	10	360	6	E	0	M1
TTP	11	0	3	B	0	M1
TTP	11	24	4	B	0	M1
TTP	11	48	1	B	0	M1
TTP	11	72	6	B	0	M1
TTP	11	96	2	B	0	M1
TTP	11	120	5	B	0	M1
TTP	11	144	1	E	0	M1
TTP	11	168	7	E	0	M1
TTP	11	192	0	E	0	M1
TAP	11	264	3
TAP	11	264	4
TAP	11	336	3
TAP	11	336	6
TAP	12	24	1
TAP	12	24	4
TAP	12	96	2
TAP	12	96	5
TAP	12	144	2
TAP	12	144	5
TAP	12	192	1
TAP	12	192	3
TAP	12	240	3
TAP	12	240	4
TAP	12	288	4
TAP	12	288	6
TAP	12	336	3
TAP	12	336	4
TTP	13	24	1	E	0	M1
TTP	13	48	7	E	0	M1
TTP	13	72	2	E	0	M1
TTP	13	96	6	E	0	M1
TTP	13	120	3	E	0	M1
TTP	13	144	5	E	0	M1
TAP	13	192	0
TAP	13	192	7
TAP	13	240	1
TAP	13	240	6
TAP	13	288	2
TAP	13	288	5
TAP	14	0	3
TAP	14	0	4
TAP	14	96	2
TAP	14	96	5
TTP	14	192	7	E	0	M1
TTP	14	216	1	E	0	M1
TTP	14	240	5	B	0	M1
TTP	14	264	2	B	0	M1
TTP	14	288	7	B	0	M1
TTP	14	312	0	B	0	M1
TTP	14	336	6	E	0	M1
TTP	14	360	2	E	0	M1
TTP	15	0	4	B	0	M1
TTP	15	24	3	B	0	M1
TTP	15	48	6	B	0	M1
TTP	15	72	1	B	0	M1
TTP	15	96	5	B	0	M1
TTP	15	120	2	B	0	M1
TTP	15	144	7	E	0	M1
TTP	15	168	1	E	0	M1
TTP	15	192	0	E	0	M1
TAP	15	264	3
TAP	15	264	4
TAP	15	336	1
TAP	15	336	4
TAP	16	24	3
TAP	16	24	6
TAP	16	96	2
TAP	16	96	5
TAP	16	144	2
TAP	16	144	5
TAP	16	192	4
TAP	16	192	6
TAP	16	240	3
TAP	16	240	4
TAP	16	288	1
TAP	16	288	3
TAP	16	336	3
TAP	16	336	4
BST	17	0	3
SUR	17	0	3	96	48	0
BST	17	0	4
SUR	17	0	4	96	48	0
STR	17	192	0
SI_	17	192	0	96	48	4
BRK	17	288	0
TAP	18	0	4
TAP	18	0	5
TAP	18	48	6
TAP	18	72	7
TAP	18	120	7
TAP	18	144	0
TAP	18	192	0
TAP	18	216	1
TAP	18	264	1
TAP	18	288	2
TAP	18	336	3
TAP	18	336	4
TAP	19	0	2
TAP	19	0	3
TAP	19	48	1
TAP	19	72	0
TAP	19	120	0
TAP	19	144	7
TAP	19	192	7
TAP	19	216	6
TAP	19	264	6
TAP	19	288	5
TAP	19	336	3
TAP	19	336	4
TAP	20	0	4
TAP	20	0	5
TAP	20	48	6
TAP	20	72	7
TAP	20	120	7
TAP	20	144	0
TAP	20	192	0
TAP	20	216	1
TAP	20	264	1
TAP	20	288	2
TAP	20	336	3
TAP	20	336	4
TAP	21	0	6
TAP	21	24	2
TAP	21	48	4
TAP	21	72	0
STR	21	96	7
SXR	21	96	7	96	120	3
TAP	21	120	3
TAP	21	144	5
TAP	21	168	1
TAP	22	0	2
TAP	22	0	3
TAP	22	48	2
TAP	22	72	0
TAP	22	120	0
TAP	22	144	6
TAP	22	192	6
TAP	22	216	4
TAP	22	264	4
TAP	22	288	2
TAP	22	336	1
TAP	22	336	3
TAP	23	0	4
TAP	23	0	5
TAP	23	48	5
TAP	23	72	7
TAP	23	120	7
TAP	23	144	1
TAP	23	192	1
TAP	23	216	3
TAP	23	264	3
TAP	23	288	5
TAP	23	336	4
TAP	23	336	6
TAP	24	0	2
TAP	24	0	3
TAP	24	48	2
TAP	24	72	0
TAP	24	120	0
TAP	24	144	6
TAP	24	192	6
TAP	24	216	4
TAP	24	264	4
TAP	24	288	2
TAP	24	336	1
TAP	24	336	3
TAP	25	0	0
TAP	25	24	5
TAP	25	48	3
TAP	25	72	7
STR	25	96	1
SI_	25	96	1	96	48	5
TAP	25	120	4
TAP	25	144	2
TAP	25	168	6
BRK	25	288	3
BRK	25	288	7
TAP	26	0	3
TAP	26	0	5
TAP	26	48	4
STR	26	96	2
SCR	26	96	2	96	192	7
TAP	26	96	3
TAP	26	144	4
HLD	26	192	5	192
TAP	27	48	0
TAP	27	72	7
TAP	27	96	1
TAP	27	144	2
TTP	27	192	6	B	0	M1
TTP	27	192	7	B	0	M1
TTP	27	288	2	B	0	M1
TTP	27	288	3	B	0	M1
TAP	28	0	2
TAP	28	0	4
TAP	28	48	3
TAP	28	96	4
STR	28	96	5
SCL	28	96	5	96	192	0
TAP	28	144	3
HLD	28	192	2	192
TAP	29	48	7
TAP	29	72	0
TAP	29	96	6
TAP	29	144	5
TTP	29	192	0	B	0	M1
TTP	29	192	1	B	0	M1
TTP	29	288	4	B	0	M1
TTP	29	288	5	B	0	M1
TTP	30	0	0	B	0	M1
THO	30	0	0	2976	C	1	M1
TTP	30	0	7	B	0	M1
TTP	30	144	1	B	0	M1
TTP	30	144	2	B	0	M1
TTP	30	288	5	B	0	M1
TTP	30	288	6	B	0	M1
TTP	31	48	3	B	0	M1
TTP	31	48	4	B	0	M1
TTP	31	192	6	B	0	M1
TTP	31	192	7	B	0	M1
TTP	31	336	2	B	0	M1
TTP	31	336	3	B	0	M1
XTP	32	48	0
XTP	32	96	0
XTP	32	240	7
XTP	32	288	7
XTP	33	48	1
XTP	33	96	1
XTP	33	240	6
XTP	33	288	6
TAP	34	0	6
TAP	34	96	7
TAP	34	192	0
TAP	34	288	1
TAP	35	0	1
TAP	35	48	1
TAP	35	96	2
TAP	35	144	2
TAP	35	192	3
TAP	35	240	3
TAP	35	288	4
TTP	36	0	3	B	0	M1
TTP	36	0	4	B	0	M1
TTP	36	0	4	E	0	M1
HLD	37	0	4	96
STR	37	192	4
SI_	37	192	4	96	48	0
BRK	37	288	4
TAP	38	0	1
TAP	38	0	7
TAP	38	48	0
TAP	38	72	0
TAP	38	144	5
TAP	38	144	7
STR	38	192	0
SI_	38	192	0	96	48	4
TAP	38	240	6
TAP	38	264	6
TAP	38	312	5
TAP	38	336	5
TAP	39	0	6
TAP	39	24	7
TAP	39	48	5
TAP	39	96	1
TAP	39	120	0
TAP	39	144	2
TAP	39	192	3
TAP	39	192	4
TAP	39	240	6
TAP	39	240	7
TAP	39	288	3
TAP	39	288	4
TAP	39	336	0
TAP	39	336	1
TAP	40	0	2
TAP	40	0	7
TAP	40	48	4
TAP	40	72	4
TAP	40	144	0
TAP	40	144	1
STR	40	192	7
SI_	40	192	7	96	48	3
TAP	40	240	1
TAP	40	264	1
TAP	40	312	2
TAP	40	336	2
TAP	41	0	1
TAP	41	24	0
TAP	41	48	2
TAP	41	96	6
TAP	41	120	7
TAP	41	144	5
TAP	41	192	3
TAP	41	192	4
TAP	41	240	0
TAP	41	240	1
TAP	41	288	3
TAP	41	288	4
TAP	41	336	6
TAP	41	336	7
TAP	42	0	0
TAP	42	0	5
TAP	42	48	2
TAP	42	72	3
TAP	42	96	2
TAP	42	144	1
TAP	42	144	4
TAP	42	192	6
TAP	42	192	7
TAP	42	240	0
TAP	42	240	5
TAP	42	288	1
TAP	42	288	4
TAP	42	336	2
TAP	42	336	3
TAP	43	0	2
TAP	43	24	3
TAP	43	48	1
TAP	43	96	5
TAP	43	120	4
TAP	43	144	6
TAP	43	192	2
TAP	43	192	3
TAP	43	240	1
TAP	43	240	4
TAP	43	288	6
TAP	43	288	7
TAP	43	336	0
TAP	43	336	5
TAP	44	0	0
TAP	44	0	6
TAP	44	48	5
TAP	44	72	4
TAP	44	96	5
STR	44	144	0
SCL	44	144	0	96	48	5
TAP	44	144	1
TAP	44	192	2
TAP	44	240	3
TAP	44	288	4
TAP	45	0	2
TAP	45	0	7
TAP	45	48	1
TAP	45	72	0
TAP	45	96	1
TAP	45	120	0
TAP	45	144	1
TAP	45	192	5
TAP	45	216	4
TAP	45	240	5
TAP	45	264	4
BRK	45	288	3
BRK	45	288	6
TAP	46	0	0
TAP	46	0	6
TAP	46	48	4
TAP	46	72	4
TAP	46	144	0
TAP	46	144	1
STR	46	192	7
SI_	46	192	7	96	48	3
TAP	46	240	1
TAP	46	264	1
TAP	46	312	2
TAP	46	336	2
TAP	47	0	1
TAP	47	24	0
TAP	47	48	2
TAP	47	96	6
TAP	47	120	7
TAP	47	144	5
TAP	47	192	3
TAP	47	192	4
TAP	47	240	0
TAP	47	240	2
TAP	47	288	3
TAP	47	288	4
TAP	47	336	5
TAP	47	336	7
TAP	48	0	6
TAP	48	48	2
TAP	48	72	2
TAP	48	144	6
TAP	48	144	7
STR	48	192	0
SI_	48	192	0	96	48	4
TAP	48	240	6
TAP	48	264	6
TAP	48	312	5
TAP	48	336	5
TAP	49	0	6
TAP	49	24	7
TAP	49	48	5
TAP	49	96	1
TAP	49	120	0
TAP	49	144	2
TAP	49	192	3
TAP	49	192	4
TAP	49	240	5
TAP	49	240	7
TAP	49	288	3
TAP	49	288	4
TAP	49	336	0
TAP	49	336	2
TAP	50	0	1
TAP	50	48	5
TAP	50	72	4
TAP	50	96	5
TAP	50	144	0
TAP	50	144	6
TAP	50	192	7
TAP	50	216	1
TAP	50	240	7
TAP	50	264	2
TAP	50	288	7
TAP	50	312	3
TAP	50	336	7
TAP	51	0	1
TAP	51	0	4
TAP	51	48	2
TAP	51	72	3
TAP	51	96	2
TAP	51	144	1
TAP	51	144	7
TAP	51	192	0
TAP	51	216	6
TAP	51	240	0
TAP	51	264	5
TAP	51	288	0
TAP	51	312	4
TAP	51	336	0
TAP	52	0	2
TAP	52	0	5
TAP	52	48	4
TAP	52	72	3
TAP	52	96	4
TAP	52	144	1
TAP	52	144	6
TAP	52	192	7
TAP	52	216	0
TAP	52	240	6
TAP	52	264	1
TAP	52	288	5
TAP	52	312	2
TAP	52	336	4
TAP	53	0	3
TAP	53	0	5
TAP	53	48	7
TAP	53	72	2
TAP	53	96	5
TAP	53	120	0
TAP	53	144	6
TAP	53	168	1
STR	53	192	4
SI_	53	192	4	96	48	0
TAP	53	240	2
TAP	53	264	2
TAP	53	312	1
TAP	53	336	1
HLD	54	0	7	144
TAP	54	48	0
TAP	54	96	1
HLD	54	144	2	144
TAP	54	192	3
TAP	54	240	4
HLD	54	288	5	96
TAP	54	336	4
HLD	55	0	3	144
TAP	55	48	4
TAP	55	96	5
HLD	55	144	6	144
TAP	55	192	7
TAP	55	240	0
HLD	55	288	1	48
TAP	55	336	0
TAP	56	0	1
TAP	56	0	7
TAP	56	48	7
TAP	56	72	1
TAP	56	120	1
TAP	56	144	3
TAP	56	192	0
TAP	56	192	6
TAP	56	240	0
TAP	56	264	6
TAP	56	312	6
TAP	56	336	4
TAP	57	0	3
TAP	57	24	4
TAP	57	48	3
TAP	57	72	4
TAP	57	96	3
TAP	57	120	4
TAP	57	144	3
TAP	57	168	4
TAP	57	192	2
TAP	57	216	5
TAP	57	240	2
TAP	57	264	5
BRK	57	288	1
BRK	57	288	6
TTP	58	0	1	B	0	M1
TTP	58	0	2	B	0	M1
TTP	58	0	3	B	0	M1
TTP	58	96	4	B	0	M1
TTP	58	96	5	B	0	M1
TTP	58	96	6	B	0	M1
TAP	58	192	0
TAP	58	192	1
TAP	58	264	6
TAP	58	264	7
TAP	58	336	1
TAP	58	336	6
TAP	59	48	3
TAP	59	48	4
TAP	59	96	2
TAP	59	96	5
TAP	59	144	1
TAP	59	144	6
XTP	59	192	0
XTP	59	192	7
XTP	59	240	7
XTP	59	252	6
XTP	59	264	5
XTP	59	276	4
BRK	59	288	3
XTP	59	336	3
TTP	60	0	1	B	0	M1
TTP	60	0	1	E	0	M1
TTP	60	0	2	E	0	M1
TTP	60	96	6	B	0	M1
TTP	60	96	6	E	0	M1
TTP	60	96	7	E	0	M1
TAP	60	192	2
TAP	60	192	3
TAP	60	264	4
TAP	60	264	5
TAP	60	336	1
TAP	60	336	6
STR	61	48	0
SV_	61	48	0	96	48	3
TAP	61	48	7
TAP	61	96	0
STR	61	96	7
SCL	61	96	7	96	144	2
TAP	62	0	1
TAP	62	0	3
TAP	62	48	4
TAP	62	96	3
TAP	62	96	5
TAP	62	144	6
TAP	62	192	6
TAP	62	192	7
TAP	62	264	0
TAP	62	264	1
TAP	62	336	1
TAP	62	336	6
TAP	63	48	4
TAP	63	96	3
TAP	63	96	5
TAP	63	144	2
TAP	63	144	6
TAP	63	192	1
TAP	63	192	7
TAP	63	240	2
TAP	63	288	3
TAP	63	288	4
TAP	63	336	5
TAP	64	0	4
TAP	64	0	6
TAP	64	48	3
TAP	64	96	2
TAP	64	96	4
TAP	64	144	1
TAP	64	192	0
TAP	64	192	1
TAP	64	264	6
TAP	64	264	7
TAP	64	336	2
TAP	64	336	5
TAP	65	48	1
TAP	65	48	7
TAP	65	96	1
TAP	65	96	7
TAP	65	192	0
TAP	65	216	0
TAP	65	240	0
TAP	65	264	0
TAP	65	288	0
TAP	65	312	0
TAP	65	336	0
TAP	66	0	0
TAP	66	0	7
TTP	66	96	1	E	0	M1
TTP	66	96	1	B	0	M1
TTP	66	96	2	B	0	M1
TTP	66	96	3	E	0	M1
TAP	66	192	4
TAP	66	216	3
TAP	66	240	4
TTP	66	288	5	E	0	M1
TTP	66	288	5	B	0	M1
TTP	66	288	6	B	0	M1
TTP	66	288	7	E	0	M1
TAP	67	0	1
TAP	67	0	3
TAP	67	48	2
TAP	67	96	4
TAP	67	96	6
TAP	67	144	5
TAP	67	192	0
STR	67	192	7
SI_	67	192	7	96	48	3
STR	67	288	0
SCR	67	288	0	96	672	7
THO	68	0	0	672	C	1	M1
TAP	70	0	0
TAP	70	48	6
TAP	70	72	7
TAP	70	96	6
TAP	70	144	2
TAP	70	144	4
STR	70	192	0
SI_	70	192	0	96	48	4
TAP	70	240	6
TAP	70	264	6
TAP	70	312	5
TAP	70	336	5
TAP	71	0	1
TAP	71	0	7
TAP	71	48	5
TAP	71	72	4
TAP	71	96	5
TAP	71	144	0
TAP	71	144	6
STR	71	192	7
SI_	71	192	7	96	48	3
TAP	71	240	1
TAP	71	264	1
TAP	71	312	2
TAP	71	336	2
TAP	72	0	3
TAP	72	0	4
TTP	72	96	0	B	0	M1
TTP	72	96	1	B	0	M1
TTP	72	96	1	E	0	M1
TTP	72	96	2	B	0	M1
TTP	72	96	3	B	0	M1
TTP	72	96	3	E	0	M1
TAP	72	192	7
TAP	72	216	0
TAP	72	240	7
TTP	72	288	4	B	0	M1
TTP	72	288	5	E	0	M1
TTP	72	288	5	B	0	M1
TTP	72	288	6	B	0	M1
TTP	72	288	7	B	0	M1
TTP	72	288	7	E	0	M1
HLD	73	0	0	96
TAP	73	0	7
TAP	73	48	2
HLD	73	96	7	96
TAP	73	144	5
STR	73	192	0
SF_	73	192	0	96	48	4
TAP	73	288	0
TAP	74	0	3
TAP	74	0	4
TAP	74	96	2
TAP	74	96	5
TTP	74	192	7	E	0	M1
TTP	74	216	1	E	0	M1
TTP	74	240	5	B	0	M1
TTP	74	264	2	B	0	M1
TTP	74	288	7	B	0	M1
TTP	74	312	0	B	0	M1
TTP	74	336	6	E	0	M1
TTP	74	360	2	E	0	M1
TTP	75	0	4	B	0	M1
TTP	75	24	3	B	0	M1
TTP	75	48	6	B	0	M1
TTP	75	72	1	B	0	M1
TTP	75	96	5	B	0	M1
TTP	75	120	2	B	0	M1
TTP	75	144	7	E	0	M1
TTP	75	168	1	E	0	M1
TTP	75	192	0	E	0	M1
TAP	75	264	3
TAP	75	264	4
TAP	75	336	1
TAP	75	336	4
TAP	76	24	3
TAP	76	24	6
TAP	76	96	2
TAP	76	96	5
TAP	76	144	2
TAP	76	144	5
TAP	76	192	4
TAP	76	192	6
TAP	76	240	3
TAP	76	240	4
TAP	76	288	1
TAP	76	288	3
TAP	76	336	1
TAP	76	336	6
XTP	77	0	0
XTP	77	24	0
XTP	77	48	0
XTP	77	72	0
TAP	77	96	1
TAP	77	120	7
TAP	77	144	2
TAP	77	168	6
TAP	77	192	3
TAP	77	192	5
TAP	77	240	2
TAP	77	240	4
BRK	77	288	1
BRK	77	288	6
TAP	78	0	3
TAP	78	0	4
TAP	78	96	2
TAP	78	96	5
TTP	78	192	1	E	0	M1
TTP	78	216	7	E	0	M1
TTP	78	240	2	B	0	M1
TTP	78	264	5	B	0	M1
TTP	78	288	0	B	0	M1
TTP	78	312	7	B	0	M1
TTP	78	336	2	E	0	M1
TTP	78	360	6	E	0	M1
TTP	79	0	3	B	0	M1
TTP	79	24	4	B	0	M1
TTP	79	48	1	B	0	M1
TTP	79	72	6	B	0	M1
TTP	79	96	2	B	0	M1
TTP	79	120	5	B	0	M1
TTP	79	144	1	E	0	M1
TTP	79	168	7	E	0	M1
TTP	79	192	0	E	0	M1
TAP	79	264	3
TAP	79	264	4
TAP	79	336	3
TAP	79	336	6
TAP	80	24	1
TAP	80	24	4
TAP	80	96	2
TAP	80	96	5
TAP	80	144	1
TAP	80	144	6
TAP	80	192	5
TAP	80	192	7
TAP	80	240	0
TAP	80	240	7
TAP	80	288	0
TAP	80	288	2
TAP	80	336	0
TAP	80	336	7
TAP	81	0	1
TAP	81	0	6
TAP	81	96	2
TAP	81	120	3
TAP	81	144	2
TAP	81	168	3
TAP	81	192	1
TAP	81	216	4
TAP	81	240	1
BRK	81	288	7
BRK	81	336	7
BST	82	0	1
SCR	82	0	1	96	672	7
BST	82	0	6
SCL	82	0	6	96	672	0

T_REC_TAP	628
T_REC_BRK	13
T_REC_XTP	19
T_REC_HLD	11
T_REC_XHO	0
T_REC_STR	21
T_REC_BST	4
T_REC_XST	0
T_REC_TTP	147
T_REC_THO	2
T_REC_SLD	25
T_REC_ALL	870
T_NUM_TAP	815
T_NUM_BRK	17
T_NUM_HLD	13
T_NUM_SLD	25
T_NUM_ALL	870
T_JUDGE_TAP	832
T_JUDGE_HLD	105
T_JUDGE_SLD	25
T_JUDGE_ALL	962
TTM_EACHPAIRS	173
TTM_SCR_TAP	407500
TTM_SCR_BRK	44200
TTM_SCR_HLD	13000
TTM_SCR_SLD	37500
TTM_SCR_ALL	502200
TTM_SCR_S	485500
TTM_SCR_SS	500500
TTM_RAT_ACV	10033

