VERSION	0.00.00	1.03.00
FES_MODE	0
BPM_DEF	165.000	165.000	165.000	165.000
MET_DEF	4	4
RESOLUTION	384
CLK_DEF	384
COMPATIBLE_CODE	MA2

BPM	0	0	165.000
MET	0	0	4	4

TAP	2	0	2
HLD	2	0	4	288
TAP	2	288	3
HLD	3	0	3	288
TAP	3	0	5
TAP	3	288	4
TAP	4	0	1
HLD	4	0	4	288
TAP	4	288	3
HLD	5	0	3	192
TAP	5	0	6
BRK	5	288	3
BRK	5	288	4
TAP	6	0	3
HLD	6	0	6	192
TAP	6	96	4
TAP	6	192	3
XTP	6	288	0
XTP	6	288	7
HLD	7	0	1	192
TAP	7	0	4
TAP	7	96	3
TAP	7	192	4
XTP	7	288	0
XTP	7	288	7
TAP	8	0	3
TAP	8	0	6
XTP	8	96	0
XTP	8	96	7
TAP	8	192	1
TAP	8	192	4
XTP	8	288	0
XTP	8	288	7
TAP	9	0	4
TAP	9	0	5
TAP	9	96	2
TAP	9	96	3
BRK	9	192	1
BRK	9	192	6
TAP	10	0	0
TAP	10	0	1
TAP	10	96	3
TAP	10	96	6
XHO	10	192	6	72
XTP	10	192	7
XTP	10	264	7
XTP	10	336	0
XHO	10	336	1	72
XTP	11	24	0
TAP	11	96	2
TAP	11	144	2
XHO	11	192	1	72
XTP	11	192	3
XTP	11	264	7
XTP	11	336	4
XHO	11	336	6	72
XTP	12	24	0
TAP	12	96	7
TAP	12	144	7
TAP	12	192	0
TAP	12	240	0
TAP	12	288	5
TAP	12	336	5
TAP	13	0	2
TAP	13	48	2
TAP	13	96	0
TAP	13	96	1
BRK	13	192	2
BRK	13	192	7
TAP	14	0	6
TAP	14	0	7
TAP	14	96	1
TAP	14	96	4
XTP	14	192	0
XHO	14	192	1	72
XTP	14	264	0
XHO	14	336	6	72
XTP	14	336	7
XTP	15	24	7
TAP	15	96	5
TAP	15	144	5
XTP	15	192	4
XHO	15	192	6	72
XTP	15	264	0
XHO	15	336	1	72
XTP	15	336	3
XTP	16	24	7
TAP	16	96	0
TAP	16	144	0
TAP	16	192	7
TAP	16	240	7
TAP	16	288	0
TAP	16	336	0
XTP	17	0	1
XTP	17	0	6
STR	17	96	3
SI_	17	96	3	96	48	0
STR	17	96	4
SI_	17	96	4	96	48	7
BRK	17	288	1
BRK	17	288	6
TAP	18	0	2
TAP	18	48	3
STR	18	96	1
SI_	18	96	1	96	48	4
TAP	18	192	5
TAP	18	288	6
TAP	18	288	7
TAP	19	0	5
TAP	19	48	4
STR	19	96	6
SI_	19	96	6	96	48	3
TAP	19	192	2
TAP	19	288	0
TAP	19	288	1
TAP	20	0	2
TAP	20	48	3
STR	20	96	1
SI_	20	96	1	96	48	5
TAP	20	192	4
TAP	20	288	0
TAP	20	288	6
HLD	21	0	7	96
STR	21	96	5
SI_	21	96	5	96	48	1
XTP	21	192	0
BRK	21	288	2
BRK	21	288	7
TAP	22	0	5
TAP	22	48	4
STR	22	96	6
SI_	22	96	6	96	48	3
TAP	22	192	2
TAP	22	288	0
TAP	22	288	1
TAP	23	0	2
TAP	23	48	3
STR	23	96	1
SI_	23	96	1	96	48	4
TAP	23	192	5
TAP	23	288	6
TAP	23	288	7
TAP	24	0	5
TAP	24	48	4
STR	24	96	6
SI_	24	96	6	96	48	2
TAP	24	192	3
TAP	24	288	1
TAP	24	288	7
HLD	25	0	0	96
STR	25	96	2
SUR	25	96	2	96	144	5
BRK	25	192	7
STR	26	0	1
SCR	26	0	1	96	480	5
HLD	26	192	0	144
HLD	27	0	7	192
STR	28	0	5
SCR	28	0	5	96	480	1
HLD	28	192	4	144
HLD	29	0	3	192
HLD	30	0	2	288
TTP	30	144	2	B	0	M1
HLD	30	288	5	288
TTP	31	48	5	B	0	M1
HLD	31	192	1	288
TTP	31	336	1	B	0	M1
XTP	32	48	6
XHO	32	96	6	144
TAP	32	240	4
HLD	32	288	4	192
TAP	33	48	2
HLD	33	96	2	192
TAP	33	240	0
HLD	33	288	0	96
XST	34	0	6
SI_	34	0	6	96	48	3
STR	34	144	2
SI_	34	144	2	96	48	7
STR	34	288	5
SI_	34	288	5	96	48	0
STR	35	48	1
SI_	35	48	1	96	48	4
XTP	35	192	6
TAP	35	288	4
XHO	35	288	5	480
THO	36	0	0	384	C	1	M1
TAP	37	192	0
TAP	37	192	7
BRK	37	288	1
BRK	37	288	6
TAP	38	0	2
TAP	38	48	4
TAP	38	96	6
TAP	38	96	7
TAP	38	192	5
TAP	38	240	3
TAP	38	288	0
TAP	38	288	1
TAP	39	0	1
TAP	39	0	7
TAP	39	48	2
TAP	39	96	3
TAP	39	96	4
TAP	39	144	5
STR	39	192	0
SI_	39	192	0	96	48	4
TAP	39	192	6
BRK	39	288	7
TAP	40	0	5
TAP	40	48	3
TAP	40	96	0
TAP	40	96	1
TAP	40	192	2
TAP	40	240	4
TAP	40	288	6
TAP	40	288	7
TAP	41	0	0
TAP	41	0	6
TAP	41	48	5
TAP	41	96	3
TAP	41	96	4
TAP	41	144	2
TAP	41	192	1
STR	41	192	7
SI_	41	192	7	96	48	3
BRK	41	288	0
HLD	42	0	1	48
HLD	42	48	0	48
HLD	42	96	2	48
HLD	42	144	3	48
HLD	42	192	7	48
HLD	42	240	6	48
STR	42	288	0
SI_	42	288	0	96	48	4
STR	43	0	6
SI_	43	0	6	96	48	3
STR	43	96	2
SI_	43	96	2	96	48	7
XTP	43	192	4
BRK	43	288	0
BRK	43	288	6
TAP	44	0	6
HLD	44	48	6	96
TAP	44	96	4
HLD	44	144	4	96
TAP	44	192	3
HLD	44	240	3	96
TAP	44	288	1
HLD	44	336	1	48
STR	45	0	0
SCL	45	0	0	96	96	3
BRK	45	288	1
BRK	45	288	5
TAP	46	0	2
TAP	46	48	4
TAP	46	96	6
TAP	46	96	7
TAP	46	192	5
TAP	46	240	3
TAP	46	288	0
TAP	46	288	1
TAP	47	0	0
TAP	47	0	6
TAP	47	48	5
TAP	47	96	3
TAP	47	96	4
TAP	47	144	2
TAP	47	192	1
STR	47	192	7
SI_	47	192	7	96	48	3
BRK	47	288	0
TAP	48	0	2
TAP	48	48	4
TAP	48	96	6
TAP	48	96	7
TAP	48	192	5
TAP	48	240	3
TAP	48	288	0
TAP	48	288	1
TAP	49	0	1
TAP	49	0	7
TAP	49	48	2
TAP	49	96	3
TAP	49	96	4
TAP	49	144	5
STR	49	192	0
SI_	49	192	0	96	48	4
TAP	49	192	6
BRK	49	288	7
HLD	50	0	6	48
HLD	50	48	7	48
HLD	50	96	5	48
HLD	50	144	4	48
HLD	50	192	0	48
TAP	50	240	1
BRK	50	288	2
BRK	50	288	7
HLD	51	0	2	48
HLD	51	48	3	48
HLD	51	96	1	48
HLD	51	144	0	48
HLD	51	192	4	48
TAP	51	240	5
BRK	51	288	3
BRK	51	288	6
HLD	52	0	5	48
HLD	52	48	4	48
HLD	52	96	6	48
HLD	52	144	7	48
HLD	52	192	3	48
TAP	52	240	2
BRK	52	288	1
BRK	52	288	4
TAP	53	0	1
TAP	53	0	7
TAP	53	48	2
TAP	53	48	6
STR	53	96	3
SI_	53	96	3	96	48	0
STR	53	96	5
SI_	53	96	5	96	48	0
BRK	53	288	2
BRK	53	288	6
STR	54	0	1
SI_	54	0	1	96	48	4
TAP	54	96	6
STR	54	192	5
SI_	54	192	5	96	48	0
TAP	54	288	2
STR	55	0	1
SI_	55	0	1	96	48	4
TAP	55	96	6
STR	55	192	5
SI_	55	192	5	96	48	0
TAP	55	288	2
TAP	56	0	1
TAP	56	48	1
TAP	56	96	3
TAP	56	144	3
TAP	56	192	4
TAP	56	240	4
TAP	56	288	6
TAP	56	336	6
TAP	57	0	0
TAP	57	24	7
TAP	57	48	0
TAP	57	72	7
TAP	57	96	0
TAP	57	120	7
TAP	57	144	0
TAP	57	168	7
TAP	57	192	0
BRK	57	288	1
BRK	57	288	6
TAP	58	0	0
TAP	58	0	6
TAP	58	96	1
TAP	58	96	7
TTP	58	192	5	B	0	M1
TTP	58	192	6	E	0	M1
TTP	58	192	6	B	0	M1
TTP	58	264	1	B	0	M1
TTP	58	264	2	B	0	M1
TTP	58	264	2	E	0	M1
TTP	58	336	3	B	0	M1
TTP	58	336	4	B	0	M1
TTP	58	336	4	E	0	M1
TAP	59	48	6
TAP	59	96	6
TAP	59	192	4
TAP	59	192	5
BRK	59	288	3
BRK	59	288	6
TAP	60	0	1
TAP	60	0	7
TAP	60	96	0
TAP	60	96	6
TTP	60	192	1	B	0	M1
TTP	60	192	2	B	0	M1
TTP	60	192	2	E	0	M1
TTP	60	264	5	B	0	M1
TTP	60	264	6	B	0	M1
TTP	60	264	6	E	0	M1
TTP	60	336	3	B	0	M1
TTP	60	336	4	B	0	M1
TTP	60	336	4	E	0	M1
TAP	61	48	1
TAP	61	96	1
TTP	61	192	0	C	1	M1
TTP	61	192	2	B	0	M1
TTP	61	192	3	B	0	M1
TTP	61	192	4	B	0	M1
TTP	61	192	5	B	0	M1
TAP	62	0	1
TAP	62	0	7
TAP	62	96	0
TAP	62	96	6
TTP	62	192	1	B	0	M1
TTP	62	192	2	E	0	M1
TTP	62	192	2	B	0	M1
TTP	62	264	5	B	0	M1
TTP	62	264	6	B	0	M1
TTP	62	264	6	E	0	M1
TTP	62	336	3	B	0	M1
TTP	62	336	4	E	0	M1
TTP	62	336	4	B	0	M1
TAP	63	48	1
TAP	63	96	1
TAP	63	192	2
TAP	63	192	3
BRK	63	288	1
BRK	63	288	4
TAP	64	0	0
TAP	64	0	6
TAP	64	96	1
TAP	64	96	7
TTP	64	192	5	B	0	M1
TTP	64	192	6	E	0	M1
TTP	64	192	6	B	0	M1
TTP	64	264	1	B	0	M1
TTP	64	264	2	B	0	M1
TTP	64	264	2	E	0	M1
TTP	64	336	3	B	0	M1
TTP	64	336	4	B	0	M1
TTP	64	336	4	E	0	M1
TAP	65	48	1
TAP	65	48	6
TAP	65	96	1
TAP	65	96	6
TAP	65	192	3
TAP	65	216	4
TAP	65	240	3
TAP	65	264	4
TAP	65	288	3
TAP	65	312	4
TAP	65	336	3
TAP	65	360	4
HLD	66	0	3	192
XTP	66	96	2
HLD	66	192	4	192
XTP	66	288	5
HLD	67	0	3	96
TAP	67	96	1
TAP	67	192	0
TAP	67	192	2
STR	67	288	3
SCR	67	288	3	96	480	1
TAP	67	288	7
HLD	68	0	6	480
XTP	69	192	7
BRK	69	288	1
BRK	69	288	6
TAP	70	0	0
TAP	70	48	1
TAP	70	96	2
TAP	70	96	3
TAP	70	144	4
TAP	70	192	5
TAP	70	240	6
TAP	70	240	7
STR	70	288	0
SI_	70	288	0	96	48	4
TAP	70	288	5
TAP	71	0	7
TAP	71	48	6
TAP	71	96	5
TAP	71	144	3
TAP	71	192	2
TAP	71	240	0
TAP	71	240	1
BRK	71	288	2
BRK	71	288	7
TAP	72	0	6
TAP	72	24	7
TAP	72	48	6
TAP	72	72	7
TAP	72	96	6
TAP	72	192	1
TAP	72	216	0
TAP	72	240	1
TAP	72	264	0
TAP	72	288	1
TAP	73	0	2
TAP	73	0	3
TAP	73	48	1
TAP	73	96	4
TAP	73	96	5
TAP	73	144	6
TAP	73	192	0
TAP	73	192	7
BRK	73	288	1
BRK	73	288	5
TAP	74	0	0
TAP	74	0	1
TAP	74	96	3
TAP	74	96	6
HLD	74	192	6	72
TAP	74	192	7
TAP	74	264	7
TAP	74	336	0
HLD	74	336	1	72
TAP	75	24	0
TAP	75	96	2
TAP	75	144	2
HLD	75	192	1	72
TAP	75	192	3
TAP	75	264	7
TAP	75	336	4
HLD	75	336	6	72
TAP	76	24	0
TAP	76	96	7
TAP	76	144	7
TAP	76	192	1
TAP	76	240	1
TAP	76	288	0
TAP	76	336	0
TAP	77	0	2
TAP	77	24	3
TAP	77	48	2
TAP	77	72	3
TAP	77	96	2
BRK	77	192	1
BRK	77	192	4
TAP	78	0	6
TAP	78	0	7
TAP	78	96	1
TAP	78	96	4
TAP	78	192	0
HLD	78	192	1	72
TAP	78	264	0
HLD	78	336	6	72
TAP	78	336	7
TAP	79	24	7
TAP	79	96	5
TAP	79	144	5
TAP	79	192	4
HLD	79	192	6	72
TAP	79	264	0
HLD	79	336	1	72
TAP	79	336	3
TAP	80	24	7
TAP	80	96	0
TAP	80	144	0
TAP	80	192	6
TAP	80	240	6
TAP	80	288	7
TAP	80	336	7
HLD	81	0	6	96
HLD	81	96	4	96
HLD	81	192	3	96
BST	81	288	1
SF_	81	288	1	96	48	5

T_REC_TAP	298
T_REC_BRK	43
T_REC_XTP	33
T_REC_HLD	58
T_REC_XHO	10
T_REC_STR	31
T_REC_BST	1
T_REC_XST	1
T_REC_TTP	44
T_REC_THO	1
T_REC_SLD	33
T_REC_ALL	553
T_NUM_TAP	407
T_NUM_BRK	44
T_NUM_HLD	69
T_NUM_SLD	33
T_NUM_ALL	553
T_JUDGE_TAP	451
T_JUDGE_HLD	183
T_JUDGE_SLD	33
T_JUDGE_ALL	667
TTM_EACHPAIRS	112
TTM_SCR_TAP	203500
TTM_SCR_BRK	114400
TTM_SCR_HLD	69000
TTM_SCR_SLD	49500
TTM_SCR_ALL	436400
TTM_SCR_S	419050
TTM_SCR_SS	432000
TTM_RAT_ACV	10101

