VERSION	0.00.00	1.03.00
FES_MODE	0
BPM_DEF	165.000	165.000	165.000	165.000
MET_DEF	4	4
RESOLUTION	384
CLK_DEF	384
COMPATIBLE_CODE	MA2

BPM	0	0	165.000
MET	0	0	4	4

HLD	2	0	2	288
TAP	2	192	3
TAP	2	288	3
HLD	3	0	5	288
TAP	3	192	4
TAP	3	288	4
HLD	4	0	2	288
TAP	4	192	3
TAP	4	288	3
HLD	5	0	5	192
TAP	5	192	4
BRK	5	288	3
BRK	5	288	4
TAP	6	0	2
TAP	6	96	2
TAP	6	192	2
TAP	6	288	3
TAP	6	288	4
TAP	7	0	5
TAP	7	96	5
TAP	7	192	5
TAP	7	288	3
TAP	7	288	4
TAP	8	0	2
TAP	8	96	2
TAP	8	96	3
TAP	8	192	1
TAP	8	288	0
TAP	8	288	1
TAP	9	0	7
TAP	9	96	0
TAP	9	96	7
BRK	9	192	1
BRK	9	192	6
TTP	10	0	2	B	0	L1
TTP	10	192	4	B	0	L1
TTP	11	0	6	B	0	L1
TTP	11	192	0	C	0	L1
TTP	12	0	2	B	0	L1
TTP	12	192	4	B	0	L1
THO	13	0	0	192	C	0	L1
TTP	14	0	6	B	0	L1
TTP	14	192	4	B	0	L1
TTP	15	0	2	B	0	L1
TTP	15	192	0	C	0	L1
TTP	16	0	6	B	0	L1
TTP	16	192	4	B	0	L1
TTP	17	0	0	C	1	L1
TAP	18	0	1
TAP	18	96	1
TAP	18	192	0
TAP	18	192	1
TAP	18	288	0
TAP	18	288	1
TAP	19	0	6
TAP	19	96	6
TAP	19	192	6
TAP	19	192	7
TAP	19	288	6
TAP	19	288	7
TAP	20	0	5
TAP	20	96	5
TAP	20	192	4
TAP	20	288	4
TAP	21	0	3
TAP	21	96	3
TAP	21	96	4
BRK	21	192	2
BRK	21	192	5
TAP	22	0	6
TAP	22	96	6
TAP	22	192	6
TAP	22	192	7
TAP	22	288	6
TAP	22	288	7
TAP	23	0	1
TAP	23	96	1
TAP	23	192	0
TAP	23	192	1
TAP	23	288	0
TAP	23	288	1
TAP	24	0	2
TAP	24	96	3
TAP	24	192	4
TAP	24	288	5
TAP	25	0	6
TAP	25	96	0
TAP	25	96	7
BRK	25	192	1
BRK	25	192	6
STR	26	0	0
SCR	26	0	0	96	288	6
XTP	27	96	7
XTP	27	192	7
STR	28	0	7
SCL	28	0	7	96	288	1
XTP	29	96	0
XTP	29	192	0
STR	30	0	1
SI_	30	0	1	96	144	4
STR	30	288	5
SI_	30	288	5	96	144	0
STR	31	192	1
SI_	31	192	1	96	144	4
TAP	32	96	5
TAP	32	288	6
TAP	33	96	7
TAP	33	288	0
STR	34	0	0
SCR	34	0	0	96	144	3
STR	34	288	4
SCR	34	288	4	96	144	7
TAP	35	192	0
TAP	35	288	0
HLD	36	0	1	576
HLD	36	0	6	576
TAP	38	0	0
TAP	38	96	1
TAP	38	96	7
TAP	38	192	2
TAP	38	288	2
TAP	38	288	3
TAP	39	0	4
TAP	39	0	5
TAP	39	96	3
TAP	39	96	6
XTP	39	192	2
XTP	39	192	7
TAP	40	0	0
TAP	40	48	0
TAP	40	96	0
TAP	40	192	6
TAP	40	240	6
TAP	40	288	6
TAP	41	0	0
TAP	41	0	1
TAP	41	96	2
TAP	41	96	3
XTP	41	192	1
XTP	41	192	4
TAP	42	0	7
TAP	42	96	0
TAP	42	96	6
TAP	42	192	5
TAP	42	288	4
TAP	42	288	5
TAP	43	0	2
TAP	43	0	3
TAP	43	96	1
TAP	43	96	4
XTP	43	192	0
XTP	43	192	5
HLD	44	0	6	96
TAP	44	96	4
HLD	44	192	1	96
TAP	44	288	3
STR	45	0	3
SUR	45	0	3	96	144	7
STR	45	0	4
SUL	45	0	4	96	144	0
TAP	46	0	7
TAP	46	96	0
TAP	46	96	6
TAP	46	192	5
TAP	46	288	4
TAP	46	288	5
TAP	47	0	2
TAP	47	0	3
TAP	47	96	1
TAP	47	96	4
XTP	47	192	0
XTP	47	192	5
TAP	48	0	7
TAP	48	48	7
TAP	48	96	7
TAP	48	192	1
TAP	48	240	1
TAP	48	288	1
TAP	49	0	6
TAP	49	0	7
TAP	49	96	4
TAP	49	96	5
XTP	49	192	3
XTP	49	192	6
TAP	50	0	0
TAP	50	96	1
TAP	50	96	7
TAP	50	192	2
TAP	50	288	2
TAP	50	288	3
TAP	51	0	4
TAP	51	0	5
TAP	51	96	3
TAP	51	96	6
TAP	51	192	2
TAP	51	192	7
TAP	51	288	0
TAP	51	288	1
TAP	52	0	0
TAP	52	48	0
TAP	52	96	0
TAP	52	192	6
TAP	52	240	6
TAP	52	288	6
TAP	53	0	0
TAP	53	0	1
TAP	53	96	2
TAP	53	96	3
XTP	53	192	1
XTP	53	192	4
TAP	54	0	5
HLD	54	96	5	96
TAP	54	192	4
HLD	54	288	4	96
TAP	55	0	3
HLD	55	96	3	96
BRK	55	192	2
TAP	56	0	2
TAP	56	48	2
TAP	56	96	2
TAP	56	192	5
TAP	56	240	5
TAP	56	288	5
TAP	57	0	3
TAP	57	48	3
TAP	57	96	3
TAP	57	96	4
BRK	57	192	2
BRK	57	192	5
STR	58	0	0
SI_	58	0	0	96	144	4
STR	58	0	1
SI_	58	0	1	96	144	3
STR	59	0	6
SI_	59	0	6	96	144	4
STR	59	0	7
SI_	59	0	7	96	144	3
STR	60	0	0
SCR	60	0	0	96	144	3
STR	60	0	7
SCL	60	0	7	96	144	4
TAP	61	0	3
TAP	61	0	4
HLD	61	96	2	96
HLD	61	96	5	96
STR	62	0	6
SI_	62	0	6	96	144	4
STR	62	0	7
SI_	62	0	7	96	144	3
STR	63	0	0
SI_	63	0	0	96	144	4
STR	63	0	1
SI_	63	0	1	96	144	3
STR	64	0	0
SCR	64	0	0	96	144	3
STR	64	0	7
SCL	64	0	7	96	144	4
TAP	65	0	3
TAP	65	0	4
TAP	65	96	3
TAP	65	96	4
BRK	65	192	2
BRK	65	192	5
HLD	66	0	2	192
HLD	66	192	3	192
HLD	67	0	4	192
HLD	67	192	5	192
STR	68	0	6
SCL	68	0	6	96	288	0
XTP	69	192	7
XTP	69	288	0
XTP	69	288	7
TAP	70	0	6
TAP	70	96	7
TAP	70	192	0
TAP	70	192	1
TAP	70	288	2
TAP	70	288	3
TAP	71	0	4
TAP	71	96	5
BRK	71	192	6
BRK	71	192	7
TAP	72	0	5
TAP	72	96	4
TAP	72	96	6
TAP	72	192	0
TAP	72	288	1
TAP	72	288	7
TAP	73	0	2
TAP	73	0	3
TAP	73	96	1
TAP	73	96	4
BRK	73	192	0
BRK	73	192	5
TTP	74	0	5	B	0	L1
TTP	74	192	3	B	0	L1
TTP	75	0	1	B	0	L1
TTP	75	192	0	C	0	L1
TTP	76	0	5	B	0	L1
TTP	76	192	3	B	0	L1
THO	77	0	0	192	C	0	L1
TTP	78	0	1	B	0	L1
TTP	78	192	3	B	0	L1
TTP	79	0	5	B	0	L1
TTP	79	192	0	C	0	L1
TTP	80	0	1	B	0	L1
TTP	80	192	3	B	0	L1
THO	81	0	0	384	C	1	L1

T_REC_TAP	183
T_REC_BRK	17
T_REC_XTP	19
T_REC_HLD	17
T_REC_XHO	0
T_REC_STR	22
T_REC_BST	0
T_REC_XST	0
T_REC_TTP	25
T_REC_THO	3
T_REC_SLD	22
T_REC_ALL	308
T_NUM_TAP	249
T_NUM_BRK	17
T_NUM_HLD	20
T_NUM_SLD	22
T_NUM_ALL	308
T_JUDGE_TAP	266
T_JUDGE_HLD	92
T_JUDGE_SLD	22
T_JUDGE_ALL	380
TTM_EACHPAIRS	73
TTM_SCR_TAP	124500
TTM_SCR_BRK	44200
TTM_SCR_HLD	20000
TTM_SCR_SLD	33000
TTM_SCR_ALL	221700
TTM_SCR_S	213400
TTM_SCR_SS	220000
TTM_RAT_ACV	10077

