VERSION	0.00.00	1.03.00
FES_MODE	0
BPM_DEF	165.000	165.000	165.000	165.000
MET_DEF	4	4
RESOLUTION	384
CLK_DEF	384
COMPATIBLE_CODE	MA2

BPM	0	0	165.000
MET	0	0	4	4

XTP	3	288	0
XTP	5	288	0
TAP	6	0	0
TAP	6	192	0
TAP	7	0	1
TAP	7	192	1
TAP	8	0	2
TAP	8	192	2
HLD	9	0	3	192
TAP	10	0	4
TAP	10	192	4
TAP	11	0	4
TAP	11	192	4
TAP	12	0	5
TAP	12	192	5
TAP	13	0	5
XTP	13	192	5
TAP	14	0	6
TAP	14	192	6
TAP	15	0	6
TAP	15	192	6
TAP	16	0	7
TAP	16	192	7
HLD	17	0	0	192
HLD	17	0	7	192
TAP	18	0	6
TAP	18	192	6
TAP	19	0	5
TAP	19	192	5
TAP	20	0	4
TAP	20	192	4
TAP	21	0	3
TAP	21	96	4
XTP	21	192	3
TAP	22	0	2
TAP	22	192	2
TAP	23	0	1
TAP	23	192	1
TAP	24	0	0
TAP	24	192	0
TAP	25	0	7
TAP	25	96	0
XTP	25	192	7
STR	26	0	0
SI_	26	0	0	96	288	3
STR	28	0	7
SI_	28	0	7	96	288	4
TTP	30	0	3	E	0	L1
TTP	30	288	4	E	0	L1
TTP	31	192	5	E	0	L1
TTP	32	96	3	B	0	L1
TTP	32	96	4	B	0	L1
TTP	33	96	2	B	0	L1
TTP	33	96	5	B	0	L1
THO	34	96	0	1056	C	1	L1
TAP	38	0	7
TAP	38	96	7
TAP	38	192	7
TAP	39	0	6
TAP	39	96	6
TAP	39	192	6
TAP	40	0	5
TAP	40	96	5
TAP	40	192	4
TAP	40	288	4
TAP	41	0	3
TAP	41	96	3
XTP	41	192	3
XTP	41	192	4
TAP	42	0	2
TAP	42	96	2
TAP	42	192	2
TAP	43	0	1
TAP	43	96	1
TAP	43	192	1
TAP	44	0	0
TAP	44	96	0
TAP	44	192	7
TAP	44	288	7
HLD	45	0	0	192
TAP	46	0	0
TAP	46	96	0
TAP	46	192	0
TAP	47	0	1
TAP	47	96	1
TAP	47	192	1
TAP	48	0	2
TAP	48	96	2
TAP	48	192	3
TAP	48	288	3
TAP	49	0	4
TAP	49	96	4
XTP	49	192	3
XTP	49	192	4
TAP	50	0	5
TAP	50	96	5
TAP	50	192	5
TAP	51	0	6
TAP	51	96	6
TAP	51	192	6
TAP	52	0	7
TAP	52	96	7
TAP	52	192	7
TAP	53	0	0
TAP	53	96	0
TAP	53	192	0
STR	54	0	1
SI_	54	0	1	96	288	4
STR	56	0	6
SI_	56	0	6	96	288	3
TAP	58	0	0
TAP	58	0	1
TAP	58	192	0
TAP	58	192	1
TAP	59	0	0
TAP	59	96	7
TAP	59	192	0
TAP	60	0	6
TAP	60	0	7
TAP	60	192	6
TAP	60	192	7
TAP	61	0	7
BRK	61	96	7
TAP	62	0	4
TAP	62	0	5
TAP	62	192	4
TAP	62	192	5
TAP	63	0	3
TAP	63	96	4
TAP	63	192	3
TAP	64	0	2
TAP	64	0	3
TAP	64	192	2
TAP	64	192	3
TAP	65	0	3
BRK	65	96	3
XTP	66	0	3
XTP	66	0	5
XTP	66	192	2
XTP	66	192	4
XTP	67	0	4
XTP	67	96	3
XTP	67	192	4
XHO	68	0	2	576
XHO	68	0	5	576
TAP	70	0	1
TAP	70	96	1
TAP	70	192	1
TAP	71	0	0
TAP	71	96	0
TAP	71	192	0
TAP	72	0	7
TAP	72	96	7
TAP	72	192	6
TAP	72	288	6
XTP	73	0	4
XTP	73	0	5
XTP	73	96	4
XTP	73	96	5
BRK	73	192	4
BRK	73	192	5
TAP	74	0	3
TAP	74	96	3
TAP	74	192	3
TAP	75	0	4
TAP	75	96	4
TAP	75	192	4
TAP	76	0	2
TAP	76	0	3
TAP	76	96	2
TAP	76	96	3
TAP	76	192	2
TAP	76	192	3
TAP	77	0	4
TAP	77	0	5
TAP	77	96	4
TAP	77	96	5
TAP	77	192	4
TAP	77	192	5
TAP	78	0	6
TAP	78	96	6
TAP	78	192	7
TAP	78	288	7
TAP	79	0	0
TAP	79	96	0
TAP	79	192	1
TAP	79	288	1
TAP	80	0	2
TAP	80	96	2
TAP	80	192	3
TAP	80	288	3
HLD	81	0	3	192
HLD	81	0	4	192
BRK	82	0	2
BRK	82	0	5

T_REC_TAP	145
T_REC_BRK	6
T_REC_XTP	20
T_REC_HLD	6
T_REC_XHO	2
T_REC_STR	4
T_REC_BST	0
T_REC_XST	0
T_REC_TTP	7
T_REC_THO	1
T_REC_SLD	4
T_REC_ALL	195
T_NUM_TAP	176
T_NUM_BRK	6
T_NUM_HLD	9
T_NUM_SLD	4
T_NUM_ALL	195
T_JUDGE_TAP	182
T_JUDGE_HLD	70
T_JUDGE_SLD	4
T_JUDGE_ALL	256
TTM_EACHPAIRS	25
TTM_SCR_TAP	88000
TTM_SCR_BRK	15600
TTM_SCR_HLD	9000
TTM_SCR_SLD	6000
TTM_SCR_ALL	118600
TTM_SCR_S	114500
TTM_SCR_SS	118000
TTM_RAT_ACV	10050

