VERSION	0.00.00	1.03.00
FES_MODE	0
BPM_DEF	183.000	183.000	183.000	183.000
MET_DEF	4	4
RESOLUTION	384
CLK_DEF	384
COMPATIBLE_CODE	MA2

BPM	0	0	183.000
MET	0	0	4	4

TAP	2	0	2
XHO	2	0	6	192
TAP	2	96	2
TAP	2	192	2
TAP	2	288	5
XHO	2	336	1	144
TAP	2	336	5
TAP	3	48	5
TAP	3	96	4
TAP	3	192	3
TAP	3	192	4
TAP	3	240	2
TAP	3	240	5
BRK	3	288	1
BRK	3	288	6
STR	4	0	0
SI_	4	0	0	96	48	4
TAP	4	0	7
TAP	4	96	6
TAP	4	192	5
TAP	4	240	4
TAP	4	288	5
STR	4	336	3
SI_	4	336	3	96	96	7
TAP	4	336	6
STR	5	48	7
SI_	5	48	7	96	48	1
STR	5	144	6
SI_	5	144	6	96	48	3
TAP	5	240	6
TAP	5	288	7
TAP	6	0	0
TAP	6	0	7
XTP	6	96	1
XTP	6	96	6
STR	6	192	1
SI_	6	192	1	96	48	4
TAP	6	240	0
TAP	6	288	1
STR	6	336	7
SXR	6	336	7	96	192	1
TAP	7	48	0
TAP	7	96	1
TAP	7	144	2
TAP	7	192	3
TAP	7	288	3
TAP	7	312	4
TAP	7	336	3
TAP	8	0	2
STR	8	0	5
SI_	8	0	5	96	48	0
TAP	8	96	1
TAP	8	192	1
TAP	8	240	0
TAP	8	288	1
TAP	8	336	2
STR	8	336	7
SI_	8	336	7	96	48	3
TAP	9	48	1
TAP	9	144	0
STR	9	240	5
SCR	9	240	5	96	240	4
TAP	9	288	5
XTP	9	336	0
TAP	10	336	3
TAP	10	336	4
TAP	11	48	1
TAP	11	48	6
STR	11	96	0
SI_	11	96	0	96	48	3
STR	11	96	7
SI_	11	96	7	96	48	4
BRK	11	192	0
BRK	11	192	7
STR	12	0	1
SCR	12	0	1	96	192	4
TAP	12	0	6
TTP	12	192	2	B	0	M1
TTP	12	288	0	B	0	M1
HLD	13	0	6	96
TTP	13	96	0	C	0	M1
TTP	13	192	3	E	0	M1
TTP	13	192	3	B	0	M1
TTP	13	192	4	B	0	M1
TTP	13	192	5	E	0	M1
TAP	13	288	0
TAP	13	288	7
TAP	14	0	1
STR	14	0	6
SCL	14	0	6	96	192	3
TTP	14	192	0	C	0	M1
HLD	14	288	1	384
TTP	15	0	2	E	0	M1
TTP	15	96	0	E	0	M1
TTP	15	192	0	C	0	M1
TTP	15	288	4	E	0	M1
STR	16	0	1
SCR	16	0	1	96	192	4
TAP	16	0	6
TTP	16	192	2	B	0	M1
TTP	16	288	0	B	0	M1
HLD	17	0	6	96
TTP	17	96	0	C	0	M1
TTP	17	192	3	E	0	M1
TTP	17	192	3	B	0	M1
TTP	17	192	4	B	0	M1
TTP	17	192	5	E	0	M1
STR	17	288	0
SCL	17	288	0	96	288	2
TAP	17	288	7
HLD	18	0	6	288
TAP	19	0	4
TAP	19	24	3
TAP	19	48	4
XTP	19	96	2
XTP	19	96	5
TAP	19	168	3
TAP	19	192	4
TAP	19	240	4
XTP	19	288	2
XTP	19	288	5
TAP	20	0	1
STR	20	0	6
SCL	20	0	6	96	192	3
TTP	20	192	5	B	0	M1
TTP	20	288	7	B	0	M1
HLD	21	0	1	288
TTP	21	96	2	E	0	M1
TTP	21	192	0	C	0	M1
TTP	21	288	6	E	0	M1
HLD	22	0	6	288
TTP	22	96	5	E	0	M1
TTP	22	192	3	E	0	M1
TTP	22	288	0	C	0	M1
TAP	23	0	0
TAP	23	48	0
TAP	23	96	7
TAP	23	144	7
TAP	23	192	1
TAP	23	240	1
TAP	23	288	6
TAP	23	336	6
TAP	24	0	2
TAP	24	48	2
XTP	24	96	1
XTP	24	96	4
TAP	24	168	3
TAP	24	192	4
TAP	24	240	4
XTP	24	288	2
XTP	24	288	5
TAP	24	360	4
TAP	25	0	5
TAP	25	48	5
XTP	25	96	3
XTP	25	96	6
TAP	25	168	4
TAP	25	192	3
TAP	25	240	3
XTP	25	288	2
XTP	25	288	5
TAP	25	360	5
TAP	26	0	3
TAP	26	24	4
TAP	26	48	3
TAP	26	72	4
TAP	26	96	2
TAP	26	120	5
TAP	26	144	2
TAP	26	168	5
TAP	26	192	1
TAP	26	216	6
TAP	26	240	1
TAP	26	264	6
TAP	26	288	1
XTP	26	336	0
XTP	26	336	7
TTP	27	48	6	B	0	M1
TTP	27	48	7	B	0	M1
TTP	27	48	7	E	0	M1
TTP	27	96	1	B	0	M1
TTP	27	96	2	B	0	M1
TTP	27	96	2	E	0	M1
TTP	27	144	4	B	0	M1
TTP	27	144	5	E	0	M1
TTP	27	144	5	B	0	M1
TTP	27	192	0	C	1	M1
STR	28	0	6
SI_	28	0	6	96	48	3
TAP	28	0	7
TAP	28	96	0
TAP	28	192	0
STR	28	192	1
SI_	28	192	1	96	48	4
TAP	28	288	7
STR	29	0	6
SI_	29	0	6	96	48	3
TAP	29	0	7
TAP	29	96	0
STR	29	192	6
SI_	29	192	6	96	48	3
TAP	29	192	7
TAP	29	288	0
STR	30	0	2
SCR	30	0	2	96	96	5
STR	30	96	5
SCR	30	96	5	96	96	0
STR	30	192	0
SI_	30	192	0	96	96	4
STR	30	288	4
SI_	30	288	4	96	96	0
TAP	31	0	7
TAP	31	96	7
XTP	31	192	0
XTP	31	192	7
XTP	31	240	0
XTP	31	240	7
XTP	31	288	1
XTP	31	288	6
STR	32	0	2
SI_	32	0	2	96	48	7
TAP	32	0	3
TAP	32	96	4
TAP	32	192	4
STR	32	192	5
SI_	32	192	5	96	48	0
TAP	32	288	3
STR	33	0	2
SI_	33	0	2	96	48	7
TAP	33	0	3
TAP	33	96	4
STR	33	192	2
SI_	33	192	2	96	48	7
TAP	33	192	3
TAP	33	288	4
STR	34	0	5
SUR	34	0	5	96	48	1
TAP	34	96	3
STR	34	192	2
SCL	34	192	2	96	96	6
STR	34	288	6
SCL	34	288	6	96	96	2
TAP	35	192	0
TAP	35	192	7
XTP	35	288	1
XTP	35	288	6
BRK	36	0	0
BRK	36	0	1
BRK	36	72	3
BRK	36	72	6
BST	36	144	2
SLR	36	144	2	96	96	1
BST	36	144	7
SLL	36	144	7	96	96	0
XTP	37	0	6
XTP	37	0	7
XTP	37	72	1
XTP	37	72	4
XST	37	144	0
SLR	37	144	0	96	96	6
XST	37	144	5
SLL	37	144	5	96	96	7
XTP	38	0	0
XTP	38	0	1
XTP	38	72	3
XTP	38	72	4
XST	38	144	2
SLR	38	144	2	96	96	1
XST	38	144	6
SLR	38	144	6	96	96	5
TAP	39	0	0
TAP	39	96	1
TAP	39	96	3
TAP	39	144	2
TAP	39	240	3
STR	39	240	7
SCL	39	240	7	96	144	1
TTP	39	336	0	C	1	M1
XTP	40	96	7
BRK	40	192	1
BRK	40	192	5
TTP	41	0	0	C	1	M1
TTP	41	96	0	E	0	M1
TTP	41	96	4	E	0	M1
TTP	41	192	0	C	1	M1
TTP	41	192	1	B	0	M1
TTP	41	192	2	E	0	M1
TTP	41	192	2	B	0	M1
TTP	41	192	5	B	0	M1
TTP	41	192	6	B	0	M1
TTP	41	192	6	E	0	M1
TAP	41	288	0
STR	41	336	7
SI_	41	336	7	96	48	3
TAP	42	48	7
TAP	42	96	0
XTP	42	192	1
XTP	42	192	5
TAP	42	288	0
TAP	42	288	6
TAP	42	336	1
TAP	43	0	2
BST	43	0	3
SI_	43	0	3	96	48	7
BST	43	96	1
SI_	43	96	1	96	48	5
BST	43	192	0
SCL	43	192	0	96	48	5
TAP	43	288	2
STR	43	336	2
SXR	43	336	2	96	192	7
TAP	44	48	6
STR	44	96	6
SI_	44	96	6	96	48	3
BRK	44	192	6
XTP	44	288	1
XTP	44	288	5
TAP	45	0	0
TAP	45	0	6
TAP	45	48	5
TAP	45	72	4
TAP	45	96	5
TAP	45	144	3
TAP	45	192	2
TAP	45	192	3
TAP	45	240	1
TAP	45	264	0
TAP	45	288	1
TAP	45	336	7
TAP	46	0	6
TAP	46	0	7
TAP	46	48	5
TAP	46	72	4
TAP	46	96	5
TAP	46	144	3
TAP	46	192	2
TAP	46	192	3
TAP	46	240	1
BRK	46	288	0
BST	46	288	1
SI_	46	288	1	96	96	4
STR	47	0	4
SI_	47	0	4	96	96	7
STR	47	96	7
SI_	47	96	7	96	96	2
TAP	47	192	2
STR	47	288	5
SCR	47	288	5	96	144	3
TAP	47	336	5
TAP	48	192	7
BRK	48	288	1
BRK	48	288	5
TTP	49	0	0	C	1	M1
TTP	49	96	0	E	0	M1
TTP	49	96	4	E	0	M1
TTP	49	192	0	C	1	M1
TTP	49	192	1	B	0	M1
TTP	49	192	2	E	0	M1
TTP	49	192	2	B	0	M1
TTP	49	192	5	B	0	M1
TTP	49	192	6	E	0	M1
TTP	49	192	6	B	0	M1
TAP	49	288	7
STR	49	336	0
SI_	49	336	0	96	48	4
TAP	50	48	0
TAP	50	96	7
XTP	50	192	2
XTP	50	192	6
TAP	50	288	1
TAP	50	288	7
TAP	50	336	6
STR	51	0	4
SI_	51	0	4	96	48	0
TAP	51	0	5
STR	51	96	6
SI_	51	96	6	96	48	2
STR	51	192	7
SCR	51	192	7	96	48	2
TAP	51	288	5
STR	51	336	5
SXL	51	336	5	96	192	0
TAP	52	48	1
STR	52	96	1
SI_	52	96	1	96	48	4
BRK	52	192	1
XTP	52	288	2
XTP	52	288	6
TAP	53	0	4
HLD	53	0	5	96
TAP	53	96	7
TAP	53	144	0
TAP	53	144	6
TAP	53	240	0
TAP	53	240	1
TAP	53	288	2
TAP	53	288	7
HLD	54	0	2	96
TAP	54	0	3
TAP	54	96	0
TAP	54	144	1
TAP	54	144	7
TAP	54	240	1
TAP	54	240	3
TAP	54	336	0
TAP	54	336	7
TAP	55	24	4
TAP	55	24	6
TAP	55	96	2
TAP	55	96	4
TAP	55	168	1
TAP	55	168	7
TAP	55	240	0
HLD	55	240	5	96
XTP	55	336	0
XTP	55	360	1
XTP	56	0	2
XTP	56	24	3
XTP	56	48	4
XTP	56	72	5
XTP	56	96	6
XTP	56	120	7
XTP	56	144	0
XTP	56	168	1
XHO	56	192	2	192
XHO	56	192	6	192
HLD	58	0	5	384
TAP	58	96	4
TAP	58	192	3
TAP	58	288	2
HLD	59	0	1	384
TAP	59	96	2
TAP	59	192	3
TAP	59	288	4
STR	60	0	5
SCL	60	0	5	96	192	2
STR	60	192	2
SCL	60	192	2	96	192	7
STR	61	0	7
SCL	61	0	7	96	192	4
SUL	61	0	7	96	192	3
HLD	62	0	1	384
TAP	62	96	2
TAP	62	192	3
TAP	62	288	4
HLD	63	0	5	288
TAP	63	96	4
TAP	63	192	3
STR	63	288	2
SCR	63	288	2	96	384	1
HLD	64	0	6	384
TAP	65	96	5
TAP	65	192	4
TAP	65	288	3
HLD	66	0	2	384
TAP	66	96	1
TAP	66	192	0
TAP	66	288	7
HLD	67	0	6	288
TAP	67	96	7
TAP	67	192	0
TAP	67	288	1
STR	68	0	2
SCR	68	0	2	96	192	5
STR	68	192	5
SI_	68	192	5	96	192	1
STR	69	0	1
SCL	69	0	1	96	192	6
SCR	69	0	1	96	192	4
HLD	70	0	4	96
HLD	70	0	5	192
HLD	70	192	2	192
TAP	70	288	3
TAP	71	0	5
TAP	71	96	4
TAP	71	96	5
TAP	71	192	3
TAP	71	288	3
TAP	71	288	4
TAP	72	0	2
TAP	72	48	2
TAP	72	96	5
TAP	72	144	5
TAP	72	192	3
TAP	72	216	4
TAP	72	240	3
TAP	72	264	4
TAP	72	288	3
TAP	72	312	4
TAP	72	336	3
TAP	73	48	3
TAP	73	48	5
TAP	73	144	1
TAP	73	144	3
TAP	73	192	0
TAP	73	192	7
STR	73	288	1
SI_	73	288	1	96	48	3
STR	73	288	6
SI_	73	288	6	96	48	4
TTP	74	96	0	C	0	M1
TTP	74	192	1	E	0	M1
TTP	74	192	5	E	0	M1
TTP	74	288	3	E	0	M1
TTP	74	288	7	E	0	M1
HLD	75	0	1	144
TAP	75	144	3
TAP	75	192	2
TAP	75	192	3
TAP	75	288	6
TAP	75	336	4
TAP	75	336	5
TAP	76	48	3
TAP	76	72	4
TAP	76	96	3
TAP	76	144	3
TAP	76	192	3
TAP	76	240	3
BRK	76	288	1
BRK	76	288	6
TAP	77	0	5
BST	77	0	7
SCR	77	0	7	96	48	2
BST	77	96	6
SI_	77	96	6	96	48	2
TAP	77	96	7
BST	77	192	4
SI_	77	192	4	96	48	1
TAP	77	192	6
TAP	77	288	6
STR	77	336	6
SXR	77	336	6	96	192	3
TAP	78	48	2
STR	78	96	2
SI_	78	96	2	96	48	7
BRK	78	192	2
XTP	78	288	1
XTP	78	288	5
TAP	79	0	0
TAP	79	0	1
TAP	79	48	1
TAP	79	72	3
TAP	79	96	2
TAP	79	120	4
TAP	79	144	3
TAP	79	192	4
TAP	79	192	5
TAP	79	240	6
TAP	79	264	0
TAP	79	288	7
TAP	79	312	0
TAP	79	336	7
TAP	80	0	0
TAP	80	0	1
TAP	80	48	1
TAP	80	72	3
TAP	80	96	2
TAP	80	120	4
TAP	80	144	3
TAP	80	192	4
TAP	80	192	5
TAP	80	240	6
BST	80	288	0
SI_	80	288	0	96	96	3
BRK	80	288	7
STR	81	0	3
SI_	81	0	3	96	96	6
STR	81	96	6
SI_	81	96	6	96	96	1
TAP	81	192	1
STR	81	288	4
SCR	81	288	4	96	144	2
TAP	81	336	4
TAP	82	192	0
BRK	82	288	2
BRK	82	288	6
TTP	83	0	0	C	1	M1
TTP	83	96	0	E	0	M1
TTP	83	96	4	E	0	M1
TTP	83	192	0	C	1	M1
TTP	83	192	1	B	0	M1
TTP	83	192	2	E	0	M1
TTP	83	192	2	B	0	M1
TTP	83	192	5	B	0	M1
TTP	83	192	6	B	0	M1
TTP	83	192	6	E	0	M1
TAP	83	288	0
STR	83	336	7
SI_	83	336	7	96	48	3
TAP	84	48	7
TAP	84	96	0
XTP	84	192	1
XTP	84	192	5
TAP	84	288	0
TAP	84	288	6
TAP	84	336	1
STR	85	0	0
SCL	85	0	0	96	48	5
TAP	85	0	2
TAP	85	96	0
STR	85	96	1
SI_	85	96	1	96	48	5
TAP	85	192	1
STR	85	192	3
SI_	85	192	3	96	48	6
TAP	85	288	1
STR	85	336	1
SXL	85	336	1	96	192	4
TAP	86	48	5
STR	86	96	5
SI_	86	96	5	96	48	0
BRK	86	192	5
XTP	86	288	2
XTP	86	288	6
HLD	87	0	2	96
TAP	87	0	3
TAP	87	96	0
TAP	87	144	1
TAP	87	144	7
TAP	87	240	3
TAP	87	240	4
TAP	87	288	2
TAP	87	288	5
HLD	88	0	6	96
TAP	88	0	7
TAP	88	96	4
TAP	88	144	3
TAP	88	144	5
TAP	88	240	0
TAP	88	240	7
TAP	88	336	0
TAP	88	336	6
TAP	89	24	4
TAP	89	24	5
TAP	89	96	2
TAP	89	96	4
TAP	89	168	1
TAP	89	168	7
TAP	89	240	0
HLD	89	240	6	96
XTP	89	336	0
XTP	89	360	1
XTP	90	0	2
XTP	90	24	3
XTP	90	48	4
XTP	90	72	5
XTP	90	96	6
XTP	90	120	7
XTP	90	144	0
XTP	90	168	1
XHO	90	192	2	144
BRK	90	192	6
XTP	90	336	6
XTP	90	360	5
XTP	91	0	4
XTP	91	24	3
XTP	91	48	2
XTP	91	72	1
XTP	91	96	0
XTP	91	120	7
XTP	91	144	6
XTP	91	168	5
BRK	91	192	0
XHO	91	192	4	288
XTP	92	0	0
XTP	92	96	0
XTP	92	192	0
XTP	92	204	1
XTP	92	216	2
XTP	92	228	3
XTP	92	240	4
XTP	92	252	5
XTP	92	264	6
XTP	92	276	7
BRK	92	288	0
BRK	92	288	4
TAP	93	0	0
STR	93	0	7
SI_	93	0	7	96	48	3
TAP	93	96	1
TAP	93	96	7
TAP	93	192	2
TAP	93	240	3
TAP	93	288	2
TAP	93	336	1
STR	93	336	4
SI_	93	336	4	96	96	0
STR	94	48	0
SI_	94	48	0	96	48	6
STR	94	144	1
SI_	94	144	1	96	48	4
TAP	94	240	1
TAP	94	288	0
TAP	95	0	0
TAP	95	0	7
XTP	95	96	1
XTP	95	96	6
STR	95	192	6
SI_	95	192	6	96	48	3
TAP	95	240	7
TAP	95	288	6
STR	95	336	0
SXL	95	336	0	96	192	6
TAP	96	48	7
TAP	96	96	6
TAP	96	144	5
TAP	96	192	4
TAP	96	288	4
TAP	96	312	3
TAP	96	336	4
STR	97	0	2
SI_	97	0	2	96	48	7
TAP	97	0	5
TAP	97	96	6
TAP	97	192	6
TAP	97	240	7
TAP	97	288	6
STR	97	336	0
SI_	97	336	0	96	48	4
TAP	97	336	5
TAP	98	48	6
TAP	98	144	7
STR	98	240	2
SCL	98	240	2	96	240	3
TAP	98	288	2
XTP	98	336	7
TAP	99	336	2
TAP	99	336	6
TAP	100	48	1
TAP	100	48	5
STR	100	96	0
SCR	100	96	0	96	48	3
STR	100	96	4
SCR	100	96	4	96	48	7
BRK	100	192	0
BRK	100	192	4
TAP	100	336	0
TAP	100	336	4
TAP	101	48	3
TAP	101	48	7
STR	101	96	0
SI_	101	96	0	96	48	4
STR	101	96	6
SI_	101	96	6	96	48	2
BRK	101	192	0
BRK	101	192	6
TTP	101	216	0	C	1	M1

T_REC_TAP	339
T_REC_BRK	30
T_REC_XTP	91
T_REC_HLD	23
T_REC_XHO	6
T_REC_STR	77
T_REC_BST	10
T_REC_XST	4
T_REC_TTP	74
T_REC_THO	0
T_REC_SLD	93
T_REC_ALL	747
T_NUM_TAP	585
T_NUM_BRK	40
T_NUM_HLD	29
T_NUM_SLD	93
T_NUM_ALL	747
T_JUDGE_TAP	625
T_JUDGE_HLD	131
T_JUDGE_SLD	93
T_JUDGE_ALL	849
TTM_EACHPAIRS	136
TTM_SCR_TAP	292500
TTM_SCR_BRK	104000
TTM_SCR_HLD	29000
TTM_SCR_SLD	139500
TTM_SCR_ALL	565000
TTM_SCR_S	544200
TTM_SCR_SS	561000
TTM_RAT_ACV	10071

