VERSION	0.00.00	1.03.00
FES_MODE	0
BPM_DEF	183.000	183.000	183.000	183.000
MET_DEF	4	4
RESOLUTION	384
CLK_DEF	384
COMPATIBLE_CODE	MA2

BPM	0	0	183.000
MET	0	0	4	4

HLD	2	0	2	336
HLD	2	0	5	336
TAP	3	192	3
TAP	3	192	4
XTP	3	288	1
XTP	3	288	6
TAP	4	0	2
TAP	4	96	1
TAP	4	96	7
TAP	4	192	3
TAP	4	288	1
TAP	4	288	7
TAP	5	0	5
TAP	5	96	0
TAP	5	96	6
TAP	5	192	4
TAP	5	288	0
TAP	5	288	6
TAP	6	0	2
TAP	6	96	1
TAP	6	96	7
TAP	6	192	5
TAP	6	288	0
TAP	6	288	6
TAP	7	0	3
TAP	7	0	4
TAP	7	96	2
TAP	7	96	5
XTP	7	192	1
XTP	7	192	6
TAP	8	0	6
TAP	8	96	3
TAP	8	96	5
TAP	8	192	7
TAP	8	288	3
TAP	8	288	5
TAP	9	0	1
TAP	9	96	2
TAP	9	96	4
TAP	9	192	0
TAP	9	288	2
TAP	9	288	4
XHO	9	336	2	384
XTP	9	336	4
XTP	10	24	5
XTP	10	96	6
XTP	10	168	7
XTP	10	240	0
XST	10	336	1
SCR	10	336	1	96	96	6
BRK	11	192	7
TTP	12	0	0	B	0	M1
TTP	12	96	0	C	0	M1
TTP	12	192	3	B	0	M1
TTP	12	192	5	E	0	M1
TTP	13	0	7	B	0	M1
TTP	13	96	0	C	0	M1
TTP	13	192	3	E	0	M1
TTP	13	192	4	B	0	M1
TTP	14	0	6	E	0	M1
TTP	14	96	7	B	0	M1
TTP	14	192	0	B	0	M1
TTP	14	288	2	E	0	M1
TTP	15	0	3	B	0	M1
TTP	15	0	4	B	0	M1
TTP	15	96	2	B	0	M1
TTP	15	96	5	B	0	M1
TTP	15	192	1	B	0	M1
TTP	15	192	6	B	0	M1
TTP	16	0	0	B	0	M1
TTP	16	96	0	C	0	M1
TTP	16	192	3	B	0	M1
TTP	16	192	5	E	0	M1
TTP	17	0	7	B	0	M1
TTP	17	96	0	C	0	M1
TTP	17	192	3	E	0	M1
TTP	17	192	4	B	0	M1
THO	18	0	0	384	C	0	M1
XTP	19	96	7
XST	19	144	7
SI_	19	144	7	96	96	3
TTP	20	0	0	B	0	M1
TTP	20	96	0	C	0	M1
TTP	20	192	3	B	0	M1
TTP	20	192	5	E	0	M1
TTP	21	0	7	B	0	M1
TTP	21	96	0	C	0	M1
TTP	21	192	3	E	0	M1
TTP	21	192	4	B	0	M1
TTP	22	0	6	E	0	M1
TTP	22	96	7	B	0	M1
TTP	22	192	0	B	0	M1
TTP	22	288	2	E	0	M1
TAP	23	0	3
TAP	23	0	4
TAP	23	96	2
TAP	23	96	5
TAP	23	192	1
TAP	23	192	6
TAP	23	288	0
TAP	23	288	7
TAP	24	0	1
TAP	24	96	2
TAP	24	96	4
TAP	24	192	1
TAP	24	288	2
TAP	24	288	4
TAP	25	0	6
TAP	25	96	3
TAP	25	96	5
TAP	25	192	6
STR	25	288	3
SXR	25	288	3	96	240	0
STR	25	288	5
SXL	25	288	5	96	240	0
HLD	26	336	7	144
XTP	27	48	0
XTP	27	96	0
BRK	27	192	2
BRK	27	192	5
TAP	28	0	0
TAP	28	96	1
TAP	28	96	3
TAP	28	192	0
TAP	28	288	1
TAP	28	288	3
TAP	29	0	4
TAP	29	96	5
TAP	29	192	6
TAP	29	192	7
TAP	30	0	7
TAP	30	96	4
TAP	30	96	6
TAP	30	192	7
TAP	30	288	4
TAP	30	288	6
TAP	31	0	3
TAP	31	96	2
TAP	31	192	0
TAP	31	192	1
TAP	32	0	0
TAP	32	96	1
TAP	32	96	3
TAP	32	192	0
TAP	32	288	1
TAP	32	288	3
TAP	33	0	7
TAP	33	96	4
TAP	33	96	6
TAP	33	192	7
TAP	33	288	4
TAP	33	288	6
TAP	34	0	4
STR	34	0	5
SCR	34	0	5	96	48	7
TAP	34	192	0
STR	34	192	1
SCR	34	192	1	96	48	3
TAP	35	0	4
TAP	35	96	3
TAP	35	96	5
BRK	35	192	2
BRK	35	192	6
TAP	36	0	2
TAP	36	0	3
STR	36	72	2
SSL	36	72	2	96	144	6
TAP	36	72	3
TAP	36	144	2
TAP	36	144	3
TAP	37	0	4
TAP	37	0	5
STR	37	72	4
SUL	37	72	4	96	168	1
TAP	37	72	5
TAP	37	144	4
TAP	37	144	5
TAP	38	0	0
TAP	38	0	7
STR	38	72	0
SI_	38	72	0	96	120	4
STR	38	72	7
SI_	38	72	7	96	120	3
TAP	38	144	0
TAP	38	144	7
HLD	39	0	2	96
HLD	39	0	3	96
HLD	39	144	4	96
HLD	39	144	5	96
XST	39	336	1
SCR	39	336	1	96	144	6
XTP	39	336	6
BRK	40	288	0
BRK	40	288	7
TAP	41	0	3
TAP	41	0	4
TAP	41	96	0
TAP	41	96	1
TAP	41	192	3
TAP	41	192	4
TAP	41	288	6
TAP	41	288	7
TAP	41	336	6
STR	41	336	7
SI_	41	336	7	96	72	3
BRK	42	192	1
BRK	42	192	5
TAP	43	0	3
TAP	43	0	4
TAP	43	96	6
TAP	43	96	7
TAP	43	192	3
TAP	43	192	4
TAP	43	288	0
TAP	43	288	1
STR	43	336	0
SUR	43	336	0	96	144	6
STR	43	336	1
SCR	43	336	1	96	144	5
TAP	44	288	0
TAP	44	288	7
TAP	45	0	1
TAP	45	96	2
TAP	45	96	3
TAP	45	192	6
TAP	45	240	6
TAP	45	336	4
TAP	45	336	5
HLD	46	48	3	96
HLD	46	144	2	96
TAP	46	240	1
TAP	46	288	1
TAP	47	0	0
STR	47	0	7
SI_	47	0	7	96	48	3
STR	47	192	0
SI_	47	192	0	96	48	4
TAP	47	192	7
TAP	48	0	2
TAP	48	48	2
TAP	48	96	5
TAP	48	144	5
BRK	48	192	1
BRK	48	192	6
TAP	49	0	3
TAP	49	0	4
TAP	49	96	6
TAP	49	96	7
TAP	49	192	3
TAP	49	192	4
TAP	49	288	0
TAP	49	288	1
STR	49	336	0
SI_	49	336	0	96	72	4
TAP	49	336	1
BRK	50	192	2
BRK	50	192	6
TAP	51	0	3
TAP	51	0	4
TAP	51	96	0
TAP	51	96	1
TAP	51	192	3
TAP	51	192	4
TAP	51	288	6
TAP	51	288	7
STR	51	336	6
SCL	51	336	6	96	144	2
STR	51	336	7
SUL	51	336	7	96	144	1
TAP	52	288	0
TAP	52	288	7
TAP	53	0	3
TAP	53	0	4
TAP	53	96	5
HLD	53	144	5	96
TAP	53	240	6
HLD	53	288	6	96
TAP	54	0	7
TAP	54	96	0
TAP	54	96	1
HLD	54	144	0	96
HLD	54	144	1	96
XHO	54	336	2	384
XTP	55	24	4
XTP	55	96	4
XTP	55	168	6
XTP	55	240	6
XST	55	336	0
SCL	55	336	0	96	96	3
BRK	56	192	0
TTP	57	0	0	C	0	M1
HLD	58	0	2	384
TAP	58	0	3
TTP	58	192	3	B	0	M1
HLD	59	0	3	384
TTP	59	192	3	B	0	M1
HLD	60	0	4	384
TTP	60	192	4	B	0	M1
HLD	61	0	5	192
TTP	61	192	4	B	0	M1
TAP	62	0	4
HLD	62	0	5	384
TTP	62	192	0	C	0	M1
HLD	63	0	4	384
TTP	63	192	0	C	0	M1
HLD	64	0	3	384
TTP	64	192	0	C	0	M1
HLD	65	0	2	192
TTP	65	192	0	C	0	M1
TAP	66	0	2
TAP	66	0	3
TAP	66	96	2
TAP	66	192	2
TAP	66	192	3
TAP	66	288	2
TAP	67	0	2
TAP	67	0	4
TAP	67	96	2
TAP	67	192	2
TAP	67	192	5
TAP	67	288	2
TAP	68	0	3
TAP	68	0	5
TAP	68	96	5
TAP	68	192	4
TAP	68	192	5
TAP	68	288	5
TAP	69	0	3
TAP	69	0	5
TAP	69	96	5
TAP	69	192	2
TAP	69	192	5
TAP	69	288	5
TAP	70	0	3
TAP	70	0	4
TAP	70	96	3
TAP	70	96	4
TAP	70	192	2
TAP	70	192	5
TAP	70	288	2
TAP	70	288	5
TAP	71	0	1
TAP	71	0	6
TAP	71	96	1
TAP	71	96	6
TAP	71	192	1
TAP	71	192	6
TAP	71	288	1
TAP	71	288	6
THO	72	0	0	768	C	0	M1
HLD	75	0	1	192
HLD	75	0	6	192
TAP	75	288	4
TAP	75	288	5
TAP	75	336	4
TAP	75	336	5
TAP	76	48	2
TAP	76	48	3
TAP	76	96	2
TAP	76	96	3
STR	76	192	1
SCR	76	192	1	96	48	4
BRK	76	192	6
TAP	77	0	3
TAP	77	0	5
TAP	77	96	0
TAP	77	96	1
TAP	77	192	2
TAP	77	192	4
TAP	77	288	6
TAP	77	288	7
STR	77	336	6
SUR	77	336	6	96	144	4
STR	77	336	7
SCR	77	336	7	96	144	3
TAP	78	288	0
TAP	78	288	7
TAP	79	0	6
TAP	79	96	4
TAP	79	96	5
TAP	79	192	1
TAP	79	240	1
TAP	79	336	2
TAP	79	336	3
HLD	80	48	4	96
HLD	80	144	5	96
TAP	80	240	6
TAP	80	288	6
STR	81	0	0
SI_	81	0	0	96	48	4
TAP	81	0	7
TAP	81	192	0
STR	81	192	7
SI_	81	192	7	96	48	3
TAP	82	0	1
TAP	82	48	1
TAP	82	96	6
TAP	82	144	6
BRK	82	192	0
BRK	82	192	7
TAP	83	0	3
TAP	83	0	5
TAP	83	96	0
TAP	83	96	1
TAP	83	192	2
TAP	83	192	4
TAP	83	288	6
TAP	83	288	7
TAP	83	336	6
STR	83	336	7
SI_	83	336	7	96	72	3
BRK	84	192	1
BRK	84	192	5
TAP	85	0	2
TAP	85	0	4
TAP	85	96	6
TAP	85	96	7
TAP	85	192	3
TAP	85	192	5
TAP	85	288	0
TAP	85	288	1
STR	85	336	0
SCL	85	336	0	96	144	4
STR	85	336	1
SUL	85	336	1	96	144	3
TAP	86	288	0
TAP	86	288	7
TAP	87	0	3
TAP	87	0	4
TAP	87	96	2
HLD	87	144	2	96
TAP	87	240	1
HLD	87	288	1	96
TAP	88	0	0
TAP	88	96	6
TAP	88	96	7
HLD	88	144	6	96
HLD	88	144	7	96
XHO	88	336	5	384
XTP	89	24	3
XTP	89	96	3
XTP	89	168	1
XTP	89	240	1
XST	89	336	7
SCR	89	336	7	96	96	4
BRK	90	192	7
XTP	90	336	2
XTP	90	336	3
XTP	91	48	4
XTP	91	48	5
BRK	91	144	1
BRK	91	144	6
STR	91	192	1
SSR	91	192	1	96	384	5
BRK	91	192	6
TAP	93	0	4
TAP	93	96	0
TAP	93	96	6
TAP	93	192	4
TAP	93	288	0
TAP	93	288	6
TAP	94	0	3
TAP	94	96	1
TAP	94	96	7
TAP	94	192	3
TAP	94	288	1
TAP	94	288	7
TAP	95	0	5
TAP	95	96	0
TAP	95	96	6
TAP	95	192	2
TAP	95	288	1
TAP	95	288	7
TAP	96	0	3
TAP	96	0	4
TAP	96	96	2
TAP	96	96	5
XTP	96	192	1
XTP	96	192	6
TAP	97	0	1
TAP	97	96	2
TAP	97	96	4
TAP	97	192	0
TAP	97	288	2
TAP	97	288	4
TAP	98	0	6
TAP	98	96	3
TAP	98	96	5
TAP	98	192	7
TAP	98	288	3
TAP	98	288	5
XTP	98	336	3
XHO	98	336	5	384
XTP	99	24	2
XTP	99	96	1
XTP	99	168	0
XTP	99	240	7
XST	99	336	6
SCL	99	336	6	96	96	1
BRK	100	192	0
XTP	100	336	0
XTP	100	336	7
XTP	101	48	3
XTP	101	48	4
XTP	101	96	3
XTP	101	96	4
BRK	101	192	1
BRK	101	192	6

T_REC_TAP	300
T_REC_BRK	26
T_REC_XTP	38
T_REC_HLD	29
T_REC_XHO	4
T_REC_STR	25
T_REC_BST	0
T_REC_XST	6
T_REC_TTP	47
T_REC_THO	2
T_REC_SLD	31
T_REC_ALL	508
T_NUM_TAP	416
T_NUM_BRK	26
T_NUM_HLD	35
T_NUM_SLD	31
T_NUM_ALL	508
T_JUDGE_TAP	442
T_JUDGE_HLD	169
T_JUDGE_SLD	31
T_JUDGE_ALL	642
TTM_EACHPAIRS	157
TTM_SCR_TAP	208000
TTM_SCR_BRK	67600
TTM_SCR_HLD	35000
TTM_SCR_SLD	46500
TTM_SCR_ALL	357100
TTM_SCR_S	343900
TTM_SCR_SS	354500
TTM_RAT_ACV	10073

