VERSION	0.00.00	1.03.00
FES_MODE	0
BPM_DEF	183.000	183.000	183.000	183.000
MET_DEF	4	4
RESOLUTION	384
CLK_DEF	384
COMPATIBLE_CODE	MA2

BPM	0	0	183.000
MET	0	0	4	4

TAP	2	0	4
TAP	2	96	4
XHO	2	192	4	144
XTP	3	96	3
XTP	3	96	4
XTP	3	192	2
XTP	3	192	5
TAP	4	0	2
TAP	4	96	2
TAP	4	192	3
TAP	4	288	3
TAP	5	0	4
TAP	5	96	4
TAP	5	192	3
TAP	5	192	4
TAP	6	0	5
TAP	6	96	5
TAP	6	192	4
TAP	6	288	4
TAP	7	0	3
TAP	7	96	3
TAP	7	192	2
TAP	7	192	4
TAP	8	0	2
TAP	8	96	2
TAP	8	192	3
TAP	8	288	3
TAP	9	0	4
TAP	9	96	4
TAP	9	192	5
STR	9	288	5
SI_	9	288	5	96	240	1
TAP	11	0	0
TAP	11	0	7
TAP	11	96	0
TAP	11	96	7
XTP	11	192	1
XTP	11	192	6
HLD	12	0	2	192
HLD	12	192	3	192
TAP	13	0	4
TAP	13	96	4
TAP	13	192	4
HLD	14	0	5	192
HLD	14	192	4	192
TAP	15	0	3
TAP	15	96	3
TAP	15	192	2
TAP	15	192	3
HLD	16	0	1	192
HLD	16	192	2	192
TAP	17	0	3
TAP	17	96	3
TAP	17	192	3
TAP	17	192	4
STR	18	0	4
SI_	18	0	4	96	288	0
XTP	19	192	1
XTP	19	192	7
HLD	20	0	1	192
HLD	20	192	0	192
TAP	21	0	7
TAP	21	96	7
TAP	21	192	7
HLD	22	0	6	192
HLD	22	192	7	192
TAP	23	0	0
TAP	23	96	0
TAP	23	192	0
TAP	23	192	1
HLD	24	0	1	192
HLD	24	192	0	192
TAP	25	0	7
TAP	25	96	7
TAP	25	192	6
TAP	25	192	7
STR	26	0	0
SI_	26	0	0	96	288	4
XTP	27	192	3
XTP	27	192	5
TAP	28	0	2
TAP	28	96	2
TAP	28	192	3
TAP	29	0	5
TAP	29	96	5
TAP	29	192	4
TAP	30	0	2
TAP	30	96	2
TAP	30	192	3
TAP	30	288	3
TAP	31	0	4
TAP	31	96	3
TAP	31	192	3
TAP	31	192	4
TAP	32	0	6
TAP	32	96	6
TAP	32	192	7
TAP	33	0	1
TAP	33	96	1
TAP	33	192	0
TAP	34	0	6
TAP	34	96	6
TAP	34	192	7
TAP	34	288	7
TAP	35	0	0
TAP	35	0	7
TAP	35	96	0
TAP	35	96	7
XTP	35	192	1
XTP	35	192	6
XHO	36	0	2	144
XHO	36	0	3	144
XHO	37	0	4	144
XHO	37	0	5	144
XHO	38	0	3	144
XHO	38	0	4	144
XTP	38	288	2
XTP	38	288	5
XST	39	0	2
SLL	39	0	2	96	384	3
XST	39	0	5
SLR	39	0	5	96	384	4
XTP	40	192	2
XTP	40	192	5
TAP	41	0	1
TAP	41	96	1
TAP	41	192	2
TAP	41	288	3
TAP	42	0	4
TAP	42	0	5
TAP	42	96	4
TAP	42	96	5
XTP	42	192	3
XTP	42	192	6
TAP	43	0	6
TAP	43	96	6
TAP	43	192	5
TAP	43	288	4
TAP	44	0	2
TAP	44	0	3
TAP	44	96	2
TAP	44	96	3
XTP	44	192	1
XTP	44	192	4
HLD	45	0	5	96
TAP	45	96	4
TAP	45	192	3
TAP	45	192	6
HLD	46	0	2	96
TAP	46	96	3
TAP	46	192	1
TAP	46	192	4
TAP	47	0	0
TAP	47	96	0
TAP	47	192	7
STR	47	288	7
SCL	47	288	7	96	192	3
TAP	48	288	2
XTP	49	0	2
TAP	49	96	2
TAP	49	192	1
TAP	49	288	0
TAP	50	0	6
TAP	50	0	7
TAP	50	96	6
TAP	50	96	7
TAP	50	192	0
TAP	50	192	5
TAP	51	0	5
TAP	51	96	5
TAP	51	192	6
TAP	51	288	7
TAP	52	0	0
TAP	52	0	1
TAP	52	96	0
TAP	52	96	1
TAP	52	192	2
TAP	52	192	7
TAP	53	0	6
TAP	53	96	6
TAP	53	192	0
TAP	53	192	7
TAP	53	288	0
TAP	53	288	7
TAP	54	0	1
TAP	54	96	1
TAP	54	192	0
TAP	54	192	7
STR	54	288	0
SI_	54	288	0	96	192	4
STR	54	288	7
SI_	54	288	7	96	192	3
TAP	56	0	2
TAP	56	0	5
TAP	56	96	2
TAP	56	96	5
XHO	56	192	2	192
XHO	56	192	5	192
TTP	58	0	3	E	0	L1
TTP	58	96	3	B	0	L1
TTP	58	192	4	B	0	L1
TTP	59	0	6	B	0	L1
TTP	59	96	5	B	0	L1
TTP	59	192	5	E	0	L1
TTP	60	0	2	B	0	L1
TTP	60	0	5	B	0	L1
TTP	60	192	1	B	0	L1
TTP	60	192	6	B	0	L1
TTP	61	0	0	C	0	L1
TTP	62	0	5	E	0	L1
TTP	62	96	4	B	0	L1
TTP	62	192	3	B	0	L1
TTP	63	0	1	B	0	L1
TTP	63	96	2	B	0	L1
TTP	63	192	3	E	0	L1
TTP	64	0	2	B	0	L1
TTP	64	0	5	B	0	L1
TTP	64	192	1	B	0	L1
TTP	64	192	6	B	0	L1
THO	65	0	0	192	C	0	L1
TTP	66	0	7	E	0	L1
TTP	66	96	7	B	0	L1
TTP	66	192	0	B	0	L1
TTP	67	0	2	B	0	L1
TTP	67	96	1	B	0	L1
TTP	67	192	1	E	0	L1
TTP	68	0	0	B	0	L1
TTP	68	0	7	B	0	L1
TTP	68	192	1	B	0	L1
TTP	68	192	6	B	0	L1
TTP	69	0	0	C	0	L1
TTP	70	0	2	E	0	L1
TTP	70	0	3	B	0	L1
TTP	71	0	4	B	0	L1
TTP	71	0	6	E	0	L1
THO	72	0	0	768	C	0	L1
HLD	75	0	3	192
HLD	75	192	4	192
TAP	76	0	3
TAP	76	96	4
BRK	76	192	2
BRK	76	192	5
TAP	77	0	1
TAP	77	96	2
TAP	77	192	3
TAP	77	288	4
TAP	78	0	4
TAP	78	0	5
TAP	78	96	3
TAP	78	96	6
TAP	78	192	2
TAP	78	192	7
HLD	79	0	1	96
TAP	79	96	0
TAP	79	192	2
TAP	79	192	7
TAP	79	288	2
TAP	79	288	7
HLD	80	0	6	96
TAP	80	96	7
TAP	80	192	0
TAP	80	192	5
TAP	81	0	1
TAP	81	0	7
TAP	81	96	1
TAP	81	96	7
TAP	81	192	0
TAP	81	192	6
STR	81	288	0
SCR	81	288	0	96	192	4
TAP	82	288	5
XTP	83	0	5
TAP	83	96	4
TAP	83	192	3
TAP	83	288	2
TAP	84	0	0
TAP	84	0	1
TAP	84	96	2
TAP	84	96	7
TAP	84	192	3
TAP	84	192	6
TAP	85	0	2
TAP	85	96	3
TAP	85	192	4
TAP	85	288	5
TAP	86	0	6
TAP	86	0	7
TAP	86	96	0
TAP	86	96	5
TAP	86	192	1
TAP	86	192	4
TAP	87	0	1
TAP	87	96	2
TAP	87	192	3
TAP	87	192	4
TAP	87	288	2
TAP	87	288	5
TAP	88	0	6
TAP	88	96	7
TAP	88	192	0
TAP	88	192	7
STR	88	288	1
SI_	88	288	1	96	240	4
STR	88	288	6
SI_	88	288	6	96	240	3
TAP	90	0	2
TAP	90	0	5
TAP	90	96	2
TAP	90	96	5
XHO	90	192	1	96
XHO	90	192	6	96
XST	91	0	1
SLR	91	0	1	96	384	7
XST	91	0	6
SLL	91	0	6	96	384	0
BRK	92	192	1
BRK	92	192	6
TAP	93	0	2
TAP	93	96	2
TAP	93	96	3
TAP	93	192	5
TAP	93	288	4
TAP	93	288	5
TAP	94	0	2
TAP	94	96	2
TAP	94	96	3
TAP	94	192	1
TAP	94	192	4
TAP	95	0	6
TAP	95	96	6
TAP	95	96	7
TAP	95	192	1
TAP	95	288	0
TAP	95	288	1
TAP	96	0	6
TAP	96	96	6
TAP	96	96	7
TAP	96	192	0
TAP	96	192	5
TAP	97	0	2
TAP	97	96	3
TAP	97	192	2
TAP	97	288	1
TAP	97	288	4
TAP	98	0	5
TAP	98	96	4
TAP	98	192	5
STR	98	288	3
SI_	98	288	3	96	240	0
TAP	98	288	6
TAP	100	0	6
TAP	100	0	7
TAP	100	96	0
TAP	100	96	5
XTP	100	192	1
XTP	100	192	4
TAP	101	0	2
TAP	101	0	5
TAP	101	96	1
TAP	101	96	6
XTP	101	192	0
XTP	101	192	7

T_REC_TAP	237
T_REC_BRK	4
T_REC_XTP	26
T_REC_HLD	18
T_REC_XHO	11
T_REC_STR	10
T_REC_BST	0
T_REC_XST	4
T_REC_TTP	36
T_REC_THO	2
T_REC_SLD	14
T_REC_ALL	362
T_NUM_TAP	313
T_NUM_BRK	4
T_NUM_HLD	31
T_NUM_SLD	14
T_NUM_ALL	362
T_JUDGE_TAP	317
T_JUDGE_HLD	117
T_JUDGE_SLD	14
T_JUDGE_ALL	448
TTM_EACHPAIRS	85
TTM_SCR_TAP	156500
TTM_SCR_BRK	10400
TTM_SCR_HLD	31000
TTM_SCR_SLD	21000
TTM_SCR_ALL	218900
TTM_SCR_S	211950
TTM_SCR_SS	218500
TTM_RAT_ACV	10018

