VERSION	0.00.00	1.03.00
FES_MODE	0
BPM_DEF	183.000	183.000	183.000	183.000
MET_DEF	4	4
RESOLUTION	384
CLK_DEF	384
COMPATIBLE_CODE	MA2

BPM	0	0	183.000
MET	0	0	4	4

TAP	4	0	0
TAP	5	0	0
TAP	6	0	1
TAP	7	0	1
TAP	8	0	2
TAP	9	0	2
HLD	10	0	3	384
TAP	12	0	4
TAP	13	0	4
TAP	14	0	5
TAP	14	192	5
TAP	15	0	5
TAP	16	0	6
TAP	17	0	6
TAP	18	0	7
TAP	18	192	7
BRK	19	0	7
TAP	20	0	6
TAP	20	192	6
TAP	21	0	6
TAP	22	0	5
TAP	22	192	5
TAP	23	0	5
TAP	24	0	4
TAP	24	192	4
TAP	25	0	4
HLD	26	0	3	384
HLD	26	0	4	384
TTP	28	0	3	E	0	L1
TTP	29	0	2	E	0	L1
TTP	30	0	1	E	0	L1
TTP	31	0	0	E	0	L1
TTP	32	0	7	E	0	L1
TTP	33	0	6	E	0	L1
TTP	34	0	5	E	0	L1
TTP	35	0	4	E	0	L1
TTP	36	0	3	B	0	L1
TTP	36	0	4	B	0	L1
TTP	37	0	2	B	0	L1
TTP	37	0	5	B	0	L1
TTP	38	0	2	E	0	L1
TTP	38	0	6	E	0	L1
THO	39	0	0	384	C	1	L1
TAP	41	0	0
TAP	41	96	0
TAP	41	192	0
TAP	42	0	1
TAP	42	96	1
TAP	42	192	1
TAP	43	0	2
TAP	43	96	2
TAP	43	192	2
HLD	44	0	3	192
HLD	44	0	4	192
TAP	45	0	4
TAP	45	96	4
TAP	45	192	4
TAP	46	0	5
TAP	46	96	5
TAP	46	192	5
TAP	47	0	6
TAP	47	96	6
TAP	47	192	6
TAP	48	0	0
TAP	48	0	7
BRK	48	192	0
BRK	48	192	7
TAP	49	0	7
TAP	49	96	7
TAP	49	192	7
TAP	50	0	6
TAP	50	96	6
TAP	50	192	6
TAP	51	0	5
TAP	51	96	5
TAP	51	192	5
HLD	52	0	3	192
HLD	52	0	4	192
TAP	53	0	3
TAP	53	96	3
TAP	53	192	3
TAP	54	0	2
TAP	54	96	2
TAP	54	192	2
HLD	55	0	1	192
XTP	56	0	0
XTP	56	96	7
BRK	56	192	0
STR	58	0	0
SI_	58	0	0	96	288	3
STR	60	0	7
SI_	60	0	7	96	288	4
STR	62	0	1
SI_	62	0	1	96	288	4
STR	64	0	6
SI_	64	0	6	96	288	3
TAP	66	0	0
TAP	66	192	0
TAP	67	0	0
TAP	68	0	1
TAP	68	192	1
TAP	69	0	1
TAP	70	0	2
TAP	70	192	2
TAP	71	0	3
TAP	71	192	3
HLD	72	0	3	384
HLD	72	0	4	384
HLD	75	0	4	192
XTP	76	0	4
XTP	76	96	3
BRK	76	192	4
TAP	77	0	5
TAP	77	96	5
TAP	77	192	5
TAP	78	0	6
TAP	78	96	6
TAP	78	192	6
TAP	79	0	7
TAP	79	96	7
TAP	79	192	7
TAP	80	0	0
TAP	80	96	0
TAP	80	192	0
TAP	81	0	0
TAP	81	0	1
TAP	81	192	0
TAP	81	192	1
TAP	82	0	6
TAP	82	0	7
TAP	82	96	6
TAP	82	96	7
XTP	82	192	6
XTP	82	192	7
TAP	83	0	6
TAP	83	96	6
TAP	83	192	6
TAP	84	0	5
TAP	84	96	5
TAP	84	192	5
TAP	85	0	4
TAP	85	96	4
TAP	85	192	4
TAP	86	0	3
TAP	86	96	4
TAP	86	192	3
TAP	87	0	2
TAP	87	96	2
TAP	87	192	2
TAP	88	0	1
TAP	88	96	1
TAP	88	192	1
HLD	89	0	0	192
HLD	89	0	7	192
TAP	90	0	0
TAP	90	96	7
TAP	90	192	0
XTP	91	0	0
XTP	91	0	7
XTP	91	96	0
XTP	91	96	7
BRK	91	192	1
BRK	91	192	6
TAP	93	0	0
TAP	93	192	0
TAP	94	0	1
TAP	94	96	1
TAP	94	192	1
TAP	95	0	2
TAP	95	192	2
TAP	96	0	3
TAP	96	96	4
TAP	96	192	3
TAP	97	0	4
TAP	97	192	4
TAP	98	0	5
TAP	98	96	5
TAP	98	192	5
HLD	99	0	6	192
XTP	100	0	7
XTP	100	96	7
BRK	100	192	7
XTP	101	0	0
XTP	101	96	0
BRK	101	192	0

T_REC_TAP	125
T_REC_BRK	9
T_REC_XTP	14
T_REC_HLD	14
T_REC_XHO	0
T_REC_STR	4
T_REC_BST	0
T_REC_XST	0
T_REC_TTP	14
T_REC_THO	1
T_REC_SLD	4
T_REC_ALL	185
T_NUM_TAP	157
T_NUM_BRK	9
T_NUM_HLD	15
T_NUM_SLD	4
T_NUM_ALL	185
T_JUDGE_TAP	166
T_JUDGE_HLD	84
T_JUDGE_SLD	4
T_JUDGE_ALL	254
TTM_EACHPAIRS	15
TTM_SCR_TAP	78500
TTM_SCR_BRK	23400
TTM_SCR_HLD	15000
TTM_SCR_SLD	6000
TTM_SCR_ALL	122900
TTM_SCR_S	118350
TTM_SCR_SS	122000
TTM_RAT_ACV	10073

