VERSION	0.00.00	1.03.00
FES_MODE	0
BPM_DEF	202.000	202.000	202.000	202.000
MET_DEF	4	4
RESOLUTION	384
CLK_DEF	384
COMPATIBLE_CODE	MA2

BPM	0	0	202.000
MET	0	0	4	4

XTP	1	0	3
XTP	1	0	4
TAP	1	48	0
TAP	1	72	7
TAP	1	96	1
TAP	1	120	6
TAP	1	144	2
TAP	1	168	5
TAP	1	192	3
TAP	1	216	4
TAP	1	240	3
TAP	1	264	4
XTP	1	288	2
XTP	1	288	5
TAP	2	0	3
STR	2	0	7
SI_	2	0	7	96	48	3
TAP	2	96	1
STR	2	144	1
SCL	2	144	1	96	48	6
STR	2	240	4
SXL	2	240	4	96	144	3
TAP	2	336	3
STR	3	96	1
SI_	3	96	1	96	48	7
TAP	3	192	5
STR	3	240	5
SXL	3	240	5	96	144	3
TAP	3	336	3
STR	4	96	2
SI_	4	96	2	96	48	7
TAP	4	192	6
STR	4	240	6
SUL	4	240	6	96	96	1
TAP	4	336	1
TAP	5	96	0
TAP	5	96	7
TAP	5	144	2
TAP	5	168	2
TAP	5	192	3
TAP	5	240	5
TAP	5	264	5
TAP	5	288	4
TAP	6	0	1
TAP	6	48	0
TAP	6	96	2
TAP	6	96	7
TAP	6	192	6
TAP	6	240	7
TAP	6	288	0
TAP	6	288	5
TAP	6	336	0
TAP	6	336	5
TAP	7	48	3
TAP	7	48	7
TAP	7	96	3
TAP	7	96	7
STR	7	192	0
SCR	7	192	0	96	48	3
STR	7	192	4
SCR	7	192	4	96	48	7
TAP	7	240	0
TAP	7	240	4
STR	8	0	4
SI_	8	0	4	96	48	0
TAP	8	48	5
TAP	8	96	4
STR	8	144	6
SI_	8	144	6	96	48	2
TAP	8	192	7
TAP	8	240	6
STR	8	288	1
SI_	8	288	1	96	48	5
TAP	8	336	0
TAP	9	0	1
STR	9	48	3
SI_	9	48	3	96	48	7
TAP	9	96	2
TAP	9	144	3
TAP	9	192	1
BRK	9	240	1
BRK	9	240	5
TAP	10	0	3
TAP	10	48	3
TAP	10	96	2
TAP	10	96	4
TAP	10	192	5
TAP	10	240	4
TAP	10	240	6
TAP	10	336	1
TAP	10	336	3
TAP	11	48	6
STR	11	96	5
SCL	11	96	5	96	48	2
TAP	11	96	7
HLD	11	192	1	96
TAP	11	288	0
TAP	12	0	6
TAP	12	48	6
TAP	12	96	5
TAP	12	96	7
TAP	12	192	1
TAP	12	240	0
STR	12	240	2
SCR	12	240	2	96	48	5
HLD	12	336	6	96
TAP	13	48	7
TAP	13	96	0
TAP	13	144	1
STR	13	192	2
SI_	13	192	2	96	48	7
TAP	13	192	4
TAP	13	288	2
STR	13	288	6
SI_	13	288	6	96	48	3
HLD	14	0	0	96
TAP	14	0	6
TAP	14	96	2
TAP	14	144	3
TAP	14	192	4
TAP	14	240	5
TAP	14	288	6
TAP	14	336	1
HLD	14	336	7	96
TAP	15	48	5
TAP	15	96	4
TAP	15	144	3
TAP	15	192	2
TAP	15	192	5
TAP	15	240	4
TAP	15	288	3
HLD	15	336	2	192
TAP	16	48	3
TAP	16	96	3
TAP	16	144	3
TAP	16	192	3
TAP	16	192	4
TAP	16	288	5
TAP	16	336	4
TAP	17	0	3
TAP	17	0	6
TAP	17	48	2
TAP	17	96	3
TAP	17	144	1
TAP	17	144	4
TAP	17	192	0
TAP	17	240	7
BRK	17	288	1
BRK	17	288	6
TAP	18	0	4
TAP	18	48	4
XTP	18	96	3
XTP	18	96	5
STR	18	144	5
SI_	18	144	5	96	48	3
STR	18	240	1
SI_	18	240	1	96	48	5
XTP	18	336	1
XHO	18	336	7	96
TAP	19	48	0
XTP	19	96	0
XTP	19	96	6
STR	19	192	7
SCL	19	192	7	96	48	4
TAP	19	240	0
XTP	19	288	1
XTP	19	288	7
TAP	20	0	3
TAP	20	48	3
XTP	20	96	2
XTP	20	96	4
STR	20	144	2
SI_	20	144	2	96	48	4
STR	20	240	6
SI_	20	240	6	96	48	2
XHO	20	336	0	96
XTP	20	336	6
TAP	21	48	7
XTP	21	96	1
XTP	21	96	7
TAP	21	144	2
TAP	21	192	3
TAP	21	240	4
XST	21	288	1
SI_	21	288	1	96	48	5
XTP	21	288	5
TAP	21	336	6
TAP	22	0	7
XTP	22	96	2
XTP	22	96	6
TAP	22	144	5
TAP	22	192	4
TAP	22	240	3
TAP	22	288	2
XTP	22	336	1
XTP	22	336	5
TAP	23	48	0
TAP	23	48	7
XTP	23	96	1
XTP	23	96	6
TAP	23	144	2
TAP	23	192	3
TAP	23	240	4
XTP	23	288	2
XTP	23	288	5
STR	23	336	1
SI_	23	336	1	96	48	3
STR	23	336	6
SI_	23	336	6	96	48	4
TAP	24	48	1
TAP	24	48	6
TAP	24	144	0
TAP	24	144	7
HLD	24	192	1	96
HLD	24	192	6	96
TAP	24	336	1
STR	24	336	6
SI_	24	336	6	96	48	2
STR	25	48	3
SI_	25	48	3	96	48	1
TAP	25	48	6
TAP	25	144	3
STR	25	144	7
SI_	25	144	7	96	48	5
BRK	25	240	0
TAP	25	240	7
TAP	25	336	2
TAP	25	360	2
TAP	26	0	3
HLD	26	48	1	624
TAP	26	48	4
TAP	26	96	4
TAP	26	288	4
TAP	27	96	4
TAP	27	288	4
STR	27	336	2
SI_	27	336	2	96	48	4
TAP	27	336	3
TAP	28	48	2
HLD	28	96	5	384
TAP	28	288	4
TAP	29	96	4
TAP	29	144	2
TAP	29	168	2
TAP	29	192	3
TAP	29	240	1
STR	29	240	4
SXL	29	240	4	96	96	4
HLD	29	336	0	144
TAP	30	96	3
TAP	30	144	4
TAP	30	192	5
STR	30	240	3
SXR	30	240	3	96	96	3
TAP	30	240	6
HLD	30	336	7	144
TAP	31	96	4
TAP	31	144	3
TAP	31	144	6
TAP	31	192	2
TAP	31	192	5
TAP	31	240	1
STR	31	240	4
SI_	31	240	4	96	48	7
HLD	31	336	0	768
TAP	32	48	6
TAP	32	96	5
TAP	32	144	4
TAP	32	192	3
TAP	32	240	2
TAP	32	288	1
STR	32	336	7
SI_	32	336	7	96	48	2
TAP	33	48	7
STR	33	144	3
SI_	33	144	3	96	48	6
TAP	33	240	3
TAP	33	336	7
TAP	34	0	1
TAP	34	0	6
TAP	34	48	2
TAP	34	72	3
TAP	34	96	1
TAP	34	144	3
TAP	34	144	4
TAP	34	192	5
TAP	34	216	4
TAP	34	240	6
TAP	34	288	3
TAP	34	288	4
TAP	34	336	0
TAP	34	360	7
TAP	35	0	0
STR	35	48	1
SCL	35	48	1	96	144	3
STR	35	48	6
SI_	35	48	6	96	48	2
TAP	35	96	2
TAP	35	96	5
BRK	35	144	1
BRK	35	144	6
XTP	36	0	3
STR	36	0	7
SI_	36	0	7	96	48	3
TAP	36	96	1
STR	36	144	1
SI_	36	144	1	96	48	4
TAP	36	240	1
STR	36	240	5
SI_	36	240	5	96	48	0
STR	36	336	2
SI_	36	336	2	96	48	7
TAP	36	336	5
TAP	37	48	2
STR	37	48	6
SI_	37	48	6	96	48	3
STR	37	144	0
SI_	37	144	0	96	48	4
TAP	37	144	6
XTP	37	240	0
BRK	37	240	7
TAP	38	0	2
STR	38	0	6
SCR	38	0	6	96	48	1
TAP	38	96	4
STR	38	144	4
SI_	38	144	4	96	48	0
HLD	38	240	7	96
TAP	38	336	1
STR	39	48	2
SUL	39	48	2	96	48	6
STR	39	48	6
SUL	39	48	6	96	48	2
STR	39	144	2
SCR	39	144	2	96	48	5
STR	39	144	6
SCR	39	144	6	96	48	1
BRK	40	0	0
BRK	40	0	7
TAP	40	96	2
TAP	40	96	5
STR	40	144	2
SI_	40	144	2	96	48	6
STR	40	144	5
SI_	40	144	5	96	48	3
TAP	40	240	2
TAP	40	240	5
XST	40	336	1
SI_	40	336	1	96	48	5
XST	40	336	6
SI_	40	336	6	96	48	0
TAP	41	48	1
TAP	41	48	6
XTP	41	144	0
XST	41	144	7
SI_	41	144	7	96	48	3
STR	41	240	3
SCL	41	240	3	96	96	4
TAP	41	240	7
TTP	41	336	0	C	1	M1
TTP	41	348	3	E	0	M1
TTP	41	360	2	E	0	M1
TTP	41	372	1	E	0	M1
TTP	42	0	0	E	0	M1
TTP	42	12	7	E	0	M1
TTP	42	24	6	E	0	M1
TTP	42	36	5	E	0	M1
XTP	42	96	0
XTP	42	96	7
TAP	42	192	2
TAP	42	192	3
STR	42	240	1
SCR	42	240	1	96	96	5
TAP	42	240	4
STR	42	336	5
SCR	42	336	5	96	96	1
STR	43	48	1
SCR	43	48	1	96	48	3
TAP	43	144	4
BRK	43	240	1
BRK	43	240	6
STR	44	0	0
SI_	44	0	0	96	48	4
TAP	44	0	4
TAP	44	96	6
STR	44	144	6
SI_	44	144	6	96	48	3
STR	44	240	2
SI_	44	240	2	96	48	7
TAP	44	240	6
TAP	44	336	2
STR	44	336	5
SI_	44	336	5	96	48	0
STR	45	48	1
SI_	45	48	1	96	48	4
TAP	45	48	5
TAP	45	144	1
STR	45	144	7
SI_	45	144	7	96	48	3
BRK	45	240	0
XTP	45	240	7
HLD	46	0	1	96
TAP	46	0	5
TAP	46	96	3
STR	46	144	3
SI_	46	144	3	96	48	7
STR	46	240	1
SI_	46	240	1	96	48	3
TAP	46	240	3
TAP	46	336	1
STR	46	336	4
SI_	46	336	4	96	48	6
STR	47	48	0
SI_	47	48	0	96	48	4
TAP	47	48	4
STR	47	144	0
SCL	47	144	0	96	48	5
STR	47	144	7
SCR	47	144	7	96	48	2
TAP	47	240	0
TAP	47	240	7
BRK	48	0	3
BRK	48	0	4
TAP	48	96	2
TAP	48	96	5
STR	48	144	2
SI_	48	144	2	96	48	4
STR	48	144	5
SI_	48	144	5	96	48	1
TAP	48	240	2
TAP	48	240	5
XST	48	336	1
SI_	48	336	1	96	48	7
XST	48	336	6
SI_	48	336	6	96	48	2
TAP	49	48	1
TAP	49	48	6
XST	49	144	0
SCR	49	144	0	96	48	3
XST	49	144	7
SCL	49	144	7	96	48	4
STR	49	240	0
SXL	49	240	0	96	192	3
STR	49	240	7
SXR	49	240	7	96	192	4
BRK	49	336	0
BRK	49	336	7
TTP	50	96	0	C	1	M1
TTP	50	192	2	E	0	M1
TTP	50	192	6	E	0	M1
TTP	50	288	0	E	0	M1
TTP	50	288	4	E	0	M1
HLD	51	0	1	96
HLD	51	0	6	96
TAP	51	144	2
TAP	51	144	5
TAP	51	192	3
TAP	51	216	4
TAP	51	240	3
BRK	51	288	1
BRK	51	288	6
HLD	52	0	2	96
TAP	52	0	5
STR	52	96	3
SI_	52	96	3	96	48	0
STR	52	144	4
SI_	52	144	4	96	48	7
XTP	52	192	3
XTP	52	240	4
TAP	52	336	2
TAP	52	336	6
TAP	53	96	1
HLD	53	96	5	96
STR	53	192	7
SCL	53	192	7	96	48	4
STR	53	240	0
SCR	53	240	0	96	48	3
TAP	53	288	7
TAP	53	336	0
STR	54	96	1
SLR	54	96	1	96	96	7
STR	54	96	6
SLL	54	96	6	96	96	0
XTP	54	192	1
XTP	54	192	6
TTP	54	240	0	C	1	M1
BRK	54	336	2
BRK	54	336	5
TAP	55	192	2
TAP	55	192	3
TAP	55	240	1
TAP	55	288	0
TAP	55	288	7
TAP	55	336	6
TAP	56	0	4
TAP	56	0	5
TAP	56	96	2
TAP	56	96	3
STR	56	144	2
SI_	56	144	2	96	48	6
TAP	56	144	3
STR	56	240	3
SI_	56	240	3	96	48	7
STR	56	336	4
SI_	56	336	4	96	48	0
STR	57	48	5
SI_	57	48	5	96	48	1
STR	57	144	6
SCR	57	144	6	96	48	1
TAP	57	240	4
TAP	57	336	0
TAP	57	336	7
TAP	58	0	1
TAP	58	0	6
TAP	58	48	2
TAP	58	96	3
TAP	58	144	1
TAP	58	144	4
TAP	58	192	5
TAP	58	240	4
TAP	58	288	3
TAP	58	288	6
TAP	58	336	7
TAP	59	0	0
TAP	59	48	1
TAP	59	48	6
TAP	59	96	2
TAP	59	96	5
TAP	59	144	3
TAP	59	168	3
TAP	59	192	4
BRK	59	240	1
BRK	59	240	6
TAP	60	0	2
TAP	60	0	3
TAP	60	48	1
TAP	60	48	3
TAP	60	144	4
TAP	60	144	5
TAP	60	192	4
TAP	60	192	6
TAP	60	288	0
TAP	60	288	7
HLD	60	336	0	96
TAP	60	336	7
TAP	61	48	3
TAP	61	96	1
TAP	61	144	2
TAP	61	192	3
TAP	61	240	2
TAP	61	288	4
HLD	61	336	6	96
TAP	62	48	4
TAP	62	96	6
TAP	62	144	5
TAP	62	192	4
TAP	62	240	5
TAP	62	288	3
HLD	62	336	2	96
TAP	63	48	3
TAP	63	96	1
TAP	63	144	2
TAP	63	192	3
TAP	63	240	2
TAP	63	288	3
TAP	63	288	4
TAP	64	0	5
TAP	64	24	4
TAP	64	48	5
TAP	64	96	2
TAP	64	120	3
TAP	64	144	2
TAP	64	192	6
TAP	64	240	5
TAP	64	288	4
HLD	64	336	3	96
TAP	65	48	4
TAP	65	96	3
TAP	65	144	2
TAP	65	192	5
TAP	65	240	4
TAP	65	288	3
TAP	65	336	2
HLD	65	336	5	96
TAP	66	48	4
TAP	66	96	3
TAP	66	144	2
TAP	66	192	4
TAP	66	240	3
TAP	66	288	2
HLD	66	336	1	96
TAP	66	336	5
TAP	67	48	2
TAP	67	96	3
TAP	67	144	4
TAP	67	192	5
TAP	67	240	6
TAP	67	288	7
TAP	67	336	0
TAP	68	0	1
HLD	68	0	7	192
TAP	68	48	2
TAP	68	96	3
TAP	68	192	3
STR	68	240	2
SCR	68	240	2	96	48	5
TAP	68	288	0
TAP	68	336	2
STR	69	48	6
SUL	69	48	6	96	48	2
TAP	69	96	7
TAP	69	144	6
STR	69	240	1
SCL	69	240	1	96	48	6
TAP	69	288	2
TAP	69	336	1
HLD	70	48	5	144
TAP	70	96	4
TAP	70	144	3
HLD	70	192	1	144
TAP	70	240	2
TAP	70	288	3
HLD	70	336	5	96
STR	71	48	3
SXR	71	48	3	96	144	0
TAP	71	96	5
TAP	71	144	7
TAP	71	192	6
TAP	71	240	5
BRK	71	288	4
TAP	72	0	1
TAP	72	24	2
TAP	72	48	3
TAP	72	72	4
TAP	72	96	7
TAP	72	120	6
TAP	72	144	5
TAP	72	168	4
TTP	72	192	0	E	0	M1
TTP	72	216	1	E	0	M1
TTP	72	240	2	E	0	M1
TTP	72	264	3	E	0	M1
TTP	72	288	7	E	0	M1
TTP	72	312	6	E	0	M1
TTP	72	336	5	E	0	M1
TTP	72	360	4	E	0	M1
TAP	73	0	0
TAP	73	12	1
TAP	73	24	2
TAP	73	36	3
TAP	73	48	4
TAP	73	60	5
TAP	73	72	6
TAP	73	84	7
TAP	73	96	0
TAP	73	108	1
TAP	73	120	2
TAP	73	132	3
TAP	73	144	4
TAP	73	156	5
TAP	73	168	6
TAP	73	180	7
BRK	73	192	0
TAP	73	288	3
TAP	73	312	4
TAP	73	336	3
TAP	73	360	4
STR	74	0	2
SI_	74	0	2	96	48	0
TAP	74	96	2
STR	74	144	6
SI_	74	144	6	96	48	4
TAP	74	240	6
STR	74	288	1
SI_	74	288	1	96	48	5
TAP	75	0	1
HLD	75	48	7	144
TAP	75	192	5
TAP	75	240	4
STR	75	288	3
SCL	75	288	3	96	1344	4
TAP	75	336	2
THO	76	0	0	1344	C	0	M1
TAP	79	288	3
TAP	79	288	4
TAP	80	0	2
STR	80	0	3
SI_	80	0	3	96	48	0
TAP	80	96	1
HLD	80	144	1	192
TAP	80	336	0
TAP	81	0	6
STR	81	0	7
SI_	81	0	7	96	48	4
TAP	81	96	5
HLD	81	144	5	144
TAP	81	288	2
BRK	82	0	3
BRK	82	0	4
TAP	82	96	2
BRK	82	144	0
TAP	82	144	3
TAP	82	240	5
TAP	82	288	4
BRK	82	288	7
TAP	83	0	2
TAP	83	0	3
BRK	83	48	0
TAP	83	48	4
TAP	83	144	4
TAP	83	144	5
TAP	83	192	3
BRK	83	192	7
TAP	83	288	3
TAP	83	288	4
BRK	84	0	0
TAP	84	24	7
TAP	84	48	0
TAP	84	72	7
TAP	84	96	0
TAP	84	120	7
BRK	84	144	0
TAP	84	168	7
TAP	84	192	0
TAP	84	216	7
TAP	84	240	0
TAP	84	264	7
BRK	84	288	0
TAP	84	312	7
TAP	84	336	0
TAP	84	360	7
TAP	85	0	0
TAP	85	24	7
BRK	85	48	0
TAP	85	72	7
TAP	85	96	0
TAP	85	120	7
TAP	85	144	0
TAP	85	168	7
BRK	85	192	0
TAP	85	216	7
TAP	85	240	0
TAP	85	264	7
BRK	85	288	0
HLD	86	0	4	96
TAP	86	0	6
TAP	86	48	6
TAP	86	96	6
TAP	86	144	1
HLD	86	144	3	96
TAP	86	192	1
TAP	86	240	1
HLD	86	288	0	96
TAP	86	288	7
TAP	86	336	7
STR	87	0	7
SI_	87	0	7	96	48	3
TAP	87	96	0
TAP	87	96	7
TAP	87	192	1
TAP	87	224	2
TAP	87	256	3
TAP	87	288	4
TAP	87	320	5
TAP	87	352	6
BST	88	0	0
SI_	88	0	0	1104	48	4
HLD	88	0	7	1104
BST	90	336	0
SCL	90	336	0	96	48	5
BST	91	48	0
SCR	91	48	0	96	48	3
BST	91	144	0
SF_	91	144	0	96	48	4
TTP	91	248	0	B	0	M1
TTP	91	256	0	C	1	M1
TTP	91	264	4	B	0	M1
TAP	92	0	2
STR	92	0	6
SI_	92	0	6	96	48	2
TAP	92	96	0
STR	92	144	0
SCR	92	144	0	96	144	6
STR	92	240	4
SCR	92	240	4	96	144	2
STR	92	336	0
SCR	92	336	0	96	144	6
STR	93	48	4
SCR	93	48	4	96	144	2
STR	93	144	0
SCR	93	144	0	96	144	6
STR	93	240	4
SCR	93	240	4	96	168	3
BRK	93	336	0
XTP	94	96	4
TAP	94	192	2
TAP	94	192	6
STR	94	240	2
SI_	94	240	2	96	48	7
STR	94	240	6
SI_	94	240	6	96	48	3
TAP	94	336	2
TAP	94	336	6
STR	95	48	1
SI_	95	48	1	96	48	4
STR	95	48	5
SI_	95	48	5	96	48	0
TAP	95	144	1
TAP	95	144	5
BRK	95	240	2
BRK	95	240	6
STR	96	0	0
SI_	96	0	0	96	48	4
TAP	96	0	4
TAP	96	96	6
STR	96	144	6
SI_	96	144	6	96	48	3
STR	96	240	2
SI_	96	240	2	96	48	7
TAP	96	240	6
TAP	96	336	2
STR	96	336	5
SI_	96	336	5	96	48	0
STR	97	48	1
SI_	97	48	1	96	48	4
TAP	97	48	5
TAP	97	144	1
STR	97	144	7
SI_	97	144	7	96	48	3
BRK	97	240	0
XTP	97	240	7
STR	98	0	4
SI_	98	0	4	96	48	0
TAP	98	0	5
TAP	98	96	6
STR	98	144	6
SI_	98	144	6	96	48	4
TAP	98	240	6
STR	98	240	7
SI_	98	240	7	96	48	3
STR	98	336	0
SI_	98	336	0	96	48	4
TAP	98	336	7
TAP	99	48	0
STR	99	48	1
SI_	99	48	1	96	48	3
TAP	99	144	1
STR	99	144	5
SCR	99	144	5	96	96	2
XTP	99	240	2
XTP	99	240	5
BRK	100	0	0
BRK	100	0	7
TAP	100	96	2
TAP	100	96	5
STR	100	144	2
SI_	100	144	2	96	48	6
STR	100	144	5
SI_	100	144	5	96	48	3
BRK	100	240	2
BRK	100	240	5
XST	100	336	1
SI_	100	336	1	96	48	5
XST	100	336	6
SI_	100	336	6	96	48	0
BRK	101	48	1
BRK	101	48	6
XST	101	144	0
SCR	101	144	0	96	48	3
XST	101	144	7
SCL	101	144	7	96	48	4
BRK	101	240	0
BRK	101	240	7
TAP	101	336	1
TAP	101	336	6
TAP	102	0	1
STR	102	0	6
SCR	102	0	6	96	48	1
STR	102	96	3
SI_	102	96	3	96	48	0
TAP	102	96	6
TAP	102	192	3
STR	102	192	4
SI_	102	192	4	96	48	7
STR	102	288	3
SCL	102	288	3	96	192	4
TAP	102	288	4
THO	103	0	0	288	C	1	M1
BRK	103	288	5
BRK	103	296	6
BRK	103	304	7
BRK	103	312	0
BRK	103	320	1
BRK	103	328	2
XTP	104	96	3
XTP	104	96	4
TAP	104	192	2
TAP	104	192	6
STR	104	240	2
SXL	104	240	2	96	96	2
STR	104	240	6
SXL	104	240	6	96	96	6
XTP	104	336	2
XTP	104	336	6
TAP	105	96	0
TAP	105	96	7
TAP	105	192	1
TAP	105	192	5
STR	105	240	1
SXR	105	240	1	96	96	1
STR	105	240	5
SXR	105	240	5	96	96	5
XTP	105	336	1
XTP	105	336	5
TAP	106	96	3
TAP	106	96	4
TAP	106	192	0
TAP	106	192	7
STR	106	240	1
SI_	106	240	1	96	48	5
STR	106	240	6
SI_	106	240	6	96	48	2
BRK	106	336	1
BRK	106	336	6
TTP	106	348	0	C	1	M1
TAP	107	192	4
TAP	107	192	5
TAP	107	240	6
TAP	107	288	0
TAP	107	288	7
TAP	107	336	1
TAP	108	0	2
TAP	108	0	3
TAP	108	96	4
TAP	108	96	5
TAP	108	144	4
STR	108	144	5
SI_	108	144	5	96	48	1
STR	108	240	4
SI_	108	240	4	96	48	0
STR	108	336	3
SI_	108	336	3	96	48	7
STR	109	48	2
SI_	109	48	2	96	48	6
STR	109	144	1
SCL	109	144	1	96	48	6
HLD	109	240	3	96
TAP	109	336	4
TAP	110	0	0
TAP	110	0	1
TAP	110	48	2
TAP	110	48	7
TAP	110	96	3
TAP	110	96	6
TAP	110	144	0
TAP	110	144	7
TAP	110	192	1
TAP	110	192	6
TAP	110	240	2
TAP	110	240	5
TAP	110	288	6
TAP	110	288	7
TAP	110	336	0
TAP	110	336	5
TAP	111	0	1
TAP	111	0	4
TAP	111	48	0
TAP	111	48	7
TAP	111	96	1
TAP	111	96	6
TAP	111	144	2
TAP	111	144	5
TAP	111	192	4
TAP	111	216	4
TAP	111	240	3
TAP	111	288	1
TAP	111	288	6
STR	111	336	1
SI_	111	336	1	96	48	5
TAP	111	336	6
TAP	112	48	7
TAP	112	96	7
TAP	112	144	7
TAP	112	192	1
TAP	112	192	5
TAP	112	240	3
TAP	112	264	3
TAP	112	288	4
TAP	112	336	2
TAP	112	336	6
TAP	113	0	4
TAP	113	24	4
TAP	113	48	3
TAP	113	96	1
TAP	113	96	5
TAP	113	144	3
TAP	113	168	3
BST	113	192	5
SI_	113	192	5	96	48	7
BST	113	240	7
SI_	113	240	7	96	48	3
BST	113	288	3
SI_	113	288	3	96	48	1
BRK	113	336	0

T_REC_TAP	533
T_REC_BRK	58
T_REC_XTP	45
T_REC_HLD	36
T_REC_XHO	2
T_REC_STR	132
T_REC_BST	7
T_REC_XST	12
T_REC_TTP	26
T_REC_THO	2
T_REC_SLD	151
T_REC_ALL	1004
T_NUM_TAP	748
T_NUM_BRK	65
T_NUM_HLD	40
T_NUM_SLD	151
T_NUM_ALL	1004
T_JUDGE_TAP	813
T_JUDGE_HLD	174
T_JUDGE_SLD	151
T_JUDGE_ALL	1138
TTM_EACHPAIRS	216
TTM_SCR_TAP	374000
TTM_SCR_BRK	169000
TTM_SCR_HLD	40000
TTM_SCR_SLD	226500
TTM_SCR_ALL	809500
TTM_SCR_S	778950
TTM_SCR_SS	803000
TTM_RAT_ACV	10080

