VERSION	0.00.00	1.03.00
FES_MODE	0
BPM_DEF	202.000	202.000	202.000	202.000
MET_DEF	4	4
RESOLUTION	384
CLK_DEF	384
COMPATIBLE_CODE	MA2

BPM	0	0	202.000
MET	0	0	4	4

TAP	1	0	2
TAP	1	0	5
TAP	1	48	0
TAP	1	72	7
TAP	1	96	1
TAP	1	120	6
TAP	1	144	2
TAP	1	168	5
TAP	1	192	3
TAP	1	216	4
TAP	1	240	3
TAP	1	264	4
TAP	1	288	2
TAP	1	288	5
STR	2	0	1
SCL	2	0	1	96	48	6
TAP	2	96	5
STR	2	144	5
SI_	2	144	5	96	48	1
STR	2	240	0
SI_	2	240	0	96	48	4
STR	2	336	7
SI_	2	336	7	96	48	3
TAP	3	48	2
STR	3	96	2
SI_	3	96	2	96	48	5
TAP	3	192	7
STR	3	240	7
SCL	3	240	7	96	48	4
SCR	3	240	7	96	48	2
XTP	3	336	7
TAP	4	48	0
TAP	4	96	1
TAP	4	96	5
TAP	4	144	2
TAP	4	192	3
STR	4	240	0
SI_	4	240	0	96	48	4
TAP	4	240	4
TAP	4	336	0
HLD	4	336	7	96
TAP	5	48	1
TAP	5	96	1
TAP	5	144	5
TAP	5	192	3
TAP	5	192	4
TAP	5	240	2
TAP	5	288	3
TAP	5	288	4
TAP	6	0	5
TAP	6	48	5
TAP	6	96	4
TAP	6	144	6
TAP	6	192	0
TAP	6	240	7
TAP	6	288	2
TAP	6	336	2
TAP	7	0	3
TAP	7	48	1
TAP	7	96	7
TAP	7	144	0
TAP	7	192	5
TAP	7	240	4
TAP	7	288	5
TAP	7	336	2
TAP	8	0	3
TAP	8	48	1
TAP	8	48	4
TAP	8	96	5
TAP	8	144	3
TAP	8	144	6
TAP	8	192	7
TAP	8	240	0
TAP	8	288	1
TAP	8	288	3
TAP	8	336	2
TAP	9	0	5
TAP	9	48	1
TAP	9	48	6
TAP	9	96	7
TAP	9	144	0
TAP	9	144	7
XTP	9	192	1
XTP	9	192	6
XTP	9	240	2
XTP	9	240	5
TAP	10	0	3
TAP	10	96	3
TAP	10	96	6
TAP	10	192	3
TAP	10	192	4
TAP	10	288	3
TAP	10	288	7
STR	10	336	7
SI_	10	336	7	96	48	4
TAP	11	0	3
TAP	11	96	3
TAP	11	192	3
TAP	11	192	4
TAP	11	240	5
TAP	11	288	3
TAP	11	288	6
TAP	11	336	7
TAP	12	0	3
TAP	12	48	7
TAP	12	96	3
TAP	12	144	5
TAP	12	192	3
TAP	12	240	4
TAP	12	288	3
HLD	12	336	4	144
TAP	13	0	3
TAP	13	96	3
TAP	13	192	3
TAP	13	192	4
TAP	13	288	3
STR	13	288	6
SI_	13	288	6	96	48	2
TAP	14	0	3
TAP	14	0	6
TAP	14	96	3
TAP	14	96	7
TAP	14	144	7
TAP	14	192	3
TAP	14	240	6
TAP	14	288	3
TAP	14	336	5
TAP	15	0	3
TAP	15	48	4
TAP	15	96	3
TAP	15	144	4
TAP	15	192	3
STR	15	240	5
SCR	15	240	5	96	240	2
TAP	15	288	3
TAP	16	0	3
TAP	16	96	3
TAP	16	192	3
TAP	16	288	3
TTP	17	0	1	E	0	M1
TTP	17	48	6	E	0	M1
TTP	17	96	3	E	0	M1
TTP	17	144	7	E	0	M1
TTP	17	192	2	E	0	M1
TTP	17	240	5	E	0	M1
TTP	17	288	0	B	0	M1
TTP	17	288	7	B	0	M1
TAP	18	0	2
TAP	18	48	2
TAP	18	96	3
TAP	18	144	1
TAP	18	192	7
STR	18	240	0
SCR	18	240	0	96	48	3
STR	18	240	7
SCL	18	240	7	96	48	4
XTP	18	336	0
XTP	18	336	7
TAP	19	48	2
TAP	19	48	5
TAP	19	96	2
TAP	19	96	5
STR	19	192	6
SI_	19	192	6	96	48	1
STR	19	288	2
SI_	19	288	2	96	48	5
TAP	20	0	7
TAP	20	96	0
TAP	20	96	7
TAP	20	144	0
TAP	20	144	7
STR	20	240	3
SI_	20	240	3	96	48	7
TAP	20	288	4
HLD	20	336	2	96
TAP	21	48	6
TAP	21	96	6
TAP	21	144	5
TAP	21	192	7
TAP	21	240	0
STR	21	288	7
SI_	21	288	7	96	48	3
HLD	22	0	2	96
TAP	22	96	5
STR	22	144	5
SCL	22	144	5	96	48	2
STR	22	240	1
SCL	22	240	1	96	48	6
TAP	22	336	4
TAP	23	0	4
TAP	23	96	0
STR	23	144	0
SCR	23	144	0	96	48	3
STR	23	240	4
SCL	23	240	4	96	192	5
XTP	23	336	0
TAP	24	288	0
TAP	24	288	7
TAP	24	336	0
TAP	24	336	7
TAP	25	48	1
TAP	25	48	3
TAP	25	144	4
TAP	25	144	6
TAP	25	240	0
TAP	25	240	7
TAP	25	288	0
TAP	25	288	7
TAP	26	0	5
TAP	26	48	4
TAP	26	96	3
TAP	26	144	2
TAP	26	240	0
STR	26	288	0
SCR	26	288	0	96	48	3
TAP	26	288	7
TAP	27	0	4
STR	27	96	7
SCL	27	96	7	96	48	4
TAP	27	192	3
HLD	27	240	3	480
TTP	27	336	3	B	0	M1
TTP	27	336	3	E	0	M1
TTP	28	48	0	B	0	M1
TTP	28	48	1	E	0	M1
TTP	28	144	4	B	0	M1
TTP	28	144	5	E	0	M1
TTP	28	240	7	B	0	M1
TTP	28	240	7	E	0	M1
TTP	28	336	0	C	0	M1
TAP	29	96	0
TAP	29	96	7
TAP	29	192	4
TAP	29	192	6
STR	29	240	4
SCL	29	240	4	96	48	0
TAP	29	240	5
HLD	29	336	7	96
TAP	30	96	0
TAP	30	96	7
TAP	30	192	1
TAP	30	192	3
TAP	30	240	2
STR	30	240	3
SCR	30	240	3	96	48	7
HLD	30	336	0	96
TAP	31	96	0
TAP	31	96	7
TAP	31	192	3
TAP	31	192	4
STR	31	240	3
SCL	31	240	3	96	240	4
TAP	31	240	4
XTP	31	336	7
TAP	32	288	2
TAP	32	288	5
TAP	32	336	2
TAP	32	336	5
TAP	33	48	6
TAP	33	96	3
STR	33	144	4
SI_	33	144	4	96	48	7
TAP	33	240	0
TAP	33	288	0
TAP	34	0	1
TAP	34	0	4
TAP	34	48	2
TAP	34	72	3
TAP	34	96	1
TAP	34	144	3
TAP	34	144	6
TAP	34	192	5
TAP	34	216	4
TAP	34	240	6
TAP	34	288	0
TAP	34	288	7
TAP	34	336	0
TAP	34	336	7
TAP	35	48	1
TAP	35	48	6
TAP	35	96	3
TAP	35	96	4
HLD	35	144	2	144
HLD	35	144	5	48
TAP	36	0	7
TAP	36	48	3
TAP	36	96	5
STR	36	144	1
SI_	36	144	1	96	48	4
STR	36	144	5
SI_	36	144	5	96	48	0
TAP	36	240	1
TAP	36	240	5
STR	36	336	2
SI_	36	336	2	96	48	7
STR	36	336	6
SI_	36	336	6	96	48	3
TAP	37	48	2
TAP	37	48	6
TAP	37	144	1
TAP	37	144	5
BRK	37	240	2
BRK	37	240	6
TAP	37	288	7
TAP	37	336	0
TAP	38	0	0
TAP	38	48	4
TAP	38	96	2
STR	38	144	2
SI_	38	144	2	96	48	7
STR	38	144	6
SI_	38	144	6	96	48	3
TAP	38	240	2
TAP	38	240	6
STR	38	336	1
SI_	38	336	1	96	48	4
STR	38	336	5
SI_	38	336	5	96	48	0
TAP	39	48	1
TAP	39	48	5
TAP	39	144	2
TAP	39	144	6
BRK	39	240	1
BRK	39	240	5
TAP	40	0	7
TAP	40	48	3
TAP	40	96	5
STR	40	144	1
SI_	40	144	1	96	48	4
STR	40	144	5
SI_	40	144	5	96	48	0
TAP	40	240	1
TAP	40	240	5
STR	40	336	2
SI_	40	336	2	96	60	7
STR	40	336	6
SI_	40	336	6	96	60	3
TAP	41	48	2
TAP	41	48	6
STR	41	144	0
SI_	41	144	0	96	48	3
STR	41	144	4
SI_	41	144	4	96	48	7
STR	41	240	0
SCL	41	240	0	96	144	1
TAP	41	240	4
HLD	42	96	7	96
TAP	42	192	0
STR	42	240	0
SI_	42	240	0	96	48	4
TAP	42	336	0
STR	42	336	6
SI_	42	336	6	96	48	2
STR	43	48	3
SI_	43	48	3	96	48	0
TAP	43	48	6
TAP	43	144	3
TAP	43	144	7
TAP	43	240	1
TAP	43	240	6
TAP	43	288	1
TAP	43	288	6
TAP	44	0	0
TAP	44	48	4
TAP	44	96	2
STR	44	144	2
SI_	44	144	2	96	48	7
STR	44	144	6
SI_	44	144	6	96	48	3
TAP	44	240	2
TAP	44	240	6
STR	44	336	1
SI_	44	336	1	96	48	4
STR	44	336	5
SI_	44	336	5	96	48	0
TAP	45	48	1
TAP	45	48	5
TAP	45	144	2
TAP	45	144	6
BRK	45	240	1
BRK	45	240	5
TAP	45	288	0
TAP	45	336	7
TAP	46	0	7
TAP	46	48	3
TAP	46	96	5
STR	46	144	1
SI_	46	144	1	96	48	4
STR	46	144	5
SI_	46	144	5	96	48	0
TAP	46	240	1
TAP	46	240	5
STR	46	336	2
SI_	46	336	2	96	48	7
STR	46	336	6
SI_	46	336	6	96	48	3
TAP	47	48	2
TAP	47	48	6
TAP	47	144	1
TAP	47	144	5
BRK	47	240	2
BRK	47	240	6
TAP	48	0	0
TAP	48	48	4
TAP	48	96	2
STR	48	144	2
SI_	48	144	2	96	48	7
STR	48	144	6
SI_	48	144	6	96	48	3
TAP	48	240	2
TAP	48	240	6
STR	48	336	1
SI_	48	336	1	96	48	4
STR	48	336	5
SI_	48	336	5	96	48	0
TAP	49	48	1
TAP	49	48	5
STR	49	144	3
SI_	49	144	3	96	48	0
STR	49	144	7
SI_	49	144	7	96	48	4
TAP	49	240	3
STR	49	240	7
SCR	49	240	7	96	144	6
HLD	50	96	0	96
STR	50	192	7
SCL	50	192	7	96	48	4
STR	50	288	0
SCR	50	288	0	96	48	3
TAP	50	288	7
TAP	51	0	0
TAP	51	0	7
TAP	51	96	2
TAP	51	96	5
TAP	51	144	2
TAP	51	144	5
TAP	51	240	0
TAP	51	240	7
TAP	51	288	2
TAP	51	288	5
STR	52	0	1
SI_	52	0	1	96	48	5
HLD	52	0	6	192
TAP	52	96	1
TAP	52	192	4
STR	52	240	4
SCL	52	240	4	96	96	7
TAP	52	336	7
HLD	53	96	2	96
TAP	53	96	4
TAP	53	192	7
STR	53	240	7
SCL	53	240	7	96	96	2
TAP	53	336	1
TAP	54	96	0
TAP	54	96	7
STR	54	192	6
SI_	54	192	6	96	48	2
STR	54	240	2
SI_	54	240	2	96	48	6
XTP	54	288	1
XTP	54	336	1
TAP	55	48	0
TAP	55	96	0
TAP	55	96	7
TAP	55	192	5
TAP	55	240	4
TAP	55	288	6
TAP	55	336	0
STR	56	0	7
SCL	56	0	7	96	48	4
TAP	56	96	0
STR	56	144	0
SCR	56	144	0	96	48	3
STR	56	240	4
SI_	56	240	4	96	48	0
STR	56	336	2
SI_	56	336	2	96	48	6
STR	57	48	7
SI_	57	48	7	96	48	4
STR	57	144	3
SI_	57	144	3	96	48	0
TAP	57	240	7
TAP	57	336	1
TAP	57	336	6
TAP	58	0	5
TAP	58	48	4
TAP	58	96	6
TAP	58	144	2
TAP	58	192	3
TAP	58	240	1
TAP	58	288	5
TAP	58	336	4
TAP	59	0	7
TAP	59	48	2
TAP	59	96	3
TAP	59	144	0
TAP	59	168	0
TAP	59	192	7
TAP	59	240	2
TAP	59	240	5
TAP	60	0	3
TAP	60	0	6
STR	60	48	3
SCL	60	48	3	96	48	0
TAP	60	48	6
TAP	60	144	6
TAP	60	168	5
TAP	60	192	4
TAP	60	288	4
TAP	60	336	4
TAP	61	0	0
TAP	61	48	7
TAP	61	96	2
TAP	61	144	2
TAP	61	192	4
TAP	61	240	3
TAP	61	288	5
TAP	61	336	2
TAP	62	0	1
TAP	62	0	4
TAP	62	48	1
STR	62	48	4
SCR	62	48	4	96	48	7
TAP	62	144	1
TAP	62	168	2
TAP	62	192	3
TAP	62	288	3
TAP	62	336	3
TAP	63	0	7
TAP	63	48	0
TAP	63	96	5
TAP	63	144	5
TAP	63	192	3
TAP	63	240	4
TAP	63	288	1
TTP	64	0	2	E	0	M1
TTP	64	24	2	B	0	M1
TTP	64	48	3	B	0	M1
TTP	64	72	4	E	0	M1
TTP	64	96	6	E	0	M1
TTP	64	120	6	B	0	M1
TTP	64	144	7	B	0	M1
TTP	64	168	0	E	0	M1
TAP	64	192	1
STR	64	240	1
SCR	64	240	1	96	48	4
TAP	64	288	5
HLD	64	336	6	96
TAP	65	48	7
TAP	65	96	7
TAP	65	144	0
TAP	65	192	6
TAP	65	240	2
TAP	65	288	4
HLD	65	336	3	96
TAP	66	48	4
STR	66	96	4
SI_	66	96	4	96	48	6
STR	66	192	3
SI_	66	192	3	96	48	1
TAP	66	288	7
TAP	66	336	7
TAP	67	48	0
STR	67	96	0
SI_	67	96	0	96	48	4
TAP	67	192	0
STR	67	192	6
SI_	67	192	6	96	48	3
TAP	67	288	0
TAP	67	288	6
STR	68	0	1
SCR	68	0	1	96	48	4
TAP	68	0	7
TTP	68	96	5	B	0	M1
TTP	68	96	6	E	0	M1
TAP	68	192	0
STR	68	192	6
SCL	68	192	6	96	48	3
TAP	68	240	0
TTP	68	288	2	B	0	M1
TTP	68	288	2	E	0	M1
STR	69	0	1
SCR	69	0	1	96	48	4
TAP	69	0	7
TTP	69	96	5	B	0	M1
TTP	69	96	6	E	0	M1
TAP	69	192	0
TAP	69	240	0
TAP	69	288	7
TAP	69	336	7
TAP	70	0	0
STR	70	0	6
SCL	70	0	6	96	48	3
TTP	70	96	2	E	0	M1
TTP	70	96	2	B	0	M1
STR	70	192	1
SCR	70	192	1	96	48	4
TAP	70	192	7
TAP	70	240	7
TTP	70	288	5	B	0	M1
TTP	70	288	6	E	0	M1
TAP	71	0	0
STR	71	0	6
SCL	71	0	6	96	48	3
TTP	71	96	2	B	0	M1
TTP	71	96	2	E	0	M1
TAP	71	192	7
TAP	71	240	7
TAP	71	288	0
TAP	71	336	0
TTP	72	0	1	E	0	M1
TTP	72	24	1	B	0	M1
TTP	72	48	2	B	0	M1
TTP	72	72	3	E	0	M1
TTP	72	96	7	E	0	M1
TTP	72	120	6	B	0	M1
TTP	72	144	5	B	0	M1
TTP	72	168	5	E	0	M1
TAP	72	192	0
TAP	72	216	1
TAP	72	240	2
TAP	72	264	3
TAP	72	288	7
TAP	72	312	6
TAP	72	336	5
TAP	72	360	4
TTP	73	0	0	E	0	M1
TTP	73	12	1	E	0	M1
TTP	73	24	2	E	0	M1
TTP	73	36	3	E	0	M1
TTP	73	48	4	E	0	M1
TTP	73	60	5	E	0	M1
TTP	73	72	6	E	0	M1
TTP	73	84	7	E	0	M1
TTP	73	96	0	E	0	M1
TTP	73	108	1	E	0	M1
TTP	73	120	2	E	0	M1
TTP	73	132	3	E	0	M1
TTP	73	144	4	E	0	M1
TTP	73	156	5	E	0	M1
TTP	73	168	6	E	0	M1
TTP	73	180	7	E	0	M1
TTP	73	192	0	E	0	M1
XTP	73	288	2
XTP	73	288	5
STR	74	0	1
SI_	74	0	1	96	48	4
TAP	74	48	7
TAP	74	96	7
STR	74	144	6
SI_	74	144	6	96	48	3
TAP	74	192	0
TAP	74	240	0
STR	74	288	1
SI_	74	288	1	96	48	5
TAP	74	336	7
TAP	75	0	7
STR	75	48	6
SI_	75	48	6	96	48	2
TAP	75	96	0
TAP	75	144	0
HLD	75	192	1	192
TTP	75	288	0	E	0	M1
STR	76	0	3
SCR	76	0	3	96	48	6
TAP	76	96	2
TAP	76	192	0
TAP	76	240	0
TAP	76	288	7
TAP	76	336	7
STR	77	0	4
SCL	77	0	4	96	48	1
TAP	77	0	6
TAP	77	96	5
TAP	77	192	7
TAP	77	240	7
TAP	77	288	0
TAP	77	336	0
TAP	78	0	1
STR	78	0	3
SI_	78	0	3	96	48	7
TAP	78	96	2
STR	78	144	2
SI_	78	144	2	96	48	5
STR	78	240	6
SCR	78	240	6	96	240	4
XTP	78	336	0
TAP	79	288	3
TAP	79	288	4
TAP	80	0	2
TAP	80	0	6
TAP	80	96	0
TAP	80	96	1
STR	80	144	0
SI_	80	144	0	96	48	5
STR	80	144	1
SI_	80	144	1	96	48	4
TAP	80	240	0
TAP	80	240	1
TAP	80	336	3
TAP	81	0	3
TAP	81	0	4
TAP	81	96	6
TAP	81	96	7
STR	81	144	6
SI_	81	144	6	96	48	3
STR	81	144	7
SI_	81	144	7	96	48	2
TAP	81	240	6
TAP	81	240	7
TAP	81	336	4
TAP	82	0	3
TAP	82	0	4
TAP	82	96	2
TAP	82	144	1
TAP	82	144	3
TAP	82	240	5
TAP	82	288	4
TAP	82	288	6
TAP	83	0	0
TAP	83	48	1
TAP	83	48	3
TAP	83	144	7
STR	83	192	4
SI_	83	192	4	96	48	0
TAP	83	192	6
XTP	83	288	0
STR	83	288	4
SCR	83	288	4	96	192	3
XTP	84	0	3
TAP	84	288	2
TAP	84	288	3
TAP	84	336	1
TAP	84	336	4
TAP	85	48	4
TAP	85	48	5
TAP	85	96	3
TAP	85	96	6
TAP	85	192	0
TAP	85	192	7
TAP	85	288	3
TAP	85	288	4
TAP	86	0	2
TAP	86	48	3
TAP	86	96	1
TAP	86	144	5
TAP	86	192	4
TAP	86	240	6
TAP	86	288	0
TAP	86	336	0
STR	87	0	7
SI_	87	0	7	96	48	3
STR	87	96	0
SI_	87	96	0	96	48	4
STR	87	192	7
SCL	87	192	7	96	48	4
STR	87	288	0
SCR	87	288	0	96	48	3
TTP	88	0	0	C	1	M1
TAP	90	0	0
TAP	90	0	7
STR	90	48	0
SCR	90	48	0	96	48	3
TAP	90	48	7
TAP	90	144	0
STR	90	144	4
SCR	90	144	4	96	48	7
TAP	90	240	0
TAP	90	240	4
BRK	90	336	0
BRK	90	336	1
BRK	91	48	2
BRK	91	48	3
BRK	91	144	4
BRK	91	144	5
BRK	91	240	6
BRK	91	240	7
TAP	92	0	0
TAP	92	48	4
TAP	92	96	2
STR	92	144	2
SV_	92	144	2	96	48	7
STR	92	144	6
SV_	92	144	6	96	48	3
TAP	92	240	2
TAP	92	240	6
TTP	92	264	0	C	0	M1
STR	92	336	1
SV_	92	336	1	96	48	4
STR	92	336	5
SV_	92	336	5	96	48	0
TAP	93	48	1
TAP	93	48	5
TTP	93	72	0	C	0	M1
STR	93	144	2
SI_	93	144	2	96	48	5
STR	93	144	6
SI_	93	144	6	96	48	1
TAP	93	240	2
STR	93	240	6
SCR	93	240	6	96	144	5
HLD	94	96	0	96
TAP	94	192	7
STR	94	240	7
SI_	94	240	7	96	48	3
STR	94	336	1
SI_	94	336	1	96	48	5
TAP	94	336	7
TAP	95	48	1
STR	95	48	4
SI_	95	48	4	96	48	7
TAP	95	144	0
TAP	95	144	4
TAP	95	240	1
TAP	95	240	6
TAP	95	288	1
TAP	95	288	6
TAP	96	0	7
TAP	96	48	3
TAP	96	96	5
STR	96	144	1
SV_	96	144	1	96	48	4
STR	96	144	5
SV_	96	144	5	96	48	0
TAP	96	240	1
TAP	96	240	5
TTP	96	264	0	C	0	M1
STR	96	336	2
SV_	96	336	2	96	48	7
STR	96	336	6
SV_	96	336	6	96	48	3
TAP	97	48	2
TAP	97	48	6
TTP	97	72	0	C	0	M1
TAP	97	144	1
TAP	97	144	5
BRK	97	240	2
BRK	97	240	6
TAP	97	288	7
TAP	97	336	0
TAP	98	0	0
TAP	98	48	4
TAP	98	96	2
STR	98	144	2
SV_	98	144	2	96	48	7
STR	98	144	6
SV_	98	144	6	96	48	3
TAP	98	240	2
TAP	98	240	6
TTP	98	264	0	C	0	M1
STR	98	336	1
SV_	98	336	1	96	48	4
STR	98	336	5
SV_	98	336	5	96	48	0
TAP	99	48	1
TAP	99	48	5
TTP	99	72	0	C	0	M1
TAP	99	144	2
TAP	99	144	6
BRK	99	240	1
BRK	99	240	5
TAP	100	0	7
TAP	100	48	3
TAP	100	96	5
STR	100	144	1
SV_	100	144	1	96	48	4
STR	100	144	5
SV_	100	144	5	96	48	0
TAP	100	240	1
TAP	100	240	5
TTP	100	264	0	C	0	M1
STR	100	336	2
SV_	100	336	2	96	48	7
STR	100	336	6
SV_	100	336	6	96	48	3
TAP	101	48	2
TAP	101	48	6
TTP	101	72	0	C	0	M1
STR	101	144	1
SI_	101	144	1	96	48	6
STR	101	144	5
SI_	101	144	5	96	48	2
STR	101	240	1
SCL	101	240	1	96	144	2
TAP	101	240	5
HLD	102	96	7	96
STR	102	192	0
SCR	102	192	0	96	48	3
TAP	102	288	0
STR	102	288	7
SCL	102	288	7	96	48	4
TAP	103	0	0
TAP	103	0	7
TAP	103	96	2
TAP	103	96	5
TAP	103	144	2
TAP	103	144	5
TAP	103	240	0
TAP	103	240	7
TAP	103	288	2
TAP	103	288	5
HLD	104	0	1	192
STR	104	0	6
SI_	104	0	6	96	48	2
TAP	104	96	6
TAP	104	192	3
STR	104	240	3
SCL	104	240	3	96	48	0
SCR	104	240	3	96	48	6
TAP	104	336	3
TTP	104	348	3	E	0	M1
TTP	104	348	4	E	0	M1
TTP	104	360	2	E	0	M1
TTP	104	360	5	E	0	M1
TTP	104	372	1	E	0	M1
TTP	104	372	6	E	0	M1
TAP	105	96	3
HLD	105	96	5	96
TAP	105	192	0
STR	105	240	0
SCL	105	240	0	96	48	5
SCR	105	240	0	96	48	3
TAP	105	336	0
TTP	105	348	0	E	0	M1
TTP	105	348	1	E	0	M1
TTP	105	360	2	E	0	M1
TTP	105	360	7	E	0	M1
TTP	105	372	3	E	0	M1
TTP	105	372	6	E	0	M1
TAP	106	96	0
TAP	106	96	7
STR	106	192	1
SI_	106	192	1	96	48	5
STR	106	240	5
SI_	106	240	5	96	48	1
XTP	106	288	6
XTP	106	336	6
TAP	107	48	7
TAP	107	96	0
TAP	107	96	7
TAP	107	192	2
TAP	107	240	3
TAP	107	288	1
TAP	107	336	7
STR	108	0	0
SCR	108	0	0	96	48	3
TAP	108	96	7
STR	108	144	7
SCL	108	144	7	96	48	4
STR	108	240	3
SI_	108	240	3	96	48	7
STR	108	336	5
SI_	108	336	5	96	48	1
STR	109	48	0
SI_	109	48	0	96	48	3
STR	109	144	4
SI_	109	144	4	96	48	7
TAP	109	240	0
TAP	109	336	1
TAP	109	336	6
TAP	110	0	2
TAP	110	48	3
TAP	110	96	1
TAP	110	144	5
TAP	110	192	4
TAP	110	240	6
TAP	110	288	2
TAP	110	336	3
TAP	111	0	0
TAP	111	48	5
TAP	111	96	4
TAP	111	144	7
TAP	111	168	7
TAP	111	192	0
TAP	111	240	1
TAP	111	240	6
TAP	111	288	1
TAP	111	288	6
STR	112	0	5
SI_	112	0	5	96	48	0
TAP	112	48	3
TAP	112	96	3
STR	112	144	2
SI_	112	144	2	96	48	7
TAP	112	192	4
TAP	112	240	4
STR	112	288	5
SCR	112	288	5	96	48	0
TAP	112	336	3
TAP	113	0	3
STR	113	48	2
SCL	113	48	2	96	48	7
TAP	113	96	4
TAP	113	144	4
STR	113	192	5
SI_	113	192	5	96	60	0
STR	113	240	1
SI_	113	240	1	96	48	5
XTP	113	288	5
TTP	113	300	6	E	0	M1
TTP	113	312	6	B	0	M1
TTP	113	324	7	B	0	M1
XTP	113	336	1
TTP	113	348	1	B	0	M1
TTP	113	360	0	C	1	M1
TTP	113	372	5	B	0	M1

T_REC_TAP	554
T_REC_BRK	20
T_REC_XTP	20
T_REC_HLD	20
T_REC_XHO	0
T_REC_STR	150
T_REC_BST	0
T_REC_XST	0
T_REC_TTP	90
T_REC_THO	0
T_REC_SLD	153
T_REC_ALL	1007
T_NUM_TAP	814
T_NUM_BRK	20
T_NUM_HLD	20
T_NUM_SLD	153
T_NUM_ALL	1007
T_JUDGE_TAP	834
T_JUDGE_HLD	55
T_JUDGE_SLD	153
T_JUDGE_ALL	1042
TTM_EACHPAIRS	193
TTM_SCR_TAP	407000
TTM_SCR_BRK	52000
TTM_SCR_HLD	20000
TTM_SCR_SLD	229500
TTM_SCR_ALL	708500
TTM_SCR_S	685350
TTM_SCR_SS	706500
TTM_RAT_ACV	10028

