VERSION	0.00.00	1.03.00
FES_MODE	0
BPM_DEF	202.000	202.000	202.000	202.000
MET_DEF	4	4
RESOLUTION	384
CLK_DEF	384
COMPATIBLE_CODE	MA2

BPM	0	0	202.000
MET	0	0	4	4

TAP	2	0	4
TAP	2	96	3
TAP	2	96	4
TAP	2	192	2
HLD	2	240	2	96
TAP	2	336	3
TAP	3	48	1
TAP	3	48	5
TAP	3	96	1
HLD	3	96	5	144
TAP	3	192	4
TAP	3	240	4
HLD	3	336	2	144
TAP	3	336	6
TAP	4	48	3
TAP	4	96	3
TAP	4	192	3
TAP	4	192	4
TAP	4	240	3
TAP	4	240	4
XTP	4	336	2
XTP	4	336	5
XTP	5	96	1
XTP	5	192	0
XTP	5	288	7
HLD	6	0	6	192
TAP	6	96	4
TAP	6	192	3
TAP	6	240	3
TAP	6	288	4
HLD	7	0	1	192
TAP	7	96	3
TAP	7	192	4
TAP	7	240	4
TAP	7	288	3
XHO	8	0	4	96
XHO	8	0	5	96
XHO	8	144	3	96
XHO	8	144	4	96
XHO	8	288	2	96
XHO	8	288	3	96
XHO	9	48	3	96
XHO	9	48	4	96
XTP	9	192	2
XTP	9	192	5
BRK	9	240	2
BRK	9	240	5
HLD	10	0	2	576
TAP	10	96	3
TAP	10	192	3
TAP	10	288	4
TAP	11	0	3
TAP	11	96	3
TAP	11	192	4
TAP	11	288	3
HLD	12	0	5	384
TAP	12	96	4
TAP	12	192	4
TAP	12	288	3
TAP	13	0	4
TAP	13	96	4
XTP	13	192	3
XTP	13	288	2
XTP	13	288	4
TAP	14	0	3
HLD	14	0	5	288
TAP	14	96	3
TAP	14	192	4
TAP	14	288	3
HLD	15	0	2	288
TAP	15	0	4
TAP	15	96	4
TAP	15	192	3
STR	15	288	1
SCL	15	288	1	96	288	4
TAP	17	0	2
TAP	17	0	3
TAP	17	96	5
XTP	17	144	3
XTP	17	144	5
TAP	17	240	2
XTP	17	288	2
XTP	17	288	4
TAP	18	0	5
TAP	18	96	7
TAP	18	192	6
HLD	18	240	6	96
HLD	18	336	4	96
TAP	19	48	5
TAP	19	144	3
TAP	19	192	3
TAP	19	288	3
TAP	19	288	4
TAP	20	0	2
TAP	20	96	0
TAP	20	192	1
HLD	20	240	1	96
HLD	20	336	3	96
TAP	21	48	2
TAP	21	144	4
TAP	21	192	4
XTP	21	288	2
XTP	21	288	5
TAP	22	0	4
TAP	22	0	6
STR	22	96	5
SCL	22	96	5	96	96	2
TAP	23	0	1
TAP	23	0	3
STR	23	96	2
SCR	23	96	2	96	96	5
TTP	24	0	5	B	0	M1
TTP	24	0	6	B	0	M1
TTP	24	192	1	B	0	M1
TTP	24	192	2	B	0	M1
TTP	25	0	7	E	0	M1
TTP	25	96	1	E	0	M1
TTP	25	192	0	C	1	M1
XHO	26	0	0	384
XHO	26	0	1	192
TTP	27	0	1	E	0	M1
TTP	27	96	0	C	0	M1
TTP	27	192	5	E	0	M1
HLD	28	0	6	192
HLD	28	0	7	384
TTP	29	0	7	E	0	M1
TTP	29	96	0	C	0	M1
TTP	29	192	2	E	0	M1
TTP	29	192	4	E	0	M1
TTP	30	0	0	E	0	M1
TTP	30	96	7	E	0	M1
TTP	30	192	6	E	0	M1
TTP	30	288	0	C	0	M1
TTP	31	0	0	E	0	M1
TTP	31	96	1	E	0	M1
TTP	31	192	2	E	0	M1
TTP	31	288	3	E	0	M1
TTP	31	288	5	E	0	M1
THO	32	0	0	576	C	1	M1
XHO	34	0	1	96
XHO	34	0	7	96
XHO	34	144	0	96
XHO	34	144	6	96
XTP	34	288	0
XTP	34	288	7
XTP	35	0	1
XTP	35	0	6
XTP	35	48	1
XTP	35	48	6
XTP	35	96	1
XTP	35	96	6
BRK	35	144	1
BRK	35	144	6
TAP	35	288	3
TAP	35	288	4
XTP	36	0	1
XTP	36	0	6
TAP	36	96	2
TAP	36	96	3
HLD	36	144	2	96
TAP	36	144	3
TAP	36	240	6
TAP	36	336	4
HLD	36	336	5	96
TAP	37	48	1
TAP	37	144	3
TAP	37	144	4
TAP	37	240	2
TAP	37	240	5
TAP	37	288	2
TAP	37	288	5
TAP	38	0	0
TAP	38	0	7
TAP	38	96	4
TAP	38	96	5
TAP	38	144	4
HLD	38	144	5	96
TAP	38	240	0
HLD	38	336	2	96
TAP	38	336	3
TAP	39	48	7
TAP	39	144	0
TAP	39	144	6
XTP	39	240	2
XTP	39	240	7
TAP	40	0	3
TAP	40	0	4
TAP	40	96	0
TAP	40	144	0
TAP	40	240	1
HLD	40	240	3	96
TAP	40	336	4
TAP	41	48	4
HLD	41	48	6	96
TAP	41	144	7
TAP	41	240	0
TAP	41	240	5
BRK	41	336	2
BRK	41	336	7
TAP	42	96	1
TAP	42	96	6
XTP	42	192	0
XTP	42	240	0
XTP	42	336	6
XTP	42	336	7
XTP	43	48	4
XTP	43	48	5
XTP	43	144	2
XTP	43	144	3
BRK	43	240	1
BRK	43	240	4
TAP	44	0	2
TAP	44	0	5
TAP	44	96	6
TAP	44	96	7
HLD	44	144	6	96
HLD	44	144	7	96
TAP	44	336	0
HLD	44	336	1	96
HLD	45	48	2	96
TAP	45	144	3
TAP	45	240	3
TAP	45	240	4
TAP	45	288	3
TAP	45	288	4
TAP	46	0	2
TAP	46	0	5
TAP	46	96	0
TAP	46	96	1
HLD	46	144	0	96
HLD	46	144	1	96
HLD	46	336	6	96
TAP	46	336	7
HLD	47	48	5	96
TAP	47	144	4
XTP	47	240	1
XTP	47	240	6
TAP	48	0	3
TAP	48	0	4
TAP	48	96	6
TAP	48	96	7
HLD	48	144	6	96
HLD	48	144	7	96
XTP	48	336	0
XTP	48	336	1
XTP	49	48	2
XTP	49	48	3
XTP	49	144	4
XTP	49	144	5
XTP	49	240	6
XST	49	240	7
SCR	49	240	7	96	240	5
XTP	50	288	7
TAP	51	0	1
TAP	51	0	6
TAP	51	96	2
TAP	51	96	3
TAP	51	144	2
TAP	51	144	3
TAP	51	240	4
TAP	51	240	5
TAP	51	288	4
TAP	51	288	5
TAP	52	0	3
TAP	52	0	4
TAP	52	96	0
TAP	52	192	1
TAP	52	192	5
STR	52	240	1
SI_	52	240	1	96	48	4
TAP	52	240	5
XTP	52	336	6
XTP	53	96	0
TAP	53	192	2
TAP	53	192	6
TAP	53	240	2
STR	53	240	6
SI_	53	240	6	96	48	3
XTP	53	336	1
XTP	54	96	0
XTP	54	96	7
TAP	54	192	1
TAP	54	192	6
STR	54	240	1
SI_	54	240	1	96	48	4
STR	54	240	6
SI_	54	240	6	96	48	3
XTP	55	96	2
XTP	55	96	5
TAP	55	192	3
TAP	55	240	3
TAP	55	288	4
TAP	56	0	1
HLD	56	0	6	144
TAP	56	96	7
TAP	56	144	7
HLD	56	240	1	96
TAP	56	336	2
HLD	57	48	6	96
TAP	57	144	5
HLD	57	240	2	96
TAP	57	336	3
XHO	58	0	3	96
XHO	58	144	2	96
XHO	58	144	4	96
XHO	58	288	3	96
XHO	58	288	5	96
XHO	59	48	3	96
XHO	59	48	4	96
XTP	59	192	1
XTP	59	192	6
BRK	59	240	1
BRK	59	240	6
HLD	60	0	2	96
HLD	60	0	4	96
TAP	60	192	3
TAP	60	288	4
HLD	61	0	3	96
HLD	61	0	5	96
TAP	61	192	4
TAP	61	288	3
HLD	62	0	2	96
HLD	62	0	4	96
HLD	62	192	3	96
HLD	62	192	5	96
TAP	63	0	3
TAP	63	0	5
TAP	63	96	2
TAP	63	96	4
TAP	63	192	1
TAP	63	192	5
HLD	64	0	2	96
HLD	64	0	4	96
HLD	64	192	3	96
TAP	64	192	5
TAP	64	288	5
HLD	65	0	2	96
HLD	65	0	4	96
TAP	65	192	3
HLD	65	192	5	96
TAP	65	288	3
TAP	66	0	5
TAP	66	96	7
TAP	66	192	2
TAP	66	288	0
TAP	67	0	1
TAP	67	0	6
TAP	67	96	3
TAP	67	96	4
TTP	67	192	0	C	1	M1
TTP	67	192	1	B	0	M1
TTP	67	192	6	B	0	M1
XTP	68	0	0
XTP	68	0	7
XTP	68	96	1
XTP	68	96	6
TAP	68	192	2
TAP	68	240	2
TAP	68	288	3
TAP	69	0	3
TAP	69	0	4
TAP	69	96	2
TAP	69	96	5
TAP	69	192	6
TAP	69	240	6
TAP	69	288	7
STR	70	0	0
SI_	70	0	0	96	48	4
TAP	70	0	7
STR	70	192	6
SI_	70	192	6	96	48	3
TAP	70	192	7
HLD	71	0	1	96
TAP	71	96	0
XTP	71	192	2
XTP	71	192	7
TAP	72	0	5
TAP	72	48	5
TAP	72	96	3
TAP	72	144	3
TAP	72	192	6
TAP	72	288	6
TAP	72	288	7
TAP	73	0	2
TAP	73	48	2
TAP	73	96	4
TAP	73	144	4
TAP	73	192	1
TAP	73	288	0
TAP	73	288	1
TAP	74	0	0
HLD	74	0	7	96
TAP	74	96	5
HLD	74	192	0	96
TAP	74	192	7
TAP	74	288	2
STR	75	0	0
SI_	75	0	0	96	48	4
STR	75	0	7
SI_	75	0	7	96	48	3
BRK	75	192	2
BRK	75	192	5
HLD	76	0	3	384
XTP	76	0	4
TTP	76	192	0	C	0	M1
HLD	77	0	5	384
TTP	77	192	5	E	0	M1
HLD	78	0	2	576
TTP	78	192	4	E	0	M1
HLD	79	0	4	192
TAP	79	288	3
TAP	79	288	4
HLD	80	0	4	96
HLD	80	0	5	96
HLD	80	144	3	96
HLD	80	144	6	96
XTP	80	288	4
XTP	80	288	5
HLD	81	0	2	96
HLD	81	0	3	96
HLD	81	144	1	96
HLD	81	144	4	96
XTP	81	288	2
XTP	81	288	3
HLD	82	0	3	96
HLD	82	0	4	96
HLD	82	144	4	96
HLD	82	144	5	96
HLD	82	288	3	96
HLD	82	288	4	96
HLD	83	48	2	96
HLD	83	48	3	96
XTP	83	192	3
XTP	83	192	4
XST	83	288	2
SCL	83	288	2	96	528	4
XTP	83	288	5
XTP	84	0	7
TAP	85	288	2
TAP	85	288	3
HLD	86	0	1	96
HLD	86	0	4	96
HLD	86	144	2	96
HLD	86	144	5	96
HLD	86	288	3	96
HLD	86	288	6	96
HLD	87	48	2	96
HLD	87	48	5	96
BRK	87	192	3
BRK	87	192	4
STR	88	0	2
SCL	88	0	2	96	192	7
TAP	88	0	5
STR	89	0	6
SCL	89	0	6	96	192	3
HLD	90	0	1	192
TAP	90	192	0
TAP	90	288	2
TAP	90	288	3
XTP	90	336	2
XTP	90	336	3
XTP	91	48	3
XTP	91	48	4
XTP	91	144	4
XTP	91	144	6
BRK	91	240	0
BRK	91	240	5
TAP	92	0	1
TAP	92	0	6
TAP	92	96	2
TAP	92	96	5
HLD	92	144	2	96
TAP	92	144	5
TAP	92	240	3
XTP	92	336	1
XHO	92	336	6	96
XTP	93	48	4
XHO	93	144	0	96
XTP	93	144	7
XTP	93	240	2
BRK	93	336	1
BRK	93	336	6
TAP	94	96	3
TAP	94	96	4
TAP	94	192	6
TAP	94	240	6
TAP	94	240	7
XTP	94	336	0
XTP	94	336	1
XTP	95	48	2
XTP	95	144	3
XTP	95	144	6
BRK	95	240	0
BRK	95	240	5
TAP	96	0	2
TAP	96	0	4
TAP	96	96	6
TAP	96	96	7
HLD	96	144	6	96
TAP	96	144	7
TAP	96	240	3
TAP	96	336	0
HLD	96	336	1	96
TAP	97	48	4
STR	97	144	6
SI_	97	144	6	96	48	3
STR	97	144	7
SI_	97	144	7	96	48	2
TAP	98	0	1
TAP	98	0	4
TAP	98	96	2
TAP	98	96	3
HLD	98	144	2	96
TAP	98	144	3
TAP	98	240	7
TAP	98	336	4
HLD	98	336	5	96
TAP	99	48	0
STR	99	144	2
SI_	99	144	2	96	48	7
STR	99	144	3
SI_	99	144	3	96	48	6
XTP	100	0	0
XTP	100	0	5
XTP	100	96	1
XTP	100	96	6
HLD	100	144	1	96
XTP	100	144	6
XTP	100	240	3
BRK	100	336	2
HLD	100	336	5	96
BRK	101	48	4
BRK	101	144	6
BRK	101	144	7
BST	101	240	0
SCL	101	240	0	96	240	4
BST	101	240	1
SUL	101	240	1	96	240	3
XTP	102	288	2
XTP	102	288	3
TTP	103	0	0	C	1	M1
TTP	103	0	1	B	0	M1
TTP	103	0	6	B	0	M1
XTP	103	192	7
XTP	103	288	0
XTP	103	288	7
HLD	104	0	1	96
TAP	104	0	6
TAP	104	96	3
TAP	104	192	3
TAP	104	192	5
TAP	104	240	3
STR	104	240	5
SI_	104	240	5	96	48	0
XTP	104	336	4
XTP	105	96	1
XTP	105	96	3
TAP	105	192	2
TAP	105	192	4
STR	105	240	2
SI_	105	240	2	96	48	7
TAP	105	240	4
XTP	105	336	3
XTP	106	96	4
XTP	106	96	6
TAP	106	192	1
TAP	106	192	7
STR	106	240	1
SI_	106	240	1	96	48	4
STR	106	240	7
SI_	106	240	7	96	48	3
XTP	107	96	2
XTP	107	96	6
TAP	107	192	5
TAP	107	240	5
TAP	107	288	4
HLD	108	0	1	144
TAP	108	0	3
TAP	108	96	0
TAP	108	144	0
HLD	108	240	2	96
TAP	108	240	7
TAP	108	336	3
TAP	109	48	4
HLD	109	48	5	96
TAP	109	144	0
TAP	109	240	1
TAP	109	240	4
TAP	109	336	2
TAP	109	336	7
XHO	110	0	2	96
XHO	110	0	7	96
XHO	110	144	1	96
XHO	110	144	6	96
XHO	110	288	0	96
XHO	110	288	5	96
XHO	111	48	1	96
XHO	111	48	6	96
XTP	111	192	1
XTP	111	192	6
TAP	111	288	3
TAP	111	288	4
TAP	111	336	3
TAP	111	336	4
XTP	112	48	2
XTP	112	96	1
XTP	112	96	3
XTP	112	192	5
XTP	112	240	4
XTP	112	240	6
XTP	112	336	3
XTP	112	336	4
XTP	113	48	2
XTP	113	48	5
XTP	113	96	2
XTP	113	96	5
XTP	113	192	0
XTP	113	192	7
XTP	113	240	0
XTP	113	240	7
XTP	113	288	0
XTP	113	288	7
BRK	113	336	1
BRK	113	336	6

T_REC_TAP	268
T_REC_BRK	26
T_REC_XTP	124
T_REC_HLD	92
T_REC_XHO	31
T_REC_STR	21
T_REC_BST	2
T_REC_XST	2
T_REC_TTP	32
T_REC_THO	1
T_REC_SLD	25
T_REC_ALL	624
T_NUM_TAP	447
T_NUM_BRK	28
T_NUM_HLD	124
T_NUM_SLD	25
T_NUM_ALL	624
T_JUDGE_TAP	475
T_JUDGE_HLD	332
T_JUDGE_SLD	25
T_JUDGE_ALL	832
TTM_EACHPAIRS	206
TTM_SCR_TAP	223500
TTM_SCR_BRK	72800
TTM_SCR_HLD	124000
TTM_SCR_SLD	37500
TTM_SCR_ALL	457800
TTM_SCR_S	441350
TTM_SCR_SS	455000
TTM_RAT_ACV	10061

