VERSION	0.00.00	1.03.00
FES_MODE	0
BPM_DEF	202.000	202.000	202.000	202.000
MET_DEF	4	4
RESOLUTION	384
CLK_DEF	384
COMPATIBLE_CODE	MA2

BPM	0	0	202.000
MET	0	0	4	4

HLD	2	0	2	192
TAP	2	192	3
HLD	3	0	4	192
TAP	3	192	3
HLD	4	0	3	192
TAP	4	192	4
HLD	5	0	4	192
HLD	5	0	5	192
HLD	6	0	2	192
TAP	6	192	3
HLD	7	0	5	192
TAP	7	192	4
STR	8	0	3
SI_	8	0	3	96	288	0
STR	8	0	4
SI_	8	0	4	96	288	7
XTP	9	192	1
XTP	9	192	6
TAP	10	0	2
TAP	10	96	2
HLD	10	192	2	192
TAP	11	0	3
TAP	11	192	3
TAP	11	192	4
TAP	12	0	5
TAP	12	96	5
HLD	12	192	5	192
TAP	13	0	4
TAP	13	192	3
TAP	13	192	4
HLD	14	0	2	192
HLD	14	0	3	192
HLD	15	0	4	192
HLD	15	0	5	192
HLD	16	0	3	192
HLD	16	0	4	192
TAP	17	0	4
TAP	17	96	3
TAP	17	192	3
TAP	17	192	4
TAP	18	0	2
TAP	18	96	2
TAP	18	192	2
TAP	18	192	3
TAP	19	0	5
TAP	19	96	5
TAP	19	192	4
TAP	19	192	5
TAP	20	0	2
TAP	20	96	2
TAP	20	192	2
TAP	20	192	4
TAP	21	0	5
TAP	21	96	5
XTP	21	192	3
XTP	21	192	5
HLD	22	0	6	192
TAP	22	192	7
HLD	23	0	1	192
TAP	23	192	0
HLD	24	0	0	192
HLD	24	0	7	192
TAP	25	0	0
TAP	25	0	7
TAP	25	96	0
TAP	25	96	7
XTP	25	192	0
XTP	25	192	7
TTP	26	0	1	E	0	L1
TTP	26	192	0	C	0	L1
TTP	27	0	5	E	0	L1
TTP	27	192	6	E	0	L1
TTP	28	0	7	E	0	L1
TTP	28	192	0	C	0	L1
TTP	29	0	3	E	0	L1
TTP	30	0	2	E	0	L1
TTP	30	192	3	E	0	L1
TTP	31	0	4	E	0	L1
TTP	31	192	3	B	0	L1
TTP	31	192	4	B	0	L1
THO	32	0	0	384	C	1	L1
HLD	34	0	0	192
HLD	34	0	7	192
XTP	35	0	1
XTP	35	0	6
BRK	35	96	1
BRK	35	96	6
TAP	36	0	2
TAP	36	96	2
TAP	36	192	1
TAP	36	192	3
TAP	37	0	5
TAP	37	96	5
TAP	37	192	4
TAP	37	192	6
TAP	38	0	1
TAP	38	96	1
TAP	38	192	2
TAP	38	288	2
TAP	39	0	3
TAP	39	0	4
TAP	39	96	3
TAP	39	96	4
XTP	39	192	2
XTP	39	192	5
TAP	40	0	6
TAP	40	96	6
TAP	40	192	6
TAP	40	192	7
TAP	41	0	1
TAP	41	96	1
TAP	41	192	0
TAP	41	192	1
TAP	42	0	7
TAP	42	96	7
TAP	42	192	0
TAP	42	288	0
XTP	43	0	0
XTP	43	0	7
XTP	43	96	0
XTP	43	96	7
XTP	43	192	1
XTP	43	192	6
TAP	44	0	5
TAP	44	96	5
TAP	44	192	4
TAP	44	192	6
TAP	45	0	2
TAP	45	96	2
TAP	45	192	1
TAP	45	192	3
TAP	46	0	5
TAP	46	96	5
TAP	46	192	6
TAP	46	288	6
TAP	47	0	0
TAP	47	0	7
TAP	47	96	0
TAP	47	96	7
XTP	47	192	0
XTP	47	192	7
TAP	48	0	1
TAP	48	96	1
TAP	48	192	2
TAP	48	288	2
TAP	49	0	3
TAP	49	96	3
TAP	49	192	4
STR	49	288	4
SUL	49	288	4	96	384	3
XTP	51	192	2
XTP	51	192	4
HLD	52	0	5	192
TAP	52	192	4
TAP	53	0	6
TAP	53	96	6
TAP	53	192	4
TAP	53	192	5
HLD	54	0	2	192
TAP	54	192	3
TAP	55	0	1
TAP	55	96	1
XTP	55	192	2
XTP	55	192	3
TAP	56	0	4
TAP	56	96	4
TAP	56	192	5
TAP	56	288	5
TAP	57	0	6
TAP	57	96	6
TAP	57	192	0
TAP	57	192	7
STR	57	288	0
SI_	57	288	0	96	384	3
STR	57	288	7
SI_	57	288	7	96	384	4
XTP	59	192	2
XTP	59	192	5
STR	60	0	3
SLL	60	0	3	96	480	7
STR	62	0	6
SLL	62	0	6	96	480	2
STR	64	0	0
SSL	64	0	0	96	480	4
TAP	66	0	5
TAP	66	192	5
TAP	67	0	3
TAP	67	0	4
TAP	67	96	3
TAP	67	96	4
XTP	67	192	3
XTP	67	192	4
HLD	68	0	2	192
HLD	68	192	3	192
HLD	69	0	4	192
TAP	69	192	5
HLD	70	0	6	192
HLD	70	192	7	192
HLD	71	0	0	192
TAP	71	192	1
HLD	72	0	7	192
HLD	72	192	6	192
HLD	73	0	5	192
TAP	73	192	4
HLD	74	0	3	192
HLD	74	192	4	192
TAP	75	0	3
BRK	75	192	2
BRK	75	192	5
HLD	76	0	1	192
TAP	76	192	0
HLD	77	0	6	192
TAP	77	192	7
HLD	78	0	2	192
TAP	78	192	3
TAP	79	0	3
TAP	79	0	4
TAP	79	192	2
TAP	79	192	5
XHO	80	0	2	144
XHO	80	0	3	144
XHO	81	0	4	144
XHO	81	0	5	144
XST	82	0	3
SI_	82	0	3	96	336	0
XST	82	0	4
SI_	82	0	4	96	336	7
XTP	83	192	1
XTP	83	192	6
STR	84	0	2
SI_	84	0	2	96	288	6
XTP	85	192	7
STR	86	0	6
SI_	86	0	6	96	288	2
XTP	87	192	1
XTP	88	0	2
XTP	88	0	3
XTP	89	0	3
XTP	89	0	4
XTP	90	0	4
XTP	90	0	5
XTP	90	336	3
XTP	91	48	3
XTP	91	144	3
XTP	91	144	4
TAP	92	0	4
TAP	92	96	4
TAP	92	192	5
TAP	92	288	5
TAP	93	0	6
TAP	93	96	6
TAP	93	192	7
TAP	93	288	7
HLD	94	0	0	192
HLD	94	0	7	192
TAP	95	0	0
TAP	95	0	7
TAP	95	96	0
TAP	95	96	7
BRK	95	192	1
BRK	95	192	6
TAP	96	0	2
TAP	96	96	2
TAP	96	192	1
TAP	96	288	0
TAP	97	0	6
TAP	97	0	7
TAP	97	96	6
TAP	97	96	7
XTP	97	192	6
XTP	97	192	7
TAP	98	0	5
TAP	98	96	5
TAP	98	192	6
TAP	98	288	7
TAP	99	0	0
TAP	99	0	1
TAP	99	96	0
TAP	99	96	1
XTP	99	192	0
XTP	99	192	1
TAP	100	0	2
TAP	100	0	3
TAP	100	96	2
TAP	100	96	3
XTP	100	192	1
XTP	100	192	4
TAP	101	0	4
TAP	101	0	5
TAP	101	96	4
TAP	101	96	5
XTP	101	192	3
XTP	101	192	6
STR	102	0	3
SI_	102	0	3	96	288	7
STR	102	0	4
SI_	102	0	4	96	288	0
XTP	103	192	1
XTP	103	192	6
HLD	104	0	2	96
TAP	104	96	3
TAP	104	192	1
TAP	104	192	4
HLD	105	0	5	96
TAP	105	96	4
TAP	105	192	3
TAP	105	192	6
HLD	106	0	1	96
TAP	106	96	0
TAP	106	192	2
TAP	106	192	7
HLD	107	0	6	96
HLD	107	0	7	96
XTP	107	192	0
XTP	107	192	5
TAP	108	0	1
TAP	108	96	1
TAP	108	192	2
TAP	108	192	4
TAP	108	288	2
TAP	108	288	4
TAP	109	0	5
TAP	109	96	5
TAP	109	192	0
TAP	109	192	6
TAP	109	288	0
TAP	109	288	6
STR	110	0	7
SI_	110	0	7	96	288	3
TAP	111	192	1
TAP	111	288	1
STR	112	0	0
SI_	112	0	0	96	288	4
XHO	113	192	2	144
XHO	113	192	5	144

T_REC_TAP	182
T_REC_BRK	6
T_REC_XTP	52
T_REC_HLD	44
T_REC_XHO	6
T_REC_STR	14
T_REC_BST	0
T_REC_XST	2
T_REC_TTP	12
T_REC_THO	1
T_REC_SLD	16
T_REC_ALL	335
T_NUM_TAP	262
T_NUM_BRK	6
T_NUM_HLD	51
T_NUM_SLD	16
T_NUM_ALL	335
T_JUDGE_TAP	268
T_JUDGE_HLD	192
T_JUDGE_SLD	16
T_JUDGE_ALL	476
TTM_EACHPAIRS	83
TTM_SCR_TAP	131000
TTM_SCR_BRK	15600
TTM_SCR_HLD	51000
TTM_SCR_SLD	24000
TTM_SCR_ALL	221600
TTM_SCR_S	214400
TTM_SCR_SS	221000
TTM_RAT_ACV	10027

