VERSION	0.00.00	1.03.00
FES_MODE	0
BPM_DEF	202.000	202.000	202.000	202.000
MET_DEF	4	4
RESOLUTION	384
CLK_DEF	384
COMPATIBLE_CODE	MA2

BPM	0	0	202.000
MET	0	0	4	4

TAP	10	0	0
TAP	11	0	0
HLD	12	0	1	384
TAP	14	0	7
TAP	15	0	7
HLD	16	0	6	384
TAP	18	0	0
TAP	18	192	0
TAP	19	0	0
STR	20	0	1
SI_	20	0	1	96	288	4
TAP	22	0	7
TAP	22	192	7
TAP	23	0	7
STR	24	0	6
SI_	24	0	6	96	288	3
TTP	26	0	2	B	0	L1
TTP	27	0	1	B	0	L1
TTP	28	0	0	B	0	L1
TTP	29	0	7	B	0	L1
TTP	30	0	6	B	0	L1
TTP	31	0	5	B	0	L1
THO	32	0	0	1152	C	1	L1
TAP	36	0	0
TAP	36	96	0
TAP	36	192	0
TAP	37	0	7
TAP	37	96	7
TAP	37	192	7
TAP	38	0	6
TAP	38	96	6
TAP	38	192	6
XTP	39	0	6
XTP	39	0	7
TAP	40	0	5
TAP	40	96	5
TAP	40	192	5
TAP	41	0	4
TAP	41	96	4
TAP	41	192	4
XHO	42	0	3	384
XHO	42	0	4	384
TAP	44	0	4
TAP	44	96	4
TAP	44	192	4
TAP	45	0	3
TAP	45	96	3
TAP	45	192	3
TAP	46	0	2
TAP	46	96	2
TAP	46	192	2
XTP	47	0	2
XTP	47	0	3
TAP	48	0	1
TAP	48	96	1
TAP	48	192	1
TAP	49	0	0
TAP	49	96	0
TAP	49	192	0
XHO	50	0	0	192
XHO	50	0	7	192
BRK	51	0	0
BRK	51	0	7
TAP	52	0	0
TAP	52	192	0
TAP	53	0	7
TAP	53	192	7
STR	54	0	0
SI_	54	0	0	96	288	3
TAP	56	0	7
TAP	56	192	7
TAP	57	0	0
TAP	57	192	0
STR	58	0	7
SI_	58	0	7	96	288	4
HLD	60	0	0	384
HLD	62	0	1	384
HLD	64	0	2	384
TAP	66	0	3
TAP	66	192	3
XTP	67	0	3
XTP	67	0	4
TAP	68	0	4
TAP	68	192	4
TAP	69	0	4
TAP	70	0	5
TAP	70	192	5
TAP	71	0	5
TAP	72	0	6
TAP	72	192	6
TAP	73	0	6
TAP	74	0	7
TAP	74	192	7
XTP	75	0	0
XTP	75	0	7
HLD	76	0	0	384
TAP	78	0	0
TAP	78	192	0
TAP	79	0	0
HLD	80	0	7	384
STR	82	0	7
SI_	82	0	7	96	288	4
THO	84	0	0	768	C	1	L1
HLD	88	0	4	384
TAP	90	0	3
TAP	90	192	3
XTP	91	0	3
XTP	91	0	4
TAP	92	0	4
TAP	92	96	4
TAP	92	192	4
TAP	93	0	5
TAP	93	96	5
TAP	93	192	5
STR	94	0	6
SI_	94	0	6	96	288	2
TAP	96	0	1
TAP	96	96	1
TAP	96	192	1
TAP	97	0	0
TAP	97	0	1
TAP	97	96	0
TAP	97	96	1
TAP	97	192	0
TAP	97	192	1
TAP	98	0	6
TAP	98	96	6
TAP	98	192	6
TAP	99	0	6
TAP	99	0	7
TAP	99	96	6
TAP	99	96	7
TAP	99	192	6
TAP	99	192	7
TAP	100	0	0
TAP	100	96	0
TAP	100	192	0
TAP	101	0	7
TAP	101	96	7
TAP	101	192	7
STR	102	0	0
SI_	102	0	0	96	288	4
TAP	104	0	5
TAP	104	96	5
TAP	104	192	5
TAP	105	0	4
TAP	105	96	4
TAP	105	192	4
TAP	106	0	3
TAP	106	96	3
TAP	106	192	3
XTP	107	0	2
XTP	107	0	4
TAP	108	0	1
TAP	108	96	1
TAP	108	192	1
TAP	109	0	0
TAP	109	96	0
TAP	109	192	0
XHO	110	0	7	384
XTP	111	192	0
XTP	111	192	6
XHO	112	0	0	384
XTP	113	192	1
XTP	113	192	7

T_REC_TAP	111
T_REC_BRK	2
T_REC_XTP	16
T_REC_HLD	8
T_REC_XHO	6
T_REC_STR	7
T_REC_BST	0
T_REC_XST	0
T_REC_TTP	6
T_REC_THO	2
T_REC_SLD	7
T_REC_ALL	165
T_NUM_TAP	140
T_NUM_BRK	2
T_NUM_HLD	16
T_NUM_SLD	7
T_NUM_ALL	165
T_JUDGE_TAP	142
T_JUDGE_HLD	144
T_JUDGE_SLD	7
T_JUDGE_ALL	293
TTM_EACHPAIRS	17
TTM_SCR_TAP	70000
TTM_SCR_BRK	5200
TTM_SCR_HLD	16000
TTM_SCR_SLD	10500
TTM_SCR_ALL	101700
TTM_SCR_S	98500
TTM_SCR_SS	101500
TTM_RAT_ACV	10019

