VERSION	0.00.00	1.03.00
FES_MODE	0
BPM_DEF	162.000	162.000	162.000	162.000
MET_DEF	4	4
RESOLUTION	384
CLK_DEF	384
COMPATIBLE_CODE	MA2

BPM	0	0	162.000
MET	0	0	4	4

TAP	1	0	4
TAP	1	24	3
TAP	1	48	4
TAP	1	72	3
TAP	1	96	5
TAP	1	128	4
TAP	1	160	3
HLD	1	192	2	96
TAP	1	288	6
TAP	2	0	1
HLD	2	0	5	240
HLD	2	144	3	288
HLD	2	336	2	288
HLD	3	144	1	144
TAP	3	288	2
HLD	4	0	3	240
XTP	4	0	4
HLD	4	144	6	192
HLD	4	336	5	336
XTP	5	0	6
XTP	5	96	6
XTP	5	192	6
TAP	5	288	6
XTP	6	0	3
HLD	6	0	4	240
HLD	6	144	1	192
HLD	6	336	2	288
XTP	7	0	1
HLD	7	144	6	96
TAP	7	288	2
TAP	7	288	6
XHO	8	0	1	96
XHO	8	0	5	96
XHO	8	144	3	144
XHO	8	144	7	144
XTP	8	336	0
XHO	8	336	4	96
TAP	9	48	3
TAP	9	96	3
TAP	9	96	4
XTP	9	144	1
XTP	9	144	6
TAP	9	240	0
TAP	9	240	7
BRK	9	288	1
BRK	9	288	6
XTP	10	0	0
STR	10	0	7
SCL	10	0	7	96	48	4
TAP	10	48	1
TAP	10	96	2
TAP	10	144	3
TAP	10	192	1
TAP	10	216	0
TAP	10	240	1
TAP	10	264	0
TAP	10	288	1
STR	10	336	3
SCL	10	336	3	96	48	0
TAP	10	336	7
TAP	11	0	6
TAP	11	48	5
TAP	11	96	4
TAP	11	144	6
TAP	11	168	7
TAP	11	192	6
TAP	11	216	7
TAP	11	240	6
TAP	11	264	7
TAP	11	288	6
TAP	11	336	0
TAP	11	336	4
STR	12	0	6
SI_	12	0	6	96	48	4
TAP	12	48	6
BST	12	96	2
SI_	12	96	2	96	48	0
BRK	12	144	2
STR	12	192	6
SI_	12	192	6	96	48	3
TAP	12	240	6
STR	12	288	2
SI_	12	288	2	96	48	7
TAP	12	336	2
TAP	13	0	6
TAP	13	48	6
TAP	13	96	4
TAP	13	120	3
TAP	13	144	4
TAP	13	192	1
TAP	13	240	1
STR	13	288	3
SI_	13	288	3	96	48	0
STR	13	288	4
SI_	13	288	4	96	48	7
TAP	13	336	2
TAP	13	336	5
XTP	14	0	3
XTP	14	0	4
XTP	14	96	7
XTP	14	144	7
TAP	14	192	3
TAP	14	192	5
TAP	14	240	0
TAP	14	288	2
TAP	14	288	4
TAP	14	336	7
TAP	14	352	6
TAP	14	368	5
TAP	15	0	4
TAP	15	48	1
TAP	15	64	2
TAP	15	80	3
STR	15	96	4
SSL	15	96	4	96	96	0
TAP	15	144	6
XTP	15	192	5
XTP	15	240	5
BRK	15	288	5
STR	16	0	1
SI_	16	0	1	96	48	3
TAP	16	48	1
STR	16	96	5
SI_	16	96	5	96	48	7
TAP	16	144	5
STR	16	192	1
SI_	16	192	1	96	48	4
TAP	16	240	1
STR	16	288	5
SI_	16	288	5	96	48	0
BRK	16	336	6
TAP	17	0	1
TAP	17	48	1
TAP	17	96	3
TAP	17	144	5
XTP	17	192	0
XTP	17	192	7
XTP	17	240	0
XTP	17	240	7
BRK	17	288	1
BRK	17	288	6
HLD	18	0	2	48
XTP	18	48	5
TAP	18	72	4
TAP	18	96	5
TAP	18	144	2
TAP	18	168	3
TAP	18	192	2
XTP	18	240	0
XTP	18	240	1
TAP	18	288	2
TAP	18	336	0
TAP	18	336	7
HLD	19	0	5	48
TAP	19	48	2
TAP	19	72	3
TAP	19	96	2
TAP	19	144	5
TAP	19	168	4
TAP	19	192	5
XTP	19	240	6
XTP	19	240	7
TAP	19	288	5
TAP	19	336	0
TAP	19	336	7
HLD	20	0	2	48
TAP	20	48	5
TAP	20	72	4
TAP	20	96	6
TAP	20	144	2
TAP	20	168	3
TAP	20	192	1
XTP	20	240	7
XTP	20	264	0
XTP	20	288	7
XTP	20	336	1
XTP	20	336	6
HLD	21	0	5	48
TAP	21	48	1
TAP	21	72	0
TAP	21	96	2
TAP	21	144	6
TAP	21	168	7
TAP	21	192	5
BRK	21	240	0
BRK	21	240	7
BRK	21	288	3
BRK	21	288	4
BRK	21	336	1
BRK	21	336	6
HLD	22	0	2	48
TAP	22	48	4
TAP	22	72	3
HLD	22	96	5	48
TAP	22	144	3
TAP	22	168	4
HLD	22	192	2	48
TAP	22	240	5
TAP	22	264	4
HLD	22	288	6	48
TAP	22	336	2
TAP	22	360	3
HLD	23	0	1	48
TAP	23	48	5
TAP	23	72	4
HLD	23	96	7	48
TAP	23	144	0
STR	23	192	1
SI_	23	192	1	96	48	4
STR	23	192	6
SI_	23	192	6	96	48	3
TAP	23	240	0
TAP	23	240	7
XTP	23	288	1
XTP	23	288	6
HLD	24	0	5	48
TAP	24	48	3
TAP	24	72	4
HLD	24	96	2	48
TAP	24	144	4
TAP	24	168	3
HLD	24	192	5	48
TAP	24	240	2
TAP	24	264	3
HLD	24	288	1	48
TAP	24	336	5
TAP	24	360	4
HLD	25	0	6	48
TAP	25	48	1
TAP	25	72	0
TAP	25	96	1
XTP	25	144	3
XTP	25	144	4
XST	25	192	1
SI_	25	192	1	96	48	4
XST	25	192	6
SI_	25	192	6	96	48	3
XTP	25	240	0
XTP	25	240	7
BRK	25	288	1
BRK	25	288	6
XTP	26	0	2
XTP	26	0	5
TTP	26	96	0	C	1	M1
TTP	26	96	2	B	0	M1
TTP	26	96	5	B	0	M1
STR	26	192	0
SCR	26	192	0	96	48	3
TTP	26	288	6	E	0	M1
TTP	26	288	6	B	0	M1
STR	27	0	7
SCL	27	0	7	96	48	4
TTP	27	96	1	B	0	M1
TTP	27	96	2	E	0	M1
TTP	27	192	3	E	0	M1
TTP	27	192	3	B	0	M1
TTP	27	192	4	B	0	M1
TTP	27	192	5	E	0	M1
TTP	27	288	0	E	0	M1
TTP	27	288	0	B	0	M1
TTP	27	288	1	B	0	M1
TTP	27	288	6	B	0	M1
TTP	27	288	7	B	0	M1
XTP	28	0	2
XTP	28	32	2
XTP	28	64	3
XTP	28	96	5
XTP	28	128	5
XTP	28	160	4
TTP	28	192	0	C	0	M1
XTP	28	288	0
XTP	28	288	7
STR	29	0	2
SI_	29	0	2	96	48	7
TAP	29	48	3
TAP	29	96	4
TAP	29	144	5
XST	29	192	6
SCL	29	192	6	96	192	1
TTP	29	288	0	C	1	M1
BRK	30	96	0
STR	30	192	0
SCR	30	192	0	96	48	3
TTP	30	288	2	B	0	M1
TTP	30	288	3	B	0	M1
STR	31	0	7
SCL	31	0	7	96	48	4
TTP	31	96	4	B	0	M1
TTP	31	96	5	B	0	M1
TTP	31	192	1	B	0	M1
TTP	31	224	6	B	0	M1
TTP	31	256	0	E	0	M1
TTP	31	288	5	B	0	M1
TTP	31	320	2	B	0	M1
TTP	31	352	4	E	0	M1
TTP	32	0	0	C	0	M1
XTP	32	96	0
XTP	32	96	7
TTP	32	192	7	B	0	M1
TTP	32	192	7	E	0	M1
TTP	32	240	3	B	0	M1
TTP	32	240	3	E	0	M1
TTP	32	288	5	B	0	M1
TTP	32	288	5	E	0	M1
TTP	32	336	1	E	0	M1
TTP	32	336	1	B	0	M1
TTP	33	0	6	E	0	M1
TTP	33	0	6	B	0	M1
TTP	33	48	2	E	0	M1
TTP	33	48	2	B	0	M1
TTP	33	96	0	E	0	M1
TTP	33	96	0	B	0	M1
TTP	33	144	4	E	0	M1
TTP	33	144	4	B	0	M1
THO	33	192	0	96	C	1	M1
BRK	33	288	1
XTP	34	0	0
XTP	34	48	0
TTP	34	96	7	B	0	M1
TTP	34	96	7	E	0	M1
TTP	34	144	1	E	0	M1
TTP	34	144	1	B	0	M1
TTP	34	192	5	E	0	M1
TTP	34	192	5	B	0	M1
TTP	34	240	3	B	0	M1
TTP	34	240	3	E	0	M1
TTP	34	288	6	B	0	M1
TTP	34	312	0	B	0	M1
TTP	34	336	4	B	0	M1
TTP	34	360	2	B	0	M1
TTP	35	0	7	B	0	M1
TTP	35	24	1	B	0	M1
TTP	35	48	5	B	0	M1
TTP	35	72	3	B	0	M1
TTP	35	96	7	E	0	M1
TTP	35	120	1	E	0	M1
TTP	35	144	6	E	0	M1
TTP	35	168	2	E	0	M1
TTP	35	192	5	E	0	M1
TTP	35	216	3	E	0	M1
TTP	35	240	0	C	0	M1
XTP	35	288	0
XTP	35	336	0
TAP	36	0	1
TAP	36	0	6
TAP	36	48	1
TAP	36	48	6
TTP	36	96	1	B	0	M1
TTP	36	120	7	B	0	M1
TTP	36	144	3	B	0	M1
TTP	36	168	5	B	0	M1
TTP	36	192	0	B	0	M1
TTP	36	216	6	B	0	M1
TTP	36	240	2	B	0	M1
TTP	36	264	4	B	0	M1
TTP	36	288	1	E	0	M1
TTP	36	312	7	E	0	M1
TTP	36	336	3	E	0	M1
TTP	36	360	5	E	0	M1
TTP	37	0	0	B	0	M1
TTP	37	24	7	B	0	M1
TTP	37	48	2	B	0	M1
TTP	37	72	5	B	0	M1
TTP	37	96	3	B	0	M1
TTP	37	120	4	B	0	M1
TTP	37	144	1	E	0	M1
TTP	37	168	7	E	0	M1
TTP	37	192	2	E	0	M1
TTP	37	216	6	E	0	M1
TTP	37	240	3	E	0	M1
TTP	37	264	5	E	0	M1
TTP	37	288	0	C	1	M1
XTP	38	0	7
XTP	38	48	7
STR	38	96	6
SCL	38	96	6	96	48	3
HLD	38	192	2	96
XTP	38	288	0
XTP	38	336	0
XST	39	0	1
SCR	39	0	1	96	48	4
HLD	39	96	6	96
TAP	39	192	5
XTP	39	288	7
XTP	39	336	7
TAP	40	0	0
TAP	40	0	6
TAP	40	48	2
TAP	40	72	3
HLD	40	96	1	48
TAP	40	144	5
TAP	40	168	4
HLD	40	192	6	48
TAP	40	240	2
TAP	40	264	3
XTP	40	288	0
XTP	40	336	0
HLD	41	0	4	72
HLD	41	0	6	72
HLD	41	96	1	72
HLD	41	96	3	72
BRK	41	192	3
BRK	41	192	4
BRK	41	240	0
BRK	41	240	7
BST	41	288	1
SI_	41	288	1	96	48	4
BRK	41	288	6
XTP	42	0	0
XTP	42	0	1
TAP	42	96	2
STR	42	96	7
SI_	42	96	7	96	48	3
TAP	42	144	6
XTP	42	192	5
XTP	42	192	7
TAP	42	288	0
TAP	42	336	1
TAP	42	336	7
HLD	43	0	2	72
TAP	43	0	6
TAP	43	72	3
STR	43	96	2
SCL	43	96	2	96	48	7
TAP	43	144	6
TAP	43	144	7
XHO	43	192	5	96
TAP	43	288	4
TAP	43	336	3
TAP	43	336	6
STR	44	0	2
SI_	44	0	2	96	48	7
STR	44	0	7
SI_	44	0	7	96	48	4
XTP	44	96	2
XTP	44	96	7
XTP	44	192	0
XTP	44	192	4
TAP	44	240	1
TAP	44	240	5
STR	44	288	2
SCL	44	288	2	96	48	0
STR	44	288	6
SCL	44	288	6	96	48	4
TAP	44	336	3
TAP	44	336	7
XST	45	0	2
SUR	45	0	2	96	48	6
XST	45	0	6
SUR	45	0	6	96	48	2
XTP	45	96	2
XTP	45	96	6
BRK	45	192	3
BRK	45	192	7
XTP	45	288	1
XST	45	288	6
SI_	45	288	6	96	48	3
TAP	45	336	0
XTP	46	0	6
XTP	46	0	7
STR	46	96	0
SI_	46	96	0	96	48	4
TAP	46	96	5
TAP	46	144	1
XTP	46	192	0
XTP	46	192	2
TAP	46	288	7
TAP	46	336	0
TAP	46	336	6
TAP	47	0	1
HLD	47	0	5	72
TAP	47	72	4
STR	47	96	5
SCR	47	96	5	96	48	0
TAP	47	144	0
TAP	47	144	1
XHO	47	192	2	96
TAP	47	288	3
TAP	47	336	2
TAP	47	336	4
XHO	48	0	1	48
XHO	48	0	5	96
TAP	48	96	1
XHO	48	144	2	96
XHO	48	144	6	48
TAP	48	240	6
TAP	48	288	1
TAP	48	288	5
STR	48	336	0
SI_	48	336	0	96	48	4
TAP	48	336	4
XTP	49	48	0
STR	49	96	6
SCL	49	96	6	96	48	3
SCR	49	96	6	96	48	1
XTP	49	192	6
TTP	49	288	0	B	0	M1
TTP	49	288	0	C	1	M1
TTP	49	288	1	E	0	M1
TTP	49	288	1	B	0	M1
TTP	49	288	2	B	0	M1
TTP	49	288	3	B	0	M1
TTP	49	288	3	E	0	M1
TTP	49	288	4	B	0	M1
TTP	49	288	7	B	0	M1
TTP	50	0	7	E	0	M1
TTP	50	24	6	B	0	M1
TTP	50	48	5	B	0	M1
TTP	50	72	5	E	0	M1
TTP	50	96	1	E	0	M1
TTP	50	120	1	B	0	M1
TTP	50	144	2	B	0	M1
TTP	50	168	3	E	0	M1
TTP	50	192	6	E	0	M1
TTP	50	216	5	B	0	M1
TTP	50	240	4	B	0	M1
TTP	50	264	4	E	0	M1
BRK	50	288	7
TTP	51	0	1	E	0	M1
TTP	51	24	7	B	0	M1
TTP	51	48	3	E	0	M1
TTP	51	72	4	B	0	M1
TTP	51	96	0	B	0	M1
TTP	51	120	7	E	0	M1
TTP	51	144	3	B	0	M1
TTP	51	168	5	E	0	M1
TTP	51	192	1	E	0	M1
TTP	51	216	7	B	0	M1
TTP	51	240	3	E	0	M1
TTP	51	264	4	B	0	M1
BST	51	288	0
SI_	51	288	0	96	48	4
STR	52	0	6
SI_	52	0	6	96	48	3
TAP	52	96	6
STR	52	144	7
SI_	52	144	7	96	48	2
STR	52	240	5
SI_	52	240	5	96	48	0
TAP	52	240	7
STR	52	336	1
SI_	52	336	1	96	48	4
TAP	52	336	5
TAP	53	48	1
STR	53	96	7
SF_	53	96	7	96	48	3
BRK	53	192	7
TAP	53	288	1
TAP	53	288	5
TAP	53	336	0
TAP	53	336	6
STR	54	0	7
SCL	54	0	7	96	72	3
XTP	54	96	1
XTP	54	96	7
TAP	54	144	0
STR	54	192	7
SCR	54	192	7	96	72	3
XTP	54	288	5
XTP	54	288	7
TAP	54	336	6
STR	55	0	7
SI_	55	0	7	96	48	3
XTP	55	72	0
XTP	55	96	7
XTP	55	144	2
BRK	55	192	1
BRK	55	192	5
XTP	55	288	7
XTP	55	336	7
TAP	56	0	0
TAP	56	0	5
TAP	56	48	1
TAP	56	96	2
STR	56	96	7
SI_	56	96	7	96	48	4
SSR	56	96	7	96	48	3
TAP	56	144	6
XTP	56	192	7
TAP	56	288	2
TAP	56	336	2
STR	57	0	1
SI_	57	0	1	96	48	4
TAP	57	0	3
XTP	57	96	1
XST	57	96	6
SI_	57	96	6	96	48	2
XST	57	192	0
SI_	57	192	0	96	48	4
XTP	57	192	6
XTP	57	288	0
XST	57	288	5
SCR	57	288	5	96	192	4
XHO	57	336	5	240
TAP	58	288	4
TAP	58	288	5
TTP	59	0	0	E	0	M1
TTP	59	0	0	B	0	M1
TTP	59	0	1	B	0	M1
TTP	59	0	2	E	0	M1
TAP	59	96	2
TAP	59	96	3
TTP	59	192	0	E	0	M1
TTP	59	192	6	B	0	M1
TTP	59	192	6	E	0	M1
TTP	59	192	7	B	0	M1
TAP	59	288	3
STR	59	288	4
SCR	59	288	4	96	384	3
TAP	59	336	3
TAP	59	336	4
THO	61	0	0	288	C	1	M1
HLD	63	0	2	288
TTP	63	96	2	B	0	M1
TTP	63	288	4	E	0	M1
HLD	64	0	5	288
TTP	64	96	5	B	0	M1
TTP	64	288	4	E	0	M1
HLD	65	0	1	288
TTP	65	96	1	B	0	M1
TTP	65	288	4	E	0	M1
HLD	66	0	5	192
TAP	66	96	4
STR	66	192	4
SI_	66	192	4	96	48	2
SI_	66	192	4	96	48	6
HLD	67	0	1	384
TAP	67	96	0
TAP	67	240	0
TAP	67	288	0
HLD	68	0	7	240
TAP	68	96	0
XTP	68	240	0
XTP	68	288	0
TTP	69	0	7	E	0	M1
TTP	69	48	1	E	0	M1
TTP	69	96	6	E	0	M1
TTP	69	144	2	E	0	M1
TTP	69	192	3	E	0	M1
TTP	69	192	3	B	0	M1
TTP	69	192	4	B	0	M1
TTP	69	192	5	E	0	M1
TTP	69	288	0	C	0	M1
TTP	70	0	1	E	0	M1
TTP	70	0	1	B	0	M1
TTP	70	0	2	B	0	M1
TTP	70	96	5	E	0	M1
TTP	70	96	5	B	0	M1
TTP	70	96	6	B	0	M1
TTP	70	192	0	C	0	M1
TTP	70	192	2	E	0	M1
TTP	70	192	6	E	0	M1
STR	70	288	0
SUR	70	288	0	96	192	7
THO	71	0	0	768	C	0	M1
STR	71	288	7
SCL	71	288	7	96	384	0
BST	73	288	2
SI_	73	288	2	96	48	7
BRK	73	288	6
XTP	74	0	2
XTP	74	0	3
TAP	74	96	1
STR	74	96	4
SI_	74	96	4	96	48	0
TAP	74	144	5
XTP	74	192	4
XTP	74	192	6
TAP	74	288	7
TAP	74	336	0
TAP	74	336	6
TAP	75	0	1
HLD	75	0	5	72
TAP	75	72	4
STR	75	96	5
SCR	75	96	5	96	48	0
TAP	75	144	0
TAP	75	144	1
XHO	75	192	2	96
TAP	75	288	3
TAP	75	336	1
TAP	75	336	4
STR	76	0	0
SI_	76	0	0	96	48	3
STR	76	0	5
SI_	76	0	5	96	48	0
XTP	76	96	0
XTP	76	96	5
XTP	76	192	3
XTP	76	192	7
TAP	76	240	2
TAP	76	240	6
STR	76	288	1
SCR	76	288	1	96	48	3
STR	76	288	5
SCR	76	288	5	96	48	7
TAP	76	336	0
TAP	76	336	4
XST	77	0	1
SUL	77	0	1	96	48	5
XST	77	0	5
SUL	77	0	5	96	48	1
XTP	77	96	1
XTP	77	96	5
BRK	77	192	0
BRK	77	192	4
XTP	77	288	2
XST	77	288	5
SI_	77	288	5	96	48	0
TAP	77	336	3
XTP	78	0	4
XTP	78	0	5
STR	78	96	3
SI_	78	96	3	96	48	7
TAP	78	96	6
TAP	78	144	2
XTP	78	192	1
XTP	78	192	3
TAP	78	288	0
TAP	78	336	1
TAP	78	336	7
HLD	79	0	2	72
TAP	79	0	6
TAP	79	72	3
STR	79	96	2
SCL	79	96	2	96	48	7
TAP	79	144	6
TAP	79	144	7
XHO	79	192	5	96
TAP	79	288	4
TAP	79	336	3
TAP	79	336	5
XHO	80	0	2	96
XHO	80	0	6	48
TAP	80	96	6
XHO	80	144	1	48
XHO	80	144	5	96
TAP	80	240	1
TAP	80	288	2
TAP	80	288	6
TAP	80	336	3
STR	80	336	7
SI_	80	336	7	96	48	3
XTP	81	48	7
STR	81	96	1
SCL	81	96	1	96	48	6
SCR	81	96	1	96	48	4
XTP	81	192	1
TTP	81	288	0	B	0	M1
TTP	81	288	0	C	1	M1
TTP	81	288	1	E	0	M1
TTP	81	288	1	B	0	M1
TTP	81	288	2	B	0	M1
TTP	81	288	3	B	0	M1
TTP	81	288	3	E	0	M1
TTP	81	288	4	B	0	M1
TTP	81	288	7	B	0	M1
TTP	82	0	7	E	0	M1
TTP	82	24	6	B	0	M1
TTP	82	48	5	B	0	M1
TTP	82	72	5	E	0	M1
TTP	82	96	1	E	0	M1
TTP	82	120	1	B	0	M1
TTP	82	144	2	B	0	M1
TTP	82	168	3	E	0	M1
TTP	82	192	6	E	0	M1
TTP	82	216	5	B	0	M1
TTP	82	240	4	B	0	M1
TTP	82	264	4	E	0	M1
BRK	82	288	7
TTP	83	0	1	E	0	M1
TTP	83	24	7	B	0	M1
TTP	83	48	3	E	0	M1
TTP	83	72	4	B	0	M1
TTP	83	96	0	B	0	M1
TTP	83	120	7	E	0	M1
TTP	83	144	3	B	0	M1
TTP	83	168	5	E	0	M1
TTP	83	192	1	E	0	M1
TTP	83	216	7	B	0	M1
TTP	83	240	3	E	0	M1
TTP	83	264	4	B	0	M1
BST	83	288	0
SI_	83	288	0	96	48	4
TAP	84	0	0
STR	84	0	6
SI_	84	0	6	96	48	2
TAP	84	96	6
TAP	84	144	7
TAP	84	240	1
TAP	84	240	3
STR	84	288	0
SCR	84	288	0	96	48	3
STR	84	288	7
SUR	84	288	7	96	48	3
TAP	84	336	4
TAP	84	336	6
XST	85	0	0
SUL	85	0	0	96	48	4
XST	85	0	7
SCL	85	0	7	96	48	4
XST	85	96	0
SLL	85	96	0	96	48	3
XST	85	96	7
SLR	85	96	7	96	48	4
BRK	85	192	0
BRK	85	192	7
XTP	85	288	2
XTP	85	288	6
STR	86	0	0
SCR	86	0	0	96	72	4
TAP	86	0	4
XTP	86	96	0
XTP	86	96	6
TAP	86	144	7
STR	86	192	0
SCL	86	192	0	96	72	4
XTP	86	288	0
XTP	86	288	2
TAP	86	336	1
STR	87	0	0
SI_	87	0	0	96	48	4
XTP	87	72	7
XTP	87	96	0
XTP	87	144	5
BRK	87	192	2
BRK	87	192	6
XTP	87	288	7
XTP	87	336	7
TAP	88	0	0
TAP	88	0	5
TAP	88	48	1
TAP	88	96	2
STR	88	96	7
SI_	88	96	7	96	48	4
SSR	88	96	7	96	48	3
TAP	88	144	6
XTP	88	192	7
TAP	88	288	2
TAP	88	336	2
STR	89	0	1
SI_	89	0	1	96	48	5
TAP	89	0	3
XTP	89	96	1
XST	89	96	6
SI_	89	96	6	96	48	2
XST	89	192	0
SI_	89	192	0	96	48	4
XTP	89	192	6
XTP	89	288	0
XST	89	288	3
SCL	89	288	3	96	192	4
XHO	89	336	3	240
TAP	90	288	5
TAP	90	336	5
STR	91	0	4
SI_	91	0	4	96	48	0
TAP	91	0	6
XTP	91	96	4
XST	91	96	7
SI_	91	96	7	96	48	3
XTP	91	192	2
XTP	91	192	7
XST	91	288	1
SCR	91	288	1	96	288	6
XST	91	288	4
SSL	91	288	4	96	288	0
XTP	91	336	1
XTP	91	336	4
THO	93	0	0	288	C	1	M1
BRK	93	288	7

T_REC_TAP	259
T_REC_BRK	37
T_REC_XTP	129
T_REC_HLD	45
T_REC_XHO	19
T_REC_STR	63
T_REC_BST	5
T_REC_XST	23
T_REC_TTP	191
T_REC_THO	4
T_REC_SLD	96
T_REC_ALL	871
T_NUM_TAP	665
T_NUM_BRK	42
T_NUM_HLD	68
T_NUM_SLD	96
T_NUM_ALL	871
T_JUDGE_TAP	707
T_JUDGE_HLD	199
T_JUDGE_SLD	96
T_JUDGE_ALL	1002
TTM_EACHPAIRS	145
TTM_SCR_TAP	332500
TTM_SCR_BRK	109200
TTM_SCR_HLD	68000
TTM_SCR_SLD	144000
TTM_SCR_ALL	653700
TTM_SCR_S	630050
TTM_SCR_SS	649500
TTM_RAT_ACV	10064

