VERSION	0.00.00	1.03.00
FES_MODE	0
BPM_DEF	162.000	162.000	162.000	162.000
MET_DEF	4	4
RESOLUTION	384
CLK_DEF	384
COMPATIBLE_CODE	MA2

BPM	0	0	162.000
MET	0	0	4	4

STR	1	0	0
SCR	1	0	0	96	192	4
BRK	1	288	5
XTP	2	0	3
XHO	2	0	5	288
TAP	2	96	4
TAP	2	288	4
TAP	3	0	2
TAP	3	96	3
TAP	3	192	4
TAP	3	288	5
XHO	4	0	2	288
XTP	4	0	4
TAP	4	96	3
TAP	4	288	3
XTP	5	0	1
XTP	5	0	4
XTP	5	96	3
XTP	5	96	6
XTP	5	192	1
XTP	5	192	3
XTP	5	288	4
XTP	5	288	6
XTP	6	0	2
XHO	6	0	5	288
TAP	6	96	4
TAP	6	288	4
XHO	7	0	2	288
XTP	7	0	5
TAP	7	96	3
TAP	7	288	3
XHO	8	0	1	96
XHO	8	0	4	96
XHO	8	144	3	96
XHO	8	144	6	96
THO	8	336	0	192	C	1	M1
TTP	8	336	1	B	0	M1
TTP	8	336	2	B	0	M1
TTP	8	336	5	B	0	M1
TTP	8	336	6	B	0	M1
HLD	10	0	2	1344
TAP	10	0	3
TAP	10	96	0
TAP	10	192	5
TAP	10	240	5
TAP	10	288	5
TAP	11	0	4
TAP	11	96	7
TAP	11	192	1
TAP	11	240	1
TAP	11	288	1
TAP	12	0	7
TAP	12	96	5
TAP	12	144	5
TAP	12	192	4
TAP	12	288	6
TAP	12	336	6
TAP	13	0	5
TAP	13	96	7
TAP	13	192	3
XTP	13	288	1
XTP	13	288	6
XTP	13	336	1
XTP	13	336	6
HLD	14	0	1	1248
BRK	14	0	6
TAP	14	96	3
TAP	14	192	5
TAP	14	240	5
TAP	14	288	5
TAP	15	0	2
TAP	15	96	6
TAP	15	192	0
TAP	15	240	0
TAP	15	288	0
TAP	16	0	4
TAP	16	96	6
TAP	16	144	6
TAP	16	192	5
TAP	16	288	7
TAP	16	336	7
TAP	17	0	6
TAP	17	96	3
STR	17	192	3
SI_	17	192	3	96	48	0
STR	17	192	4
SI_	17	192	4	96	48	7
XTP	18	0	1
XHO	18	0	6	1344
STR	18	96	4
SI_	18	96	4	96	48	7
TAP	18	288	0
TAP	19	0	7
TAP	19	48	7
STR	19	96	0
SI_	19	96	0	96	48	3
TAP	19	288	2
TAP	20	0	4
TAP	20	48	4
STR	20	96	5
SI_	20	96	5	96	48	0
TAP	20	288	1
TAP	21	0	4
TAP	21	96	1
TAP	21	144	1
TAP	21	192	2
BRK	21	288	0
BRK	21	288	7
STR	22	0	2
SI_	22	0	2	96	48	0
HLD	22	0	5	576
STR	22	192	7
SI_	22	192	7	96	48	3
STR	23	0	4
SI_	23	0	4	96	48	6
TAP	23	192	0
BRK	23	288	3
BRK	23	288	7
STR	24	0	1
SI_	24	0	1	96	48	3
HLD	24	0	6	576
STR	24	192	4
SI_	24	192	4	96	48	0
STR	25	0	7
SI_	25	0	7	96	48	5
TAP	25	192	3
BRK	25	288	0
BRK	25	288	4
TTP	26	96	0	E	0	M1
TTP	26	96	0	C	1	M1
TTP	26	96	4	E	0	M1
TTP	26	192	7	E	0	M1
TTP	26	288	5	B	0	M1
TTP	26	288	5	E	0	M1
TTP	27	0	1	E	0	M1
TTP	27	96	2	B	0	M1
TTP	27	96	3	E	0	M1
TTP	27	192	0	C	0	M1
TTP	27	288	0	E	0	M1
TTP	27	288	0	B	0	M1
TTP	27	288	7	B	0	M1
TTP	28	0	1	B	0	M1
TTP	28	0	6	B	0	M1
TTP	28	96	2	B	0	M1
TTP	28	96	5	B	0	M1
TTP	28	192	3	E	0	M1
TTP	28	192	5	E	0	M1
TTP	28	288	0	E	0	M1
TTP	28	288	4	E	0	M1
TTP	29	0	1	E	0	M1
TTP	29	0	7	E	0	M1
TTP	29	96	6	E	0	M1
TTP	29	192	2	E	0	M1
THO	29	288	0	192	C	0	M1
TAP	30	192	1
TAP	30	288	0
TAP	30	288	7
TAP	31	0	6
STR	31	96	4
SCL	31	96	4	96	96	2
TAP	31	96	5
TTP	32	0	2	E	0	M1
TTP	32	96	1	E	0	M1
TTP	32	96	3	E	0	M1
TTP	32	192	6	E	0	M1
TTP	32	288	5	E	0	M1
TTP	32	288	7	E	0	M1
TTP	33	0	0	E	0	M1
TTP	33	96	4	E	0	M1
TTP	33	192	0	C	1	M1
TTP	33	192	2	E	0	M1
TTP	33	192	6	E	0	M1
HLD	34	0	2	192
TAP	34	0	3
TAP	34	96	0
HLD	34	192	3	192
TAP	34	288	0
HLD	35	0	2	96
HLD	35	96	3	96
HLD	35	192	4	96
TAP	35	288	5
TAP	36	0	4
HLD	36	0	5	192
TAP	36	96	7
HLD	36	192	4	192
TAP	36	288	7
TAP	37	0	5
TAP	37	96	3
TAP	37	96	6
TAP	37	192	2
TAP	37	192	7
TAP	37	288	0
TAP	37	288	1
HLD	38	0	2	288
TAP	38	0	4
TAP	38	96	4
TAP	38	192	4
TAP	38	288	3
TAP	38	336	4
TAP	39	0	3
HLD	39	0	5	288
TAP	39	96	3
TAP	39	192	3
TAP	39	288	4
TAP	39	336	3
TAP	40	0	2
TAP	40	0	4
TAP	40	48	4
TAP	40	96	3
TAP	40	144	3
TAP	40	192	5
TAP	40	240	5
TAP	40	288	2
TAP	40	336	2
STR	41	0	1
SLR	41	0	1	96	120	0
STR	41	0	6
SLL	41	0	6	96	120	7
BRK	41	288	1
BRK	41	288	6
XTP	42	0	2
XTP	42	0	5
TAP	42	96	0
TAP	42	96	7
TAP	42	144	6
TAP	42	192	4
TAP	42	192	5
TAP	42	288	2
TAP	42	288	3
TAP	42	336	1
TAP	43	0	0
TAP	43	0	7
TAP	43	96	6
TAP	43	96	7
TAP	43	144	5
HLD	43	192	3	96
TAP	43	192	4
TAP	43	288	0
TAP	44	0	2
STR	44	0	7
SCL	44	0	7	96	72	4
TAP	44	96	0
TAP	44	192	2
TAP	44	240	3
TAP	44	288	4
TAP	44	336	5
XTP	45	0	6
XTP	45	0	7
XTP	45	96	1
XTP	45	96	4
TTP	45	192	0	B	0	M1
TTP	45	192	0	C	1	M1
TTP	45	192	4	B	0	M1
XTP	46	0	6
XTP	46	0	7
TAP	46	96	0
TAP	46	96	7
TAP	46	144	1
TAP	46	192	2
TAP	46	192	3
TAP	46	288	4
TAP	46	288	5
TAP	46	336	6
TAP	47	0	0
TAP	47	0	7
TAP	47	96	0
TAP	47	96	1
TAP	47	144	2
TAP	47	192	3
HLD	47	192	4	96
TAP	47	288	7
STR	48	0	0
SCR	48	0	0	96	72	3
TAP	48	0	4
TAP	48	96	6
TAP	48	144	7
STR	48	192	0
SCL	48	192	0	96	72	5
TAP	48	288	2
TAP	48	336	2
TAP	49	48	0
TAP	49	48	4
XTP	49	96	0
XTP	49	96	4
XTP	49	192	2
XTP	49	192	6
BRK	49	288	0
BRK	49	288	7
TAP	50	0	5
TAP	50	48	5
TAP	50	96	3
TAP	50	120	4
TAP	50	144	3
TAP	50	192	5
TAP	50	240	5
TAP	50	288	4
TAP	50	288	6
TAP	51	0	2
TAP	51	48	2
TAP	51	96	4
TAP	51	120	3
TAP	51	144	4
TAP	51	192	2
TAP	51	240	2
TAP	51	288	1
TAP	51	288	3
XST	52	0	5
SCR	52	0	5	96	48	7
TAP	52	96	3
XST	52	192	1
SCR	52	192	1	96	48	3
TAP	52	288	7
XTP	53	0	4
XTP	53	0	5
XTP	53	96	2
XTP	53	96	7
TTP	53	192	0	C	1	M1
TTP	53	192	3	B	0	M1
TTP	53	192	7	B	0	M1
XTP	54	0	0
XTP	54	0	1
TAP	54	96	6
TAP	54	144	7
TAP	54	192	0
TAP	54	192	5
TAP	54	288	1
TAP	54	336	0
TAP	55	0	2
TAP	55	0	7
TAP	55	96	3
TAP	55	96	4
TAP	55	192	0
TAP	55	192	7
BRK	55	288	1
BRK	55	288	6
HLD	56	0	2	48
TAP	56	48	3
HLD	56	96	5	48
TAP	56	144	4
STR	56	192	0
SI_	56	192	0	96	48	4
XTP	56	288	7
TAP	57	0	5
TAP	57	0	6
TAP	57	96	3
TAP	57	96	4
TAP	57	192	1
TAP	57	192	2
TAP	57	288	0
TAP	57	288	7
BRK	57	336	1
BST	57	336	6
SCR	57	336	6	96	240	5
TAP	59	0	1
TAP	59	0	2
TAP	59	96	0
TAP	59	96	7
TAP	59	192	5
TAP	59	192	6
TTP	59	288	3	B	0	M1
TTP	59	288	4	B	0	M1
TTP	59	336	0	B	0	M1
THO	59	336	0	720	C	1	M1
TTP	59	336	7	B	0	M1
STR	62	192	7
SCL	62	192	7	96	96	4
HLD	63	0	3	768
TAP	63	96	2
TAP	63	288	2
TAP	64	96	2
TAP	64	240	2
TAP	64	288	2
HLD	65	0	4	576
TAP	65	96	5
TAP	65	288	5
TAP	66	96	5
TAP	66	192	3
TAP	66	288	2
TAP	66	288	5
HLD	67	0	3	672
TAP	67	0	4
TAP	67	96	2
TAP	67	288	2
TAP	68	96	2
TAP	68	240	4
TAP	68	288	4
TTP	69	0	7	E	0	M1
TTP	69	48	1	E	0	M1
TTP	69	96	5	E	0	M1
TTP	69	144	3	E	0	M1
TTP	69	192	0	C	0	M1
TTP	69	288	3	B	0	M1
TTP	69	288	4	E	0	M1
TTP	69	288	4	B	0	M1
TTP	70	0	1	E	0	M1
TTP	70	0	7	E	0	M1
TTP	70	96	2	E	0	M1
TTP	70	96	6	E	0	M1
TTP	70	192	3	E	0	M1
TTP	70	192	5	E	0	M1
STR	70	288	3
SCL	70	288	3	96	288	6
STR	71	288	4
SCR	71	288	4	96	288	1
TAP	73	192	3
TAP	73	192	4
BRK	73	288	1
BRK	73	288	6
XTP	74	0	2
XTP	74	0	5
TAP	74	96	0
TAP	74	96	7
TAP	74	144	1
TAP	74	192	2
TAP	74	192	3
TAP	74	288	4
TAP	74	288	5
TAP	74	336	6
TAP	75	0	0
TAP	75	0	7
TAP	75	96	0
TAP	75	96	1
TAP	75	144	2
TAP	75	192	3
HLD	75	192	4	96
TAP	75	288	7
STR	76	0	0
SCR	76	0	0	96	72	3
TAP	76	0	5
TAP	76	96	7
TAP	76	192	5
TAP	76	240	4
TAP	76	288	3
TAP	76	336	2
XTP	77	0	0
XTP	77	0	1
XTP	77	96	3
XTP	77	96	6
TTP	77	192	0	C	1	M1
TTP	77	192	3	E	0	M1
TTP	77	192	7	E	0	M1
XTP	78	0	0
XTP	78	0	1
TAP	78	96	0
TAP	78	96	7
TAP	78	144	6
TAP	78	192	4
TAP	78	192	5
TAP	78	288	2
TAP	78	288	3
TAP	78	336	1
TAP	79	0	0
TAP	79	0	7
TAP	79	96	6
TAP	79	96	7
TAP	79	144	5
HLD	79	192	3	96
TAP	79	192	4
TAP	79	288	0
TAP	80	0	3
STR	80	0	7
SCL	80	0	7	96	72	4
TAP	80	96	1
TAP	80	144	0
STR	80	192	7
SCR	80	192	7	96	72	2
TAP	80	288	5
TAP	80	336	5
TAP	81	48	3
TAP	81	48	7
XTP	81	96	2
XTP	81	96	6
XTP	81	192	0
XTP	81	192	4
BRK	81	288	1
BRK	81	288	6
TAP	82	0	3
TAP	82	0	4
TAP	82	48	5
TAP	82	72	4
TAP	82	96	5
TAP	82	144	3
TAP	82	168	4
TAP	82	192	3
TAP	82	240	6
TAP	82	264	7
TAP	82	288	6
TAP	83	0	3
TAP	83	0	4
TAP	83	48	2
TAP	83	72	3
TAP	83	96	2
TAP	83	144	4
TAP	83	168	3
TAP	83	192	4
TAP	83	240	1
TAP	83	264	0
TAP	83	288	1
XST	84	0	2
SCL	84	0	2	96	48	0
TAP	84	96	4
TAP	84	144	5
XST	84	192	6
SCL	84	192	6	96	48	4
TAP	84	288	0
TAP	84	336	1
XTP	85	0	2
XTP	85	0	3
XTP	85	96	0
XTP	85	96	5
TTP	85	192	0	C	1	M1
TTP	85	192	1	E	0	M1
TTP	85	192	5	E	0	M1
XTP	86	0	6
XTP	86	0	7
TAP	86	96	0
TAP	86	96	7
TAP	86	144	1
TAP	86	192	0
TAP	86	192	2
TAP	86	288	0
TAP	86	288	7
TAP	86	336	6
TAP	87	0	5
TAP	87	0	7
TAP	87	96	0
TAP	87	96	7
TAP	87	192	3
TAP	87	192	4
BRK	87	288	1
BRK	87	288	6
TAP	88	0	4
TAP	88	0	6
TAP	88	48	5
TAP	88	96	1
TAP	88	96	3
TAP	88	144	2
STR	88	192	7
SI_	88	192	7	96	48	3
XTP	88	288	0
TAP	89	0	1
TAP	89	0	2
TAP	89	96	3
TAP	89	96	4
TAP	89	192	5
TAP	89	192	6
TAP	89	288	0
TAP	89	288	7
BST	89	336	1
SCL	89	336	1	96	240	2
BRK	89	336	6
TAP	91	0	5
TAP	91	0	6
TAP	91	96	0
TAP	91	96	7
TAP	91	192	1
TAP	91	192	2
TTP	91	288	3	B	0	M1
TTP	91	288	4	B	0	M1
TTP	91	336	0	B	0	M1
THO	91	336	0	720	C	1	M1
TTP	91	336	7	B	0	M1
BRK	93	288	7

T_REC_TAP	312
T_REC_BRK	23
T_REC_XTP	55
T_REC_HLD	22
T_REC_XHO	9
T_REC_STR	26
T_REC_BST	2
T_REC_XST	4
T_REC_TTP	74
T_REC_THO	4
T_REC_SLD	32
T_REC_ALL	563
T_NUM_TAP	471
T_NUM_BRK	25
T_NUM_HLD	35
T_NUM_SLD	32
T_NUM_ALL	563
T_JUDGE_TAP	496
T_JUDGE_HLD	262
T_JUDGE_SLD	32
T_JUDGE_ALL	790
TTM_EACHPAIRS	121
TTM_SCR_TAP	235500
TTM_SCR_BRK	65000
TTM_SCR_HLD	35000
TTM_SCR_SLD	48000
TTM_SCR_ALL	383500
TTM_SCR_S	369600
TTM_SCR_SS	381000
TTM_RAT_ACV	10065

