VERSION	0.00.00	1.03.00
FES_MODE	0
BPM_DEF	162.000	162.000	162.000	162.000
MET_DEF	4	4
RESOLUTION	384
CLK_DEF	384
COMPATIBLE_CODE	MA2

BPM	0	0	162.000
MET	0	0	4	4

HLD	2	0	2	192
HLD	2	0	3	192
HLD	3	0	3	192
HLD	3	0	4	192
HLD	4	0	4	192
HLD	4	0	5	192
XTP	5	0	4
XTP	5	96	4
XTP	5	192	3
XTP	5	288	3
HLD	6	0	2	192
HLD	6	0	4	192
HLD	7	0	3	192
HLD	7	0	5	192
HLD	8	0	2	192
HLD	8	0	4	192
TAP	9	0	3
TAP	9	0	4
TAP	9	96	3
TAP	9	96	4
BRK	9	192	2
BRK	9	192	5
TAP	10	0	1
TAP	10	96	1
TAP	10	192	2
TAP	10	288	2
TAP	11	0	3
TAP	11	96	3
TAP	11	192	3
TAP	11	192	4
TAP	12	0	6
TAP	12	96	6
TAP	12	192	5
TAP	12	288	5
TAP	13	0	4
TAP	13	96	4
TAP	13	192	3
XTP	13	288	3
XTP	13	288	4
BRK	14	0	2
BRK	14	0	5
TAP	14	192	1
TAP	14	288	1
TAP	15	0	2
TAP	15	96	2
TAP	15	192	1
TAP	15	192	3
TAP	16	0	5
TAP	16	96	5
TAP	16	192	6
TAP	16	288	6
TAP	17	0	0
TAP	17	0	7
TAP	17	96	0
TAP	17	96	7
XTP	17	192	1
XTP	17	192	6
TAP	18	0	2
TAP	18	96	3
TAP	18	192	2
TAP	18	192	3
TAP	19	0	5
TAP	19	96	4
TAP	19	192	4
TAP	19	192	5
TAP	20	0	3
TAP	20	96	3
TAP	20	192	4
TAP	20	288	3
TAP	21	0	3
TAP	21	0	4
TAP	21	96	2
TAP	21	96	5
XTP	21	192	1
XTP	21	192	6
TAP	22	0	1
TAP	22	96	0
TAP	22	192	0
TAP	22	192	1
TAP	23	0	6
TAP	23	96	7
XTP	23	192	6
XTP	23	192	7
TAP	24	0	1
TAP	24	96	1
TAP	24	192	0
TAP	24	288	0
XTP	25	0	0
XTP	25	0	7
XTP	25	96	0
XTP	25	96	7
XTP	25	192	1
XTP	25	192	6
XTP	25	288	1
XTP	25	288	6
BRK	26	0	2
BRK	26	0	5
TTP	26	192	4	E	0	L1
TTP	27	0	3	B	0	L1
TTP	27	0	4	B	0	L1
TTP	27	192	2	B	0	L1
TTP	27	192	5	B	0	L1
TTP	28	0	1	B	0	L1
TTP	28	0	6	B	0	L1
TTP	28	192	0	B	0	L1
TTP	28	192	7	B	0	L1
TTP	29	0	1	E	0	L1
TTP	29	0	7	E	0	L1
TTP	29	192	2	E	0	L1
TTP	29	192	6	E	0	L1
THO	30	0	0	192	C	0	L1
TTP	31	0	6	B	0	L1
TTP	31	0	7	E	0	L1
TTP	31	192	1	E	0	L1
TTP	31	192	1	B	0	L1
TTP	32	0	5	B	0	L1
TTP	32	0	6	E	0	L1
TTP	32	192	2	E	0	L1
TTP	32	192	2	B	0	L1
THO	33	0	0	192	C	0	L1
TTP	34	0	2	E	0	L1
TTP	34	96	2	B	0	L1
TTP	34	192	3	B	0	L1
TTP	35	0	6	E	0	L1
TTP	35	96	5	B	0	L1
TTP	35	192	4	B	0	L1
TTP	36	0	1	B	0	L1
TTP	36	96	0	C	0	L1
TTP	36	192	5	B	0	L1
TTP	37	0	6	B	0	L1
TTP	37	96	0	C	0	L1
TTP	37	192	2	B	0	L1
TTP	38	0	1	E	0	L1
TTP	38	96	0	C	0	L1
TTP	38	192	5	E	0	L1
TTP	39	0	7	E	0	L1
TTP	39	96	0	C	0	L1
TTP	39	192	3	E	0	L1
TTP	40	0	1	B	0	L1
TTP	40	0	2	B	0	L1
TTP	40	192	5	B	0	L1
TTP	40	192	6	B	0	L1
THO	41	0	0	192	C	1	L1
XTP	42	0	0
TAP	42	96	0
TAP	42	192	1
TAP	42	192	7
TAP	42	288	1
TAP	42	288	7
TAP	43	0	2
TAP	43	96	3
TAP	43	96	4
TAP	43	192	2
TAP	43	192	5
TAP	44	0	0
TAP	44	96	0
TAP	44	192	1
TAP	44	192	7
TAP	44	288	1
TAP	44	288	7
XTP	45	0	6
XTP	45	96	4
XTP	45	96	5
XTP	45	192	3
XTP	45	192	6
TAP	46	0	4
TAP	46	96	5
TAP	46	192	4
TAP	46	288	3
TAP	46	288	6
TAP	47	0	2
TAP	47	96	3
TAP	47	192	1
TAP	47	192	4
TAP	48	0	5
TAP	48	96	4
TAP	48	192	2
STR	48	288	3
SI_	48	288	3	96	192	0
XTP	49	288	7
TAP	50	0	6
TAP	50	96	5
TAP	50	192	4
TAP	50	240	4
XTP	50	288	4
TAP	51	0	3
TAP	51	96	2
TAP	51	192	1
TAP	51	240	1
XTP	51	288	1
TAP	52	0	0
TAP	52	0	1
TAP	52	96	0
TAP	52	96	1
TAP	52	192	6
TAP	52	192	7
TAP	52	288	6
TAP	52	288	7
XTP	53	0	0
XTP	53	0	7
XTP	53	96	1
XTP	53	96	6
BRK	53	192	2
BRK	53	192	5
TAP	54	0	2
TAP	54	96	1
TAP	54	96	3
TAP	54	192	5
TAP	54	288	4
TAP	54	288	6
TAP	55	0	3
TAP	55	0	4
TAP	55	96	2
TAP	55	96	5
TAP	55	192	1
TAP	55	192	6
HLD	56	0	2	96
HLD	56	0	3	96
HLD	56	192	4	96
HLD	56	192	5	96
XTP	57	0	3
XTP	57	0	4
XTP	57	96	3
XTP	57	96	4
XTP	57	192	2
XTP	57	288	1
HLD	58	0	0	96
HLD	58	0	1	96
HLD	58	192	6	96
HLD	58	192	7	96
XTP	59	0	0
XTP	59	0	7
XTP	59	96	0
XTP	59	96	7
XTP	59	192	1
XTP	59	192	6
XST	59	288	1
SLR	59	288	1	96	672	0
XST	59	288	6
SLL	59	288	6	96	672	7
STR	63	0	7
SCL	63	0	7	96	288	4
TAP	64	192	3
STR	65	0	3
SI_	65	0	3	96	288	7
TAP	66	192	6
STR	67	0	6
SCR	67	0	6	96	288	1
TAP	68	192	2
STR	69	0	2
SCR	69	0	2	96	288	5
TAP	70	192	6
HLD	71	0	0	192
HLD	71	0	7	192
TAP	71	288	0
TAP	71	288	7
STR	72	0	1
SLR	72	0	1	96	384	0
STR	72	0	6
SLL	72	0	6	96	384	7
XHO	74	0	2	96
TAP	74	96	3
HLD	74	192	5	96
TAP	74	288	4
TAP	75	0	6
TAP	75	0	7
TAP	75	96	0
TAP	75	96	5
TAP	75	192	1
TAP	75	192	4
HLD	76	0	6	96
TAP	76	96	4
HLD	76	192	1	96
TAP	76	288	3
XTP	77	0	3
XTP	77	0	4
XTP	77	96	2
XTP	77	96	5
XTP	77	192	0
XTP	77	192	7
TAP	78	0	1
TAP	78	96	0
TAP	78	192	1
TAP	78	288	2
TAP	78	288	7
TAP	79	0	6
TAP	79	96	7
TAP	79	192	0
TAP	79	192	5
TAP	80	0	1
TAP	80	96	0
TAP	80	192	6
STR	80	288	7
SI_	80	288	7	96	192	4
XTP	81	288	3
TAP	82	0	2
TAP	82	96	1
TAP	82	192	0
TAP	82	240	0
XTP	82	288	0
TAP	83	0	7
TAP	83	96	6
TAP	83	192	5
TAP	83	240	5
XTP	83	288	5
TAP	84	0	4
TAP	84	0	5
TAP	84	96	3
TAP	84	96	6
TAP	84	192	2
TAP	84	192	3
TAP	84	288	1
TAP	84	288	4
XTP	85	0	3
XTP	85	0	4
XTP	85	96	3
XTP	85	96	4
BRK	85	192	1
BRK	85	192	6
HLD	86	0	1	96
TAP	86	96	0
HLD	86	192	6	96
TAP	86	288	7
TAP	87	0	0
TAP	87	0	1
TAP	87	96	2
TAP	87	96	7
TAP	87	192	3
TAP	87	192	6
HLD	88	0	4	96
HLD	88	0	5	96
HLD	88	192	2	96
HLD	88	192	3	96
XTP	89	0	4
XTP	89	0	5
XTP	89	96	4
XTP	89	96	5
XTP	89	192	6
XTP	89	288	7
XHO	90	0	0	96
XHO	90	0	1	96
XHO	90	192	6	96
XHO	90	192	7	96
XTP	91	0	0
XTP	91	0	7
XTP	91	96	1
XTP	91	96	6
XTP	91	192	2
XTP	91	192	5
XTP	91	288	3
XST	91	288	4
SCR	91	288	4	96	672	3

T_REC_TAP	167
T_REC_BRK	10
T_REC_XTP	71
T_REC_HLD	31
T_REC_XHO	5
T_REC_STR	8
T_REC_BST	0
T_REC_XST	3
T_REC_TTP	43
T_REC_THO	3
T_REC_SLD	11
T_REC_ALL	352
T_NUM_TAP	292
T_NUM_BRK	10
T_NUM_HLD	39
T_NUM_SLD	11
T_NUM_ALL	352
T_JUDGE_TAP	302
T_JUDGE_HLD	112
T_JUDGE_SLD	11
T_JUDGE_ALL	425
TTM_EACHPAIRS	91
TTM_SCR_TAP	146000
TTM_SCR_BRK	26000
TTM_SCR_HLD	39000
TTM_SCR_SLD	16500
TTM_SCR_ALL	227500
TTM_SCR_S	219750
TTM_SCR_SS	226500
TTM_RAT_ACV	10044

