VERSION	0.00.00	1.03.00
FES_MODE	0
BPM_DEF	162.000	162.000	162.000	162.000
MET_DEF	4	4
RESOLUTION	384
CLK_DEF	384
COMPATIBLE_CODE	MA2

BPM	0	0	162.000
MET	0	0	4	4

TAP	10	0	0
TAP	11	0	1
TAP	12	0	2
TAP	13	0	3
TAP	13	192	3
TAP	14	0	3
TAP	14	0	4
TAP	15	0	5
TAP	16	0	6
TAP	17	0	7
TAP	17	192	7
TAP	18	0	0
TAP	18	0	7
TAP	19	0	6
TAP	20	0	5
TAP	21	0	3
TAP	21	0	4
XTP	21	192	3
XTP	21	192	4
TAP	22	0	3
TAP	22	192	3
TAP	23	0	4
TAP	23	192	4
TAP	24	0	3
TAP	24	192	4
HLD	25	0	3	192
HLD	25	0	4	192
TTP	26	0	4	B	0	L1
TTP	27	0	3	B	0	L1
TTP	28	0	5	B	0	L1
TTP	29	0	2	B	0	L1
TTP	30	0	6	B	0	L1
TTP	31	0	1	B	0	L1
TTP	32	0	7	B	0	L1
TTP	33	0	0	B	0	L1
TTP	34	0	6	B	0	L1
TTP	35	0	1	B	0	L1
TTP	36	0	5	B	0	L1
TTP	37	0	2	B	0	L1
TTP	38	0	4	B	0	L1
TTP	39	0	3	B	0	L1
THO	40	0	0	384	C	1	L1
TAP	42	0	0
TAP	42	192	0
TAP	43	0	0
TAP	43	96	0
TAP	43	192	0
TAP	44	0	1
TAP	44	192	1
XTP	45	0	1
XTP	45	96	1
BRK	45	192	1
TAP	46	0	2
TAP	46	192	2
TAP	47	0	2
TAP	47	96	2
TAP	47	192	2
TAP	48	0	3
TAP	48	0	4
TAP	48	192	3
TAP	48	192	4
XTP	49	0	3
XTP	49	96	4
BRK	49	192	3
TAP	50	0	4
TAP	50	96	4
TAP	50	192	4
TAP	51	0	5
TAP	51	96	5
TAP	51	192	5
HLD	52	0	6	192
XTP	53	0	7
XTP	53	96	7
BRK	53	192	7
TAP	54	0	0
TAP	54	96	0
TAP	54	192	0
TAP	55	0	1
TAP	55	96	1
TAP	55	192	1
HLD	56	0	2	192
TAP	57	0	3
TAP	57	96	3
TAP	57	192	4
TAP	57	288	4
STR	58	0	3
SI_	58	0	3	96	288	0
STR	60	0	4
SI_	60	0	4	96	288	7
TAP	63	0	3
TAP	64	0	3
TAP	65	0	4
TAP	66	0	4
TAP	66	96	4
TAP	66	192	4
TAP	67	0	3
TAP	67	192	3
TAP	68	0	4
TAP	68	192	4
HLD	69	0	3	192
HLD	69	0	4	192
TAP	70	0	3
TAP	70	96	4
TAP	70	192	3
STR	71	0	3
SI_	71	0	3	96	288	0
STR	71	0	4
SI_	71	0	4	96	288	7
TAP	74	0	7
TAP	74	96	7
TAP	74	192	7
TAP	75	0	6
TAP	75	96	6
TAP	75	192	6
TAP	76	0	5
TAP	76	96	5
TAP	76	192	5
XTP	77	0	3
XTP	77	0	4
XTP	77	96	3
XTP	77	96	4
BRK	77	192	3
BRK	77	192	4
TAP	78	0	3
TAP	78	96	3
TAP	78	192	3
TAP	79	0	2
TAP	79	96	2
TAP	79	192	2
TAP	80	0	0
TAP	80	0	1
TAP	80	192	0
TAP	80	192	1
XTP	81	0	7
XTP	81	96	7
BRK	81	192	0
BRK	81	192	7
TAP	82	0	1
TAP	82	96	1
TAP	82	192	1
TAP	83	0	2
TAP	83	96	2
TAP	83	192	2
TAP	84	0	3
TAP	84	96	3
TAP	84	192	4
TAP	84	288	4
TAP	85	0	3
TAP	85	96	3
BRK	85	192	3
BRK	85	192	4
TAP	86	0	4
TAP	86	96	4
TAP	86	192	4
TAP	87	0	5
TAP	87	96	5
TAP	87	192	5
TAP	88	0	6
TAP	88	0	7
TAP	88	192	6
TAP	88	192	7
TAP	89	0	0
TAP	89	96	0
TAP	89	192	7
TAP	89	288	7
STR	90	0	0
SI_	90	0	0	96	288	4
STR	92	0	7
SI_	92	0	7	96	288	3

T_REC_TAP	113
T_REC_BRK	9
T_REC_XTP	14
T_REC_HLD	6
T_REC_XHO	0
T_REC_STR	6
T_REC_BST	0
T_REC_XST	0
T_REC_TTP	14
T_REC_THO	1
T_REC_SLD	6
T_REC_ALL	169
T_NUM_TAP	147
T_NUM_BRK	9
T_NUM_HLD	7
T_NUM_SLD	6
T_NUM_ALL	169
T_JUDGE_TAP	156
T_JUDGE_HLD	32
T_JUDGE_SLD	6
T_JUDGE_ALL	194
TTM_EACHPAIRS	18
TTM_SCR_TAP	73500
TTM_SCR_BRK	23400
TTM_SCR_HLD	7000
TTM_SCR_SLD	9000
TTM_SCR_ALL	112900
TTM_SCR_S	108650
TTM_SCR_SS	112000
TTM_RAT_ACV	10080

