VERSION	0.00.00	1.03.00
FES_MODE	0
BPM_DEF	168.000	168.000	168.000	168.000
MET_DEF	4	4
RESOLUTION	384
CLK_DEF	384
COMPATIBLE_CODE	MA2

BPM	0	0	168.000
MET	0	0	4	4

STR	2	0	0
SI_	2	0	0	96	48	4
TAP	2	96	0
TAP	2	96	6
STR	2	144	6
SI_	2	144	6	96	48	2
TAP	2	240	1
TAP	2	240	6
STR	2	288	1
SI_	2	288	1	96	48	5
TAP	3	0	1
TAP	3	0	7
STR	3	48	7
SI_	3	48	7	96	48	3
TAP	3	144	0
TAP	3	144	7
STR	3	192	0
SI_	3	192	0	96	48	3
STR	3	288	0
SI_	3	288	0	96	48	5
TAP	4	0	0
TAP	4	48	1
TAP	4	96	2
TAP	4	120	3
TAP	4	144	2
HLD	4	192	1	48
HLD	4	192	4	48
HLD	4	264	3	48
HLD	4	264	6	48
TAP	4	336	0
TAP	4	336	5
TAP	5	0	6
TAP	5	0	7
TAP	5	48	6
TAP	5	96	5
TAP	5	120	4
TAP	5	144	5
HLD	5	192	3	48
HLD	5	192	6	48
HLD	5	264	1	48
HLD	5	264	4	48
TAP	5	336	2
TAP	5	336	7
STR	6	0	1
SI_	6	0	1	96	48	4
TAP	6	24	0
TAP	6	48	1
TAP	6	96	7
STR	6	192	6
SI_	6	192	6	96	48	3
TAP	6	216	7
TAP	6	240	6
TAP	6	288	0
TAP	7	0	2
TAP	7	24	3
TAP	7	48	1
TAP	7	72	4
TAP	7	96	0
TAP	7	120	5
TAP	7	144	7
TAP	7	168	6
STR	7	192	7
SI_	7	192	7	96	48	4
TAP	7	288	0
STR	7	288	7
SI_	7	288	7	96	48	2
TAP	8	0	7
TAP	8	48	6
TAP	8	96	5
TAP	8	120	4
TAP	8	144	5
HLD	8	192	3	48
HLD	8	192	6	48
HLD	8	264	1	48
HLD	8	264	4	48
TAP	8	336	2
TAP	8	336	7
TAP	9	0	0
TAP	9	0	1
TAP	9	48	1
TAP	9	96	2
TAP	9	120	3
TAP	9	144	2
HLD	9	192	1	48
HLD	9	192	4	48
HLD	9	264	3	48
HLD	9	264	6	48
TAP	9	336	0
TAP	9	336	5
TAP	10	0	0
TAP	10	0	4
TAP	10	24	1
TAP	10	48	2
TAP	10	72	3
TAP	10	96	4
TAP	10	120	5
TAP	10	144	6
TAP	10	168	7
TAP	10	192	0
TAP	10	192	4
TAP	10	216	3
TAP	10	240	2
TAP	10	264	1
TAP	10	288	0
TAP	10	312	7
XTP	10	336	2
XTP	10	336	6
XTP	11	48	0
XTP	11	48	4
XTP	11	96	3
XTP	11	96	7
TAP	11	192	6
TAP	11	192	7
STR	11	288	0
SI_	11	288	0	96	48	4
TAP	11	288	1
TAP	12	0	0
BRK	12	0	7
TAP	12	96	6
STR	12	96	7
SI_	12	96	7	96	48	3
BRK	12	192	0
TAP	12	192	7
TAP	12	288	0
TAP	12	288	1
TAP	13	0	0
TAP	13	0	7
TAP	13	48	0
TAP	13	72	7
TAP	13	96	0
TAP	13	144	1
TAP	13	144	6
STR	13	192	0
SI_	13	192	0	96	48	3
STR	13	192	7
SI_	13	192	7	96	48	4
BRK	13	288	0
BRK	13	288	7
TAP	14	0	6
TAP	14	24	7
TAP	14	48	6
TAP	14	96	5
TAP	14	120	5
TAP	14	168	4
TAP	14	192	4
TAP	14	240	3
TAP	14	264	3
TAP	14	312	2
TAP	14	336	2
TAP	15	0	1
TAP	15	24	0
TAP	15	48	1
TAP	15	96	2
TAP	15	120	2
TAP	15	168	3
TAP	15	192	3
TAP	15	240	4
TAP	15	264	4
TAP	15	312	5
TAP	15	336	5
TAP	16	0	6
STR	16	0	7
SI_	16	0	7	96	48	3
TAP	16	96	0
TAP	16	96	7
STR	16	192	0
SI_	16	192	0	96	48	4
TAP	16	216	1
TAP	16	288	0
TAP	16	288	7
TAP	17	0	2
TAP	17	24	3
TAP	17	48	2
TAP	17	96	5
TAP	17	120	4
TAP	17	144	5
TAP	17	192	2
TAP	17	216	3
TAP	17	240	1
TAP	17	288	5
TAP	17	312	4
TAP	17	336	6
TAP	18	0	1
TAP	18	24	0
TAP	18	48	1
TAP	18	96	2
TAP	18	120	2
TAP	18	168	3
TAP	18	192	3
TAP	18	240	4
TAP	18	264	4
TAP	18	312	5
TAP	18	336	5
TAP	19	0	6
TAP	19	24	0
TAP	19	48	7
TAP	19	96	1
TAP	19	96	6
TAP	19	144	0
TAP	19	168	7
TAP	19	240	1
TAP	19	240	6
TAP	19	288	2
TAP	19	288	5
TAP	19	336	3
TAP	19	336	4
STR	20	0	2
SI_	20	0	2	96	48	7
TAP	20	0	3
TAP	20	96	2
TAP	20	96	4
STR	20	192	5
SI_	20	192	5	96	48	0
TAP	20	216	4
STR	20	288	3
SCL	20	288	3	96	288	4
TAP	20	288	5
XTP	20	336	3
STR	21	288	7
SI_	21	288	7	96	48	3
TAP	22	0	2
TAP	22	0	7
TAP	22	96	0
BRK	22	144	1
BRK	22	144	7
TAP	22	288	2
TAP	22	288	4
STR	22	336	3
SI_	22	336	3	96	96	7
STR	23	48	7
SCL	23	48	7	96	96	4
STR	23	144	4
SI_	23	144	4	96	96	0
STR	23	240	0
SCR	23	240	0	96	96	3
TAP	23	336	6
TAP	24	48	5
STR	24	96	4
SI_	24	96	4	96	48	0
TAP	24	144	3
HLD	24	192	3	96
STR	24	336	2
SCL	24	336	2	96	96	5
TAP	25	48	3
STR	25	96	4
SI_	25	96	4	96	48	7
STR	25	144	4
SI_	25	144	4	96	48	1
STR	25	288	0
SI_	25	288	0	96	48	4
TAP	26	0	0
TAP	26	0	5
TAP	26	96	7
BRK	26	144	0
BRK	26	144	6
TAP	26	288	3
TAP	26	288	5
STR	26	336	6
SCR	26	336	6	96	96	1
STR	27	48	1
SI_	27	48	1	96	96	5
STR	27	144	5
SCL	27	144	5	96	96	2
TAP	27	240	2
HLD	27	336	1	336
STR	28	48	0
SCL	28	48	0	96	144	2
TAP	28	96	0
HLD	28	336	0	96
TAP	29	48	7
TAP	29	96	1
TAP	29	96	6
TAP	29	144	2
TAP	29	144	5
TAP	29	192	0
TAP	29	192	1
TAP	29	240	2
TAP	29	240	7
TAP	29	288	3
TAP	29	288	6
TAP	29	336	4
TAP	29	336	5
TAP	30	0	3
TAP	30	48	2
TAP	30	96	1
TAP	30	96	5
TAP	30	144	0
TAP	30	192	4
TAP	30	240	5
TAP	30	288	2
TAP	30	288	6
TAP	30	336	7
TAP	31	0	0
STR	31	48	1
SCL	31	48	1	96	48	6
TAP	31	48	5
TAP	31	144	4
XST	31	192	3
SI_	31	192	3	96	48	7
XTP	31	288	2
TAP	31	336	1
TAP	32	0	0
TAP	32	48	7
TAP	32	96	2
TAP	32	96	6
TAP	32	144	5
TAP	32	192	1
TAP	32	240	2
TAP	32	288	3
TAP	32	288	6
TAP	32	336	4
TAP	33	0	3
TAP	33	0	5
STR	33	48	2
SLR	33	48	2	96	144	1
STR	33	48	6
SLR	33	48	6	96	144	4
TAP	33	96	2
TAP	33	96	6
TAP	34	0	7
TAP	34	48	0
TAP	34	96	1
TAP	34	96	5
TAP	34	144	2
TAP	34	192	6
TAP	34	240	5
TAP	34	288	0
TAP	34	288	4
TAP	34	336	1
TAP	35	0	2
TAP	35	48	3
STR	35	48	6
SCR	35	48	6	96	48	1
TAP	35	144	4
XST	35	192	4
SI_	35	192	4	96	48	0
XTP	35	288	6
STR	35	336	7
SCL	35	336	7	96	288	0
TTP	36	48	1	E	0	M1
TTP	36	96	2	E	0	M1
TTP	36	144	3	E	0	M1
TTP	36	192	4	E	0	M1
TTP	36	240	5	E	0	M1
TTP	36	288	6	E	0	M1
TTP	36	336	7	E	0	M1
TTP	37	0	0	B	0	M1
TTP	37	0	0	C	0	M1
TTP	37	0	1	B	0	M1
TTP	37	0	1	E	0	M1
TTP	37	0	4	B	0	M1
TTP	37	0	5	E	0	M1
TTP	37	0	5	B	0	M1
TTP	37	96	0	C	0	M1
TTP	37	96	2	B	0	M1
TTP	37	96	3	E	0	M1
TTP	37	96	3	B	0	M1
TTP	37	96	6	B	0	M1
TTP	37	96	7	E	0	M1
TTP	37	96	7	B	0	M1
STR	37	192	0
SCR	37	192	0	96	48	3
STR	37	288	0
SXR	37	288	0	96	180	4
TAP	38	0	0
TTP	38	144	0	C	1	M1
BRK	38	144	1
TAP	38	288	0
TAP	38	336	7
TAP	39	0	1
TAP	39	24	0
TAP	39	48	1
TAP	39	96	7
TAP	39	144	0
TAP	39	192	6
TAP	39	216	7
TAP	39	240	6
TAP	39	288	5
HLD	39	336	4	336
TAP	39	336	6
STR	40	48	3
SCL	40	48	3	96	144	5
TAP	40	96	3
STR	41	0	4
SI_	41	0	4	96	48	1
TAP	41	48	5
TAP	41	96	4
STR	41	192	7
SCL	41	192	7	96	48	4
STR	41	288	7
SXL	41	288	7	96	180	3
TAP	42	0	7
TTP	42	144	0	C	1	M1
BRK	42	144	6
TAP	42	288	7
TAP	42	336	0
TAP	43	0	6
TAP	43	24	7
TAP	43	48	6
TAP	43	96	0
TAP	43	144	7
TAP	43	192	0
TAP	43	192	1
TAP	43	240	2
TAP	43	240	7
TAP	43	336	3
TAP	44	0	2
TAP	44	0	4
TAP	44	48	1
TAP	44	48	5
TAP	44	96	0
TAP	44	96	6
TAP	44	144	7
TAP	44	192	4
TAP	44	240	3
TAP	44	240	5
TAP	44	288	2
TAP	44	288	6
STR	44	336	7
SI_	44	336	7	96	48	3
STR	45	0	1
SI_	45	0	1	96	48	5
XTP	45	48	7
XTP	45	96	1
STR	45	192	4
SCR	45	192	4	96	48	7
TAP	45	288	2
STR	45	288	4
SXR	45	288	4	96	180	0
TAP	46	0	4
TTP	46	144	0	C	1	M1
BRK	46	144	6
TAP	46	288	7
TAP	46	336	0
TAP	47	0	6
TAP	47	24	7
TAP	47	48	6
TAP	47	96	0
TAP	47	144	7
TAP	47	192	1
TAP	47	216	0
TAP	47	240	1
TAP	47	288	2
TAP	47	336	1
HLD	47	336	3	336
STR	48	48	4
SCR	48	48	4	96	144	2
TAP	48	96	4
STR	49	0	3
SI_	49	0	3	96	48	6
TAP	49	48	2
TAP	49	96	3
STR	49	192	3
SCL	49	192	3	96	48	0
STR	49	288	3
SXL	49	288	3	96	180	7
TAP	49	288	5
TAP	50	0	3
TTP	50	144	0	C	1	M1
BRK	50	144	1
TAP	50	288	0
TAP	50	336	7
TAP	51	0	1
TAP	51	24	0
TAP	51	48	2
TAP	51	96	6
TAP	51	120	7
TAP	51	144	5
TAP	51	192	2
TAP	51	216	3
TAP	51	240	1
STR	51	288	5
SCR	51	288	5	96	288	2
THO	51	336	0	432	C	1	M1
TTP	53	0	1	B	0	M1
TTP	53	0	2	B	0	M1
TTP	53	0	2	E	0	M1
TTP	53	0	5	B	0	M1
TTP	53	0	6	B	0	M1
TTP	53	0	6	E	0	M1
TAP	54	0	1
TAP	54	0	6
TAP	54	96	5
TAP	54	144	3
TAP	54	144	7
TAP	54	240	0
TAP	54	240	4
TAP	54	336	2
TAP	54	336	6
TAP	55	0	1
TAP	55	24	0
TAP	55	48	1
TAP	55	96	2
TAP	55	120	3
TAP	55	168	5
TAP	55	192	4
TAP	55	240	1
TAP	55	264	3
TAP	55	312	6
TAP	55	336	4
TAP	56	0	6
TAP	56	24	7
TAP	56	48	6
TAP	56	96	5
TAP	56	120	4
TAP	56	168	2
TAP	56	192	3
TAP	56	240	6
TAP	56	264	4
TAP	56	312	1
TAP	56	336	3
TAP	57	0	0
STR	57	0	1
SI_	57	0	1	96	48	4
TAP	57	96	1
TAP	57	96	7
STR	57	192	6
SI_	57	192	6	96	48	3
TAP	57	216	7
TAP	57	288	0
TAP	57	288	6
TAP	58	0	0
TAP	58	0	4
TAP	58	24	1
TAP	58	48	2
TAP	58	72	3
TAP	58	96	4
TAP	58	120	5
TAP	58	144	6
TAP	58	168	7
TAP	58	192	0
TAP	58	192	4
TAP	58	216	3
TAP	58	240	2
TAP	58	264	1
TAP	58	288	0
TAP	58	312	7
TAP	58	336	6
TAP	58	360	5
TAP	59	0	2
TAP	59	24	3
TAP	59	48	2
TAP	59	96	1
TAP	59	120	0
TAP	59	168	6
TAP	59	192	7
TAP	59	240	2
TAP	59	264	7
TAP	59	312	5
TAP	59	336	0
TAP	60	0	4
TAP	60	24	3
TAP	60	48	4
TAP	60	96	3
TAP	60	96	5
TAP	60	144	6
TAP	60	168	5
TAP	60	168	7
TAP	60	240	0
TAP	60	240	1
TAP	60	288	2
TAP	60	288	7
TAP	60	336	3
TAP	60	336	6
STR	61	0	4
SI_	61	0	4	96	48	0
TAP	61	0	5
TAP	61	96	4
TAP	61	96	6
STR	61	192	3
SI_	61	192	3	96	48	7
TAP	61	216	2
STR	61	288	0
SCR	61	288	0	96	288	7
TAP	61	288	3
XTP	61	336	0
TAP	63	0	5
TAP	63	96	5
TAP	63	192	4
TAP	63	192	5
TAP	64	0	4
TAP	64	96	4
TAP	64	192	3
TAP	64	192	4
TAP	65	0	2
TAP	65	96	2
TAP	65	192	2
TAP	65	192	3
TAP	66	0	3
TAP	66	96	3
TAP	66	192	3
TAP	66	192	4
TAP	67	0	4
TAP	67	96	5
TTP	67	192	4	B	0	M1
TTP	67	192	6	E	0	M1
TAP	68	0	3
TAP	68	96	2
TTP	68	192	2	E	0	M1
TTP	68	192	3	B	0	M1
HLD	68	336	4	96
TTP	69	0	1	B	0	M1
HLD	69	48	2	96
TTP	69	96	6	B	0	M1
HLD	69	144	5	96
TTP	69	192	0	B	0	M1
HLD	69	240	1	96
TTP	69	288	7	B	0	M1
HLD	69	336	6	48
STR	70	0	0
SI_	70	0	0	96	48	4
TAP	70	96	0
XST	70	192	3
SCL	70	192	3	96	48	0
XST	70	192	7
SCL	70	192	7	96	48	4
XST	70	288	3
SXL	70	288	3	96	180	7
XST	70	288	7
SXL	70	288	7	96	180	3
XTP	71	0	3
XTP	71	0	7
TTP	71	144	0	C	1	M1
TAP	71	288	0
TAP	71	336	7
TAP	72	0	1
TAP	72	24	0
TAP	72	48	1
TAP	72	96	0
TAP	72	96	2
TAP	72	144	7
TAP	72	192	6
TAP	72	216	7
TAP	72	240	6
TAP	72	288	5
TAP	72	288	7
HLD	72	336	0	336
TAP	72	336	4
STR	73	48	3
SCL	73	48	3	96	144	5
TAP	73	96	3
STR	74	0	6
SI_	74	0	6	96	48	2
STR	74	0	7
SI_	74	0	7	96	48	3
TAP	74	48	0
TAP	74	48	5
TAP	74	96	6
TAP	74	96	7
XST	74	192	0
SCR	74	192	0	96	48	3
XST	74	192	4
SCR	74	192	4	96	48	7
XST	74	288	0
SXR	74	288	0	96	180	4
XST	74	288	4
SXR	74	288	4	96	180	0
XTP	75	0	0
XTP	75	0	4
TTP	75	144	0	C	1	M1
TAP	75	288	7
TAP	75	336	0
TAP	76	0	6
TAP	76	24	7
TAP	76	48	6
TAP	76	96	5
TAP	76	96	7
TAP	76	144	0
TAP	76	192	0
TAP	76	192	1
TAP	76	240	2
TAP	76	240	7
HLD	76	336	3	144
TAP	77	0	4
TAP	77	48	5
TAP	77	96	6
HLD	77	144	7	144
TAP	77	192	0
TAP	77	240	1
TAP	77	288	2
STR	77	336	3
SI_	77	336	3	96	48	0
STR	78	0	7
SI_	78	0	7	96	48	4
BRK	78	48	3
BRK	78	96	7
XST	78	192	1
SCR	78	192	1	96	48	4
XST	78	192	5
SCR	78	192	5	96	48	0
XST	78	288	1
SXR	78	288	1	96	180	5
XST	78	288	5
SXR	78	288	5	96	180	1
XTP	79	0	1
XTP	79	0	5
TTP	79	144	0	C	1	M1
TAP	79	288	7
TAP	79	336	0
TAP	80	0	6
TAP	80	24	7
TAP	80	48	6
TAP	80	96	5
TAP	80	96	7
TAP	80	144	0
TAP	80	192	1
TAP	80	216	0
TAP	80	240	1
TAP	80	288	0
TAP	80	288	2
TAP	80	336	3
HLD	80	336	7	336
STR	81	48	4
SCR	81	48	4	96	144	2
TAP	81	96	4
STR	82	0	0
SI_	82	0	0	96	48	4
STR	82	0	1
SI_	82	0	1	96	48	5
TAP	82	48	2
TAP	82	48	7
TAP	82	96	0
TAP	82	96	1
XST	82	192	2
SCL	82	192	2	96	48	7
XST	82	192	6
SCL	82	192	6	96	48	3
XST	82	288	2
SXL	82	288	2	96	180	6
XST	82	288	6
SXL	82	288	6	96	180	2
XTP	83	0	2
XTP	83	0	6
TTP	83	144	0	C	1	M1
TAP	83	288	0
TAP	83	336	7
TAP	84	0	1
TAP	84	24	0
TAP	84	48	2
TAP	84	96	6
TAP	84	120	7
TAP	84	144	5
TAP	84	192	2
TAP	84	216	3
TAP	84	240	1
STR	84	288	5
SCR	84	288	5	96	288	2
THO	84	336	0	432	C	1	M1
TTP	86	0	1	B	0	M1
TTP	86	0	2	E	0	M1
TTP	86	0	2	B	0	M1
TTP	86	0	5	B	0	M1
TTP	86	0	6	E	0	M1
TTP	86	0	6	B	0	M1
TAP	87	0	0
TAP	87	0	4
TAP	87	96	7
TAP	87	144	2
TAP	87	144	6
TAP	87	216	1
TAP	87	240	1
TAP	87	240	5
TAP	87	312	7
TAP	87	336	3
TAP	87	336	7
TAP	88	0	0
TAP	88	24	7
HLD	88	48	1	48
TAP	88	96	3
HLD	88	120	3	48
TAP	88	168	4
HLD	88	192	4	48
TAP	88	240	6
HLD	88	264	6	48
TAP	88	312	0
TAP	88	336	0
TAP	89	0	7
TAP	89	24	0
HLD	89	48	6	48
TAP	89	96	4
HLD	89	120	4	48
TAP	89	168	3
HLD	89	192	3	48
TAP	89	240	1
HLD	89	264	1	48
TAP	89	312	7
TAP	89	336	7
STR	90	0	0
SI_	90	0	0	96	48	4
STR	90	0	1
SI_	90	0	1	96	48	4
TAP	90	96	0
TAP	90	96	1
STR	90	192	6
SI_	90	192	6	96	48	3
STR	90	192	7
SI_	90	192	7	96	48	3
TAP	90	216	6
TAP	90	216	7
TAP	90	288	6
TAP	90	288	7
XTP	91	0	2
TAP	91	24	3
TAP	91	48	1
TAP	91	72	4
TAP	91	96	0
TAP	91	120	5
TAP	91	144	7
TAP	91	168	6
XTP	91	192	4
TAP	91	216	5
TAP	91	240	3
TAP	91	264	6
TAP	91	288	2
TAP	91	312	7
TAP	91	336	1
TAP	91	360	0
TAP	92	0	2
TAP	92	24	3
HLD	92	48	2	48
TAP	92	96	0
HLD	92	120	0	48
TAP	92	168	7
HLD	92	192	7	48
TAP	92	240	5
HLD	92	264	5	48
TAP	92	312	3
TAP	92	336	3
TAP	93	0	4
TAP	93	24	3
TAP	93	48	4
TAP	93	96	3
TAP	93	96	5
TAP	93	144	6
TAP	93	168	5
TAP	93	168	7
TAP	93	240	0
TAP	93	240	5
TAP	93	288	1
TAP	93	288	4
TAP	93	336	2
TAP	93	336	3
STR	94	0	1
SI_	94	0	1	96	48	4
STR	94	0	5
SI_	94	0	5	96	48	0
TAP	94	96	1
TAP	94	96	5
STR	94	192	2
SI_	94	192	2	96	48	7
STR	94	192	6
SI_	94	192	6	96	48	3
TAP	94	216	2
TAP	94	216	6
TAP	94	288	2
TAP	94	288	6
TAP	95	0	0
TAP	95	24	4
TAP	95	48	1
TAP	95	72	5
TAP	95	96	2
TAP	95	120	6
TAP	95	144	3
TAP	95	168	7
TAP	95	192	4
TAP	95	216	0
TAP	95	240	3
TAP	95	264	7
TAP	95	288	2
TAP	95	312	6
TAP	95	336	1
TAP	95	360	5
STR	96	0	0
SV_	96	0	0	96	48	3
STR	96	0	4
SV_	96	0	4	96	48	7
BRK	96	96	0
BRK	96	96	4
TTP	96	120	0	C	1	M1

T_REC_TAP	555
T_REC_BRK	16
T_REC_XTP	22
T_REC_HLD	42
T_REC_XHO	0
T_REC_STR	78
T_REC_BST	0
T_REC_XST	18
T_REC_TTP	50
T_REC_THO	2
T_REC_SLD	96
T_REC_ALL	879
T_NUM_TAP	723
T_NUM_BRK	16
T_NUM_HLD	44
T_NUM_SLD	96
T_NUM_ALL	879
T_JUDGE_TAP	739
T_JUDGE_HLD	100
T_JUDGE_SLD	96
T_JUDGE_ALL	935
TTM_EACHPAIRS	147
TTM_SCR_TAP	361500
TTM_SCR_BRK	41600
TTM_SCR_HLD	44000
TTM_SCR_SLD	144000
TTM_SCR_ALL	591100
TTM_SCR_S	571850
TTM_SCR_SS	589500
TTM_RAT_ACV	10027

