VERSION	0.00.00	1.03.00
FES_MODE	0
BPM_DEF	168.000	168.000	168.000	168.000
MET_DEF	4	4
RESOLUTION	384
CLK_DEF	384
COMPATIBLE_CODE	MA2

BPM	0	0	168.000
MET	0	0	4	4

XTP	2	0	2
XTP	2	0	3
XTP	2	144	4
XTP	2	144	5
XTP	2	288	1
XTP	2	288	3
XTP	3	48	4
XTP	3	48	6
XTP	3	192	2
XTP	3	192	5
XTP	3	288	3
XTP	3	288	4
BRK	4	0	1
BRK	4	0	6
TAP	4	96	1
TAP	4	192	2
TAP	4	192	4
TAP	4	288	3
TAP	5	0	5
TAP	5	96	6
TAP	5	192	3
TAP	5	192	5
TAP	5	288	4
STR	6	0	1
SCL	6	0	1	96	192	4
TAP	6	0	3
HLD	7	0	2	96
HLD	7	0	3	96
XTP	7	192	2
XTP	7	192	5
XTP	7	288	3
XTP	7	288	4
BRK	8	0	1
BRK	8	0	6
TAP	8	96	2
TAP	8	192	3
TAP	8	192	4
TAP	8	288	2
TAP	8	288	5
TAP	9	0	6
TAP	9	96	5
TAP	9	192	3
TAP	9	192	4
TAP	9	288	1
TAP	9	288	6
TAP	10	0	2
TAP	10	48	2
TAP	10	96	5
TAP	10	144	5
TAP	10	192	3
TAP	10	216	4
TAP	10	240	3
TAP	10	264	4
TAP	10	288	3
TAP	10	312	4
XTP	10	336	3
XTP	11	48	2
XTP	11	48	5
XTP	11	96	2
XTP	11	96	5
TAP	11	192	1
TAP	11	192	6
TAP	11	288	3
TAP	11	288	4
TTP	12	0	2	E	0	M1
TTP	12	0	2	B	0	M1
TTP	12	0	3	E	0	M1
TTP	12	192	5	B	0	M1
TTP	12	192	5	E	0	M1
TTP	12	192	6	E	0	M1
TTP	13	0	0	B	0	M1
TTP	13	0	1	E	0	M1
TTP	13	0	7	B	0	M1
TTP	13	0	7	E	0	M1
TTP	13	96	3	E	0	M1
TTP	13	96	3	B	0	M1
TTP	13	96	4	B	0	M1
TTP	13	96	5	E	0	M1
TTP	13	192	0	C	1	M1
TTP	13	192	2	E	0	M1
TTP	13	192	6	E	0	M1
XTP	14	0	0
XTP	14	0	7
TAP	14	96	1
TAP	14	96	6
TAP	14	192	5
TAP	14	240	5
TAP	14	288	4
TAP	15	0	3
TAP	15	0	4
TAP	15	96	2
TAP	15	96	5
TAP	15	192	1
TAP	15	240	1
TAP	15	288	0
TAP	16	0	2
TAP	16	0	4
XTP	16	96	1
TAP	16	192	3
TAP	16	192	5
XTP	16	288	6
TAP	17	0	4
TAP	17	0	5
TAP	17	96	3
TAP	17	96	4
TAP	17	192	2
TAP	17	192	3
XTP	17	288	1
XTP	17	288	6
TAP	18	0	3
TAP	18	0	4
TAP	18	96	2
TAP	18	192	3
TAP	18	192	4
HLD	18	288	5	96
HLD	19	0	4	96
HLD	19	96	3	96
TAP	19	192	2
TAP	19	288	1
TAP	19	288	4
TAP	20	0	4
TAP	20	0	5
XTP	20	96	6
TAP	20	192	2
TAP	20	192	3
XTP	20	288	1
XTP	20	288	4
XTP	20	336	1
XST	20	336	4
SUL	20	336	4	96	168	3
XTP	21	288	2
XTP	21	288	5
XHO	22	0	0	96
XHO	22	0	6	96
BRK	22	144	0
BRK	22	144	6
TAP	22	288	3
TAP	22	288	5
TAP	22	336	3
HLD	22	336	5	384
TAP	23	48	4
TAP	23	144	3
TAP	23	240	4
TAP	23	336	6
TAP	24	48	6
TAP	24	48	7
TAP	24	96	6
TAP	24	96	7
TAP	24	192	0
TAP	24	192	5
XHO	24	336	6	96
XHO	25	48	4	96
XTP	25	144	5
XTP	25	192	5
XTP	25	240	4
XTP	25	240	5
XHO	26	0	1	96
XHO	26	0	7	96
BRK	26	144	1
BRK	26	144	7
TAP	26	288	2
TAP	26	288	3
HLD	26	336	2	288
TAP	26	336	3
TAP	27	48	4
TAP	27	144	3
TAP	27	240	1
TAP	27	336	0
STR	27	336	1
SCR	27	336	1	96	192	6
TAP	28	336	0
TAP	28	336	7
TAP	29	48	1
TAP	29	48	6
TAP	29	96	1
TAP	29	96	6
TAP	29	192	5
TAP	29	288	3
TAP	29	288	5
HLD	30	0	2	192
TAP	30	0	4
TTP	30	192	4	E	0	M1
TTP	30	288	0	C	0	M1
HLD	31	0	1	96
HLD	31	0	6	96
TAP	31	192	4
TAP	31	192	5
BRK	31	288	0
BRK	31	288	7
STR	32	0	1
SI_	32	0	1	96	48	4
STR	32	192	6
SI_	32	192	6	96	48	3
TAP	33	0	2
TAP	33	96	0
TAP	33	192	1
TAP	33	192	3
TAP	33	288	2
TAP	34	0	3
HLD	34	0	5	192
TTP	34	192	4	E	0	M1
TTP	34	288	0	C	0	M1
HLD	35	0	1	96
HLD	35	0	6	96
TAP	35	192	2
TAP	35	192	3
BRK	35	288	0
BRK	35	288	7
STR	36	0	1
SI_	36	0	1	96	48	5
STR	36	192	6
SI_	36	192	6	96	48	2
XTP	37	0	1
XTP	37	0	3
XTP	37	96	4
XTP	37	96	6
STR	37	192	0
SI_	37	192	0	96	48	4
STR	37	192	7
SI_	37	192	7	96	48	3
XHO	38	0	2	96
XHO	38	0	5	96
TTP	38	144	0	C	1	M1
TTP	38	144	1	B	0	M1
TTP	38	144	6	B	0	M1
XTP	38	288	7
HLD	39	0	0	96
STR	39	0	7
SI_	39	0	7	96	48	3
STR	39	192	1
SI_	39	192	1	96	48	4
HLD	39	192	6	96
XHO	40	0	3	96
XST	40	0	5
SCR	40	0	5	96	192	2
TAP	41	0	3
TAP	41	0	4
TAP	41	48	2
TAP	41	48	5
BRK	41	96	1
BRK	41	96	6
STR	41	192	0
SI_	41	192	0	96	48	4
STR	41	192	7
SI_	41	192	7	96	48	3
XHO	42	0	1	96
XHO	42	0	6	96
TTP	42	144	0	C	1	M1
TTP	42	144	2	B	0	M1
TTP	42	144	5	B	0	M1
XTP	42	288	7
HLD	43	0	0	96
STR	43	0	1
SI_	43	0	1	96	48	3
HLD	43	192	4	96
STR	43	192	5
SI_	43	192	5	96	48	7
TAP	44	0	0
TAP	44	96	1
TAP	44	96	3
TAP	44	192	3
TAP	44	192	4
XTP	44	288	5
XTP	44	336	4
XTP	44	336	6
XTP	45	48	2
XTP	45	96	1
XTP	45	96	3
STR	45	192	0
SI_	45	192	0	96	48	4
STR	45	192	6
SI_	45	192	6	96	48	3
XHO	46	0	2	96
XHO	46	0	7	96
TTP	46	144	0	C	1	M1
TTP	46	144	1	B	0	M1
TTP	46	144	5	B	0	M1
XTP	46	288	7
STR	47	0	6
SI_	47	0	6	96	48	3
HLD	47	0	7	96
HLD	47	192	0	96
STR	47	192	1
SI_	47	192	1	96	48	4
XHO	48	0	3	96
XST	48	0	5
SCR	48	0	5	96	192	3
TAP	49	0	6
TAP	49	0	7
TAP	49	48	0
TAP	49	48	5
BRK	49	96	1
BRK	49	96	4
STR	49	192	1
SI_	49	192	1	96	48	4
STR	49	192	7
SI_	49	192	7	96	48	3
XHO	50	0	0	96
XHO	50	0	5	96
TTP	50	144	0	C	1	M1
TTP	50	144	2	B	0	M1
TTP	50	144	6	B	0	M1
XTP	50	288	0
HLD	51	0	1	96
TAP	51	0	7
TAP	51	96	3
TAP	51	192	0
HLD	51	192	6	96
TAP	51	288	4
TAP	52	0	2
TAP	52	0	4
TAP	52	96	3
TAP	52	96	5
TAP	52	192	4
TAP	52	240	4
TAP	52	288	3
XHO	53	0	0	288
XTP	53	0	4
XTP	54	0	3
XTP	54	0	6
XTP	54	144	1
XTP	54	144	4
XTP	54	240	3
XTP	54	240	4
XTP	54	336	2
XTP	54	336	5
HLD	55	0	2	192
TAP	55	0	5
HLD	55	96	3	288
HLD	55	288	4	288
HLD	56	96	5	384
TAP	56	288	4
HLD	57	0	3	96
HLD	57	192	2	96
HLD	57	192	4	96
HLD	58	0	3	96
HLD	58	0	4	96
TAP	58	192	3
TAP	58	192	4
XTP	58	288	1
XTP	58	288	6
TAP	59	0	5
TAP	59	48	4
TAP	59	96	6
TAP	59	192	2
TAP	59	240	3
HLD	59	288	1	96
HLD	60	0	3	96
HLD	60	96	4	96
TAP	60	192	5
TAP	60	288	6
TAP	60	288	7
TAP	61	0	1
TAP	61	0	3
TAP	61	96	0
TAP	61	192	4
TAP	61	192	6
TAP	61	288	0
TAP	61	288	7
XST	61	336	0
SUL	61	336	0	96	144	4
XST	61	336	7
SUR	61	336	7	96	144	3
TAP	62	288	2
TAP	62	288	5
HLD	63	0	2	768
TTP	63	192	3	E	0	M1
TTP	64	0	0	C	0	M1
TTP	64	192	5	E	0	M1
HLD	65	0	5	768
TTP	65	192	4	B	0	M1
TTP	66	0	0	C	0	M1
TTP	66	192	2	B	0	M1
HLD	67	0	3	864
TTP	67	192	4	E	0	M1
TTP	68	0	0	C	0	M1
TTP	68	192	6	E	0	M1
HLD	69	0	5	96
HLD	69	192	2	96
HLD	69	192	4	96
XTP	70	0	3
XTP	70	0	4
XTP	70	96	0
XTP	70	96	7
STR	70	192	1
SI_	70	192	1	96	48	4
STR	70	192	3
SI_	70	192	3	96	48	7
XHO	71	0	2	96
XHO	71	0	6	96
TTP	71	144	0	C	1	M1
TTP	71	144	1	B	0	M1
TTP	71	144	5	B	0	M1
XTP	71	288	7
TAP	72	0	6
STR	72	0	7
SI_	72	0	7	96	48	3
TAP	72	96	6
STR	72	192	0
SI_	72	192	0	96	48	4
TAP	72	192	1
TAP	72	288	1
XHO	73	0	6	96
XST	73	0	7
SCR	73	0	7	96	192	5
TAP	74	0	0
TAP	74	0	1
TAP	74	48	2
TAP	74	48	7
BRK	74	96	3
BRK	74	96	6
STR	74	192	4
SI_	74	192	4	96	48	0
STR	74	192	6
SI_	74	192	6	96	48	3
XHO	75	0	1	96
XHO	75	0	5	96
TTP	75	144	0	C	1	M1
TTP	75	144	2	B	0	M1
TTP	75	144	6	B	0	M1
XTP	75	288	0
STR	76	0	0
SI_	76	0	0	96	48	5
STR	76	0	1
SI_	76	0	1	96	48	4
STR	76	192	6
SI_	76	192	6	96	48	3
STR	76	192	7
SI_	76	192	7	96	48	2
TAP	77	0	1
TAP	77	0	4
TAP	77	96	3
TAP	77	96	6
TAP	77	192	3
TAP	77	192	4
XTP	77	288	2
XTP	77	336	1
XTP	77	336	3
XTP	78	48	5
XTP	78	96	4
XTP	78	96	6
STR	78	192	1
SV_	78	192	1	96	48	4
STR	78	192	5
SV_	78	192	5	96	48	0
XHO	79	0	3	96
XHO	79	0	6	96
TTP	79	144	0	C	1	M1
TTP	79	144	1	B	0	M1
TTP	79	144	2	B	0	M1
XTP	79	288	6
XTP	79	288	7
TAP	80	0	0
STR	80	0	5
SI_	80	0	5	96	48	0
TAP	80	96	1
STR	80	192	2
SI_	80	192	2	96	48	7
TAP	80	192	7
TAP	80	288	6
XST	81	0	0
SCR	81	0	0	96	192	6
XHO	81	0	6	96
TAP	82	0	0
TAP	82	0	1
TAP	82	48	2
TAP	82	48	7
BRK	82	96	3
BRK	82	96	6
STR	82	192	1
SV_	82	192	1	96	48	4
STR	82	192	5
SV_	82	192	5	96	48	0
XHO	83	0	3	96
XHO	83	0	7	96
TTP	83	144	0	C	1	M1
TTP	83	144	5	B	0	M1
TTP	83	144	6	B	0	M1
XTP	83	288	0
XTP	83	288	1
STR	84	0	2
SI_	84	0	2	96	48	7
TAP	84	0	7
STR	84	96	6
SI_	84	96	6	96	48	3
STR	84	192	0
SI_	84	192	0	96	48	4
TAP	84	288	7
TAP	85	0	6
TAP	85	48	6
TAP	85	96	3
TAP	85	144	3
TAP	85	192	4
TAP	85	240	4
TAP	85	288	2
TAP	85	336	1
TAP	85	336	5
XHO	86	0	0	288
XTP	86	0	6
XTP	87	0	2
XTP	87	0	7
XTP	87	144	0
XTP	87	144	5
XTP	87	240	0
XTP	87	240	7
XTP	87	336	1
XTP	87	336	6
BRK	88	0	1
BRK	88	0	6
TAP	88	96	2
TAP	88	96	3
TAP	88	192	5
TAP	88	240	4
TAP	88	288	6
HLD	89	0	5	96
TAP	89	0	7
TAP	89	96	4
TAP	89	192	2
TAP	89	240	3
TAP	89	288	1
HLD	90	0	3	96
TAP	90	0	5
XTP	90	96	0
TAP	90	192	2
HLD	90	192	4	96
XTP	90	288	7
TAP	91	0	0
TAP	91	48	0
TAP	91	96	5
TAP	91	144	5
TAP	91	192	3
XTP	91	288	2
XTP	91	288	7
TAP	92	0	1
TAP	92	48	4
TAP	92	96	3
TAP	92	96	5
TAP	92	192	6
TAP	92	240	3
HLD	92	288	2	96
TAP	92	288	4
HLD	93	0	0	96
HLD	93	96	7	96
TAP	93	192	5
TAP	93	288	3
TAP	93	288	6
TAP	94	0	2
HLD	94	0	3	96
XTP	94	96	7
HLD	94	192	4	96
TAP	94	192	5
XTP	94	288	0
TAP	95	0	7
TAP	95	48	6
TAP	95	96	2
TAP	95	144	1
TAP	95	192	5
TAP	95	240	4
TAP	95	288	1
TAP	95	336	0
TAP	95	336	6
TTP	96	96	0	C	1	M1
TTP	96	96	1	B	0	M1
TTP	96	96	2	B	0	M1
TTP	96	96	5	B	0	M1
TTP	96	96	6	B	0	M1

T_REC_TAP	225
T_REC_BRK	22
T_REC_XTP	93
T_REC_HLD	47
T_REC_XHO	28
T_REC_STR	39
T_REC_BST	0
T_REC_XST	7
T_REC_TTP	59
T_REC_THO	0
T_REC_SLD	46
T_REC_ALL	566
T_NUM_TAP	423
T_NUM_BRK	22
T_NUM_HLD	75
T_NUM_SLD	46
T_NUM_ALL	566
T_JUDGE_TAP	445
T_JUDGE_HLD	232
T_JUDGE_SLD	46
T_JUDGE_ALL	723
TTM_EACHPAIRS	165
TTM_SCR_TAP	211500
TTM_SCR_BRK	57200
TTM_SCR_HLD	75000
TTM_SCR_SLD	69000
TTM_SCR_ALL	412700
TTM_SCR_S	398200
TTM_SCR_SS	410500
TTM_RAT_ACV	10053

