VERSION	0.00.00	1.03.00
FES_MODE	0
BPM_DEF	168.000	168.000	168.000	168.000
MET_DEF	4	4
RESOLUTION	384
CLK_DEF	384
COMPATIBLE_CODE	MA2

BPM	0	0	168.000
MET	0	0	4	4

XHO	2	0	2	144
XHO	2	0	4	144
XHO	2	288	3	144
XHO	2	288	5	144
XTP	3	192	3
XTP	3	192	4
XTP	3	288	3
XTP	3	288	4
XHO	4	0	2	96
XHO	4	0	5	96
HLD	4	192	2	96
HLD	4	192	5	96
TAP	5	0	3
TAP	5	96	3
TAP	5	192	3
TAP	5	192	4
HLD	6	0	5	192
TAP	6	192	4
HLD	7	0	3	192
XTP	7	192	4
XTP	7	288	3
XTP	7	288	4
XHO	8	0	2	96
XHO	8	0	5	96
HLD	8	192	2	96
HLD	8	192	5	96
TAP	9	0	4
TAP	9	96	4
TAP	9	192	3
STR	9	288	3
SUR	9	288	3	96	384	4
XTP	11	192	4
XTP	11	192	5
XTP	11	288	4
XTP	11	288	5
XTP	12	0	3
XTP	12	0	6
XTP	12	192	1
XTP	12	192	4
XTP	13	0	0
XTP	13	0	7
XTP	13	96	0
XTP	13	96	7
BRK	13	192	1
BRK	13	192	6
TAP	14	0	2
TAP	14	96	3
TAP	14	192	2
TAP	14	192	3
TAP	15	0	5
TAP	15	96	4
TAP	15	192	4
TAP	15	192	5
TAP	16	0	2
TAP	16	96	3
TAP	16	192	2
TAP	16	192	4
HLD	17	0	3	96
HLD	17	0	4	96
TAP	17	192	2
TAP	17	192	5
TAP	18	0	1
TAP	18	96	0
TAP	18	192	0
TAP	18	192	1
TAP	19	0	6
TAP	19	96	7
TAP	19	192	6
TAP	19	192	7
TAP	20	0	0
TAP	20	96	0
TAP	20	192	7
STR	20	288	0
SI_	20	288	0	96	192	3
STR	20	288	7
SI_	20	288	7	96	192	4
XHO	22	0	2	144
XHO	22	0	5	144
XTP	22	288	3
XTP	22	288	4
TAP	23	0	5
TAP	23	96	5
TAP	23	192	4
TAP	23	288	4
HLD	24	0	2	96
HLD	24	0	3	96
TAP	24	192	2
TAP	24	192	3
HLD	25	0	4	96
HLD	25	0	5	96
TAP	25	192	4
TAP	25	192	5
XHO	26	0	2	144
XHO	26	0	5	144
XTP	26	288	2
XTP	26	288	5
TAP	27	0	3
TAP	27	0	4
TAP	27	96	3
TAP	27	96	4
TAP	27	192	3
TAP	27	192	4
THO	28	0	0	384	C	1	L1
HLD	30	0	2	192
TAP	30	192	3
TAP	30	288	3
TAP	31	0	1
TAP	31	96	1
XTP	31	192	0
XTP	31	192	1
HLD	32	0	5	192
TAP	32	192	4
TAP	32	288	4
TAP	33	0	6
TAP	33	96	6
XTP	33	192	6
XTP	33	192	7
HLD	34	0	2	192
TAP	34	192	3
TAP	34	288	3
TAP	35	0	1
TAP	35	96	1
XTP	35	192	0
XTP	35	192	7
STR	35	288	0
SCR	35	288	0	96	240	3
STR	35	288	7
SCL	35	288	7	96	240	4
BRK	37	0	2
BRK	37	0	5
XTP	37	192	2
XTP	37	192	3
XTP	37	288	2
XTP	37	288	3
XHO	38	0	1	144
XHO	38	0	4	144
TAP	38	288	0
TAP	38	288	7
TAP	39	0	6
TAP	39	96	6
TAP	39	192	5
TAP	39	288	3
TAP	39	288	4
TAP	40	0	2
TAP	40	96	2
TAP	40	192	1
TAP	40	288	0
TAP	40	288	7
XTP	41	0	1
XTP	41	0	6
XTP	41	192	4
XTP	41	192	5
XTP	41	288	4
XTP	41	288	5
XHO	42	0	3	144
XHO	42	0	6	144
TAP	42	288	0
TAP	42	288	7
TAP	43	0	1
TAP	43	96	2
XTP	43	192	3
XTP	43	192	6
TAP	44	0	5
TAP	44	96	4
TAP	44	96	5
HLD	44	192	2	96
XTP	44	288	3
XTP	44	336	3
XTP	45	48	2
XTP	45	48	4
XTP	45	96	2
XTP	45	96	4
XTP	45	192	0
XTP	45	192	1
XTP	45	288	0
XTP	45	288	1
XHO	46	0	2	144
XHO	46	0	7	144
TAP	46	288	3
TAP	46	288	4
TAP	47	0	5
TAP	47	96	5
TAP	47	192	6
TAP	47	288	0
TAP	47	288	7
TAP	48	0	1
TAP	48	96	1
TAP	48	192	2
TAP	48	288	3
TAP	48	288	4
XTP	49	0	2
XTP	49	0	5
XTP	49	192	6
XTP	49	192	7
XTP	49	288	6
XTP	49	288	7
XHO	50	0	0	144
XHO	50	0	5	144
XTP	50	288	3
XTP	50	288	4
TAP	51	0	5
TAP	51	96	3
TAP	51	96	4
TAP	51	192	2
BST	51	288	3
SUL	51	288	3	96	240	4
XHO	53	0	3	192
XHO	53	0	5	192
XHO	54	0	2	192
XHO	54	0	4	192
TAP	55	0	3
TAP	55	96	3
HLD	55	192	2	192
TAP	56	0	3
TAP	56	96	3
TAP	56	192	2
TAP	56	192	3
TAP	57	0	4
TAP	57	96	4
HLD	57	192	5	192
TAP	58	0	4
TAP	58	96	4
XTP	58	192	3
XTP	58	192	5
TAP	59	0	2
TAP	59	96	2
TAP	59	192	3
TAP	59	288	3
TAP	60	0	4
TAP	60	0	5
TAP	60	96	4
TAP	60	96	5
TAP	60	192	3
TAP	60	192	6
TAP	61	0	7
TAP	61	96	7
TAP	61	192	0
STR	61	288	0
SCR	61	288	0	96	288	3
TTP	63	0	4	E	0	L1
TTP	63	192	5	E	0	L1
TTP	64	0	0	C	0	L1
TTP	64	0	6	E	0	L1
TTP	65	0	4	E	0	L1
TTP	65	192	3	E	0	L1
TTP	66	0	0	C	0	L1
TTP	66	0	2	E	0	L1
TTP	67	0	3	E	0	L1
TTP	67	0	5	E	0	L1
TTP	67	192	2	B	0	L1
TTP	67	192	5	B	0	L1
TTP	68	0	1	B	0	L1
TTP	68	0	6	B	0	L1
TTP	68	192	1	E	0	L1
TTP	68	192	7	E	0	L1
THO	69	0	0	384	C	0	L1
XTP	70	192	6
XTP	70	192	7
XTP	70	288	6
XTP	70	288	7
XHO	71	0	0	144
XHO	71	0	5	144
TAP	71	288	1
TAP	72	0	2
TAP	72	96	3
TAP	72	96	4
TAP	72	192	5
TAP	72	288	4
TAP	72	288	6
TAP	73	0	5
TAP	73	96	3
TAP	73	96	4
TAP	73	192	2
TAP	73	288	0
TAP	73	288	1
XTP	74	0	2
XTP	74	0	7
XTP	74	192	4
XTP	74	192	5
XTP	74	288	4
XTP	74	288	5
XHO	75	0	3	144
XHO	75	0	6	144
TAP	75	288	0
TAP	75	288	7
TAP	76	0	1
TAP	76	96	2
XTP	76	192	3
XTP	76	192	6
TAP	77	0	5
TAP	77	96	4
TAP	77	96	5
HLD	77	192	2	96
XTP	77	288	3
XTP	77	336	3
XTP	78	48	2
XTP	78	48	3
XTP	78	96	2
XTP	78	96	3
XTP	78	192	4
XTP	78	192	5
XTP	78	288	3
XTP	78	288	6
XHO	79	0	2	144
XHO	79	0	7	144
TAP	79	288	0
TAP	79	288	7
TAP	80	0	1
TAP	80	96	2
TAP	80	96	3
TAP	80	192	6
TAP	80	288	4
TAP	80	288	5
TAP	81	0	3
TAP	81	96	2
TAP	81	192	1
TAP	81	192	4
TAP	81	288	2
XTP	82	0	3
XTP	82	0	6
XTP	82	192	6
XTP	82	192	7
XTP	82	288	0
XTP	82	288	5
XHO	83	0	1	144
XHO	83	0	4	144
XTP	83	288	2
XTP	83	288	3
TAP	84	0	4
TAP	84	0	5
TAP	84	96	6
TAP	84	192	2
TAP	84	192	3
STR	84	288	1
SCL	84	288	1	96	240	4
XHO	86	0	2	192
XHO	86	0	3	192
XHO	87	0	4	192
XHO	87	0	5	192
TAP	88	0	3
TAP	88	96	2
TAP	88	192	1
TAP	88	192	4
TAP	88	288	1
TAP	88	288	4
TAP	89	0	5
TAP	89	96	4
TAP	89	192	3
TAP	89	192	6
HLD	90	0	6	96
TAP	90	96	7
TAP	90	192	0
TAP	90	192	5
HLD	91	0	1	96
TAP	91	96	0
TAP	91	192	2
TAP	91	192	7
TAP	92	0	4
TAP	92	96	5
TAP	92	192	3
TAP	92	192	6
TAP	92	288	3
TAP	92	288	6
TAP	93	0	2
TAP	93	96	3
TAP	93	192	1
TAP	93	192	4
TAP	94	0	0
TAP	94	96	0
TAP	94	192	7
STR	94	288	0
SI_	94	288	0	96	240	4
STR	94	288	7
SI_	94	288	7	96	240	3
TTP	96	96	0	C	1	L1

T_REC_TAP	184
T_REC_BRK	4
T_REC_XTP	91
T_REC_HLD	21
T_REC_XHO	36
T_REC_STR	9
T_REC_BST	1
T_REC_XST	0
T_REC_TTP	17
T_REC_THO	2
T_REC_SLD	10
T_REC_ALL	375
T_NUM_TAP	301
T_NUM_BRK	5
T_NUM_HLD	59
T_NUM_SLD	10
T_NUM_ALL	375
T_JUDGE_TAP	306
T_JUDGE_HLD	184
T_JUDGE_SLD	10
T_JUDGE_ALL	500
TTM_EACHPAIRS	116
TTM_SCR_TAP	150500
TTM_SCR_BRK	13000
TTM_SCR_HLD	59000
TTM_SCR_SLD	15000
TTM_SCR_ALL	237500
TTM_SCR_S	229900
TTM_SCR_SS	237000
TTM_RAT_ACV	10021

