VERSION	0.00.00	1.03.00
FES_MODE	0
BPM_DEF	168.000	168.000	168.000	168.000
MET_DEF	4	4
RESOLUTION	384
CLK_DEF	384
COMPATIBLE_CODE	MA2

BPM	0	0	168.000
MET	0	0	4	4

TAP	4	0	0
TAP	5	0	0
HLD	6	0	0	384
TAP	8	0	7
TAP	9	0	7
HLD	10	0	7	384
TAP	12	0	0
TAP	12	192	0
BRK	13	0	0
TAP	14	0	7
TAP	14	192	7
TAP	15	0	7
TAP	16	0	6
TAP	16	192	6
TAP	17	0	6
TAP	18	0	5
TAP	18	192	5
TAP	19	0	5
TAP	20	0	4
TAP	20	192	4
BRK	21	0	4
HLD	22	0	3	144
TAP	23	0	3
TAP	23	192	3
TAP	24	0	2
TAP	24	96	2
TAP	24	192	2
TAP	25	0	3
TAP	25	96	3
TAP	25	192	3
TAP	25	192	4
HLD	26	0	4	144
TAP	27	0	4
TAP	27	192	4
STR	28	0	5
SI_	28	0	5	96	288	0
TTP	30	0	2	B	0	L1
TTP	31	0	1	B	0	L1
TTP	32	0	0	B	0	L1
TTP	33	0	7	B	0	L1
TTP	34	0	6	B	0	L1
TTP	35	0	5	B	0	L1
THO	36	0	0	336	C	1	L1
XHO	38	0	0	144
TAP	39	0	0
TAP	39	96	0
TAP	39	192	7
TAP	39	288	7
STR	40	0	0
SI_	40	0	0	96	288	4
TAP	41	192	5
XHO	42	0	5	144
TAP	43	0	4
TAP	43	96	4
TAP	43	192	4
TAP	44	0	3
TAP	44	96	3
TAP	44	192	3
XTP	45	0	2
XTP	45	0	5
TAP	45	192	6
XHO	46	0	7	144
TAP	47	0	7
TAP	47	96	7
TAP	47	192	0
TAP	47	288	0
STR	48	0	7
SI_	48	0	7	96	288	3
TAP	49	192	2
XHO	50	0	2	144
TAP	51	0	3
TAP	51	96	3
TAP	51	192	3
TAP	51	192	4
XST	52	0	3
SI_	52	0	3	96	288	0
XST	52	0	4
SI_	52	0	4	96	288	7
XHO	54	0	2	192
XHO	54	0	5	192
TTP	55	0	6	B	0	L1
TTP	56	0	5	B	0	L1
TTP	57	0	4	B	0	L1
TTP	58	0	3	B	0	L1
TTP	59	0	2	B	0	L1
TTP	60	0	1	B	0	L1
THO	61	0	0	336	C	1	L1
TAP	63	0	7
TAP	63	192	7
TAP	64	0	0
TAP	64	0	7
TAP	65	0	0
TAP	65	192	0
TAP	66	0	0
TAP	66	0	7
TAP	67	0	7
TAP	67	192	7
TAP	68	0	0
TAP	68	192	0
STR	69	0	7
SI_	69	0	7	96	288	3
XHO	71	0	0	144
XHO	71	0	1	144
TAP	72	0	0
TAP	72	96	0
TAP	72	192	7
TAP	72	288	7
STR	73	0	0
SI_	73	0	0	96	288	4
TAP	74	192	5
TAP	74	288	5
XHO	75	0	4	144
XHO	75	0	5	144
TAP	76	0	4
TAP	76	96	4
TAP	76	192	3
TAP	76	192	4
TAP	77	0	3
TAP	77	96	3
TAP	77	192	4
TAP	77	288	4
XTP	78	0	2
XTP	78	0	5
TAP	78	192	6
TAP	78	288	6
XHO	79	0	6	144
XHO	79	0	7	144
TAP	80	0	7
TAP	80	96	7
TAP	80	192	0
TAP	80	288	0
STR	81	0	7
SI_	81	0	7	96	288	3
TAP	82	192	2
TAP	82	288	2
XHO	83	0	2	144
XHO	83	0	3	144
TAP	84	0	4
TAP	84	96	4
TAP	84	192	3
TAP	84	288	3
XST	85	0	3
SI_	85	0	3	96	288	0
XST	85	0	4
SI_	85	0	4	96	288	7
XHO	87	0	2	192
XHO	87	0	5	192
TAP	88	0	1
TAP	88	96	1
TAP	88	192	1
TAP	89	0	0
TAP	89	96	0
TAP	89	192	0
HLD	90	0	1	192
HLD	90	0	7	192
TAP	91	0	0
TAP	91	96	7
TAP	91	192	1
TAP	91	192	6
TAP	92	0	5
TAP	92	96	5
TAP	92	192	5
TAP	93	0	4
TAP	93	96	4
TAP	93	192	4
HLD	94	0	3	192
HLD	94	0	5	192
THO	95	0	0	480	C	1	L1

T_REC_TAP	103
T_REC_BRK	2
T_REC_XTP	4
T_REC_HLD	8
T_REC_XHO	16
T_REC_STR	6
T_REC_BST	0
T_REC_XST	4
T_REC_TTP	12
T_REC_THO	3
T_REC_SLD	10
T_REC_ALL	168
T_NUM_TAP	129
T_NUM_BRK	2
T_NUM_HLD	27
T_NUM_SLD	10
T_NUM_ALL	168
T_JUDGE_TAP	131
T_JUDGE_HLD	114
T_JUDGE_SLD	10
T_JUDGE_ALL	255
TTM_EACHPAIRS	18
TTM_SCR_TAP	64500
TTM_SCR_BRK	5200
TTM_SCR_HLD	27000
TTM_SCR_SLD	15000
TTM_SCR_ALL	111700
TTM_SCR_S	108200
TTM_SCR_SS	111500
TTM_RAT_ACV	10017

