VERSION	0.00.00	1.04.00
FES_MODE	0
BPM_DEF	196.000	196.000	196.000	196.000
MET_DEF	4	4
RESOLUTION	384
CLK_DEF	384
COMPATIBLE_CODE	MA2

BPM	0	0	196.000
MET	0	0	4	4

NMHLD	1	0	1	48
NMHLD	1	0	3	48
NMHLD	1	72	1	48
NMHLD	1	72	3	48
NMTAP	1	144	0
NMTAP	1	144	4
NMSTR	1	192	0
NMSCR	1	192	0	96	48	3
NMTAP	1	192	4
NMHLD	2	0	4	48
NMHLD	2	0	6	48
NMHLD	2	72	4	48
NMHLD	2	72	6	48
NMTAP	2	144	3
NMTAP	2	144	7
NMTAP	2	192	3
NMSTR	2	192	7
NMSI_	2	192	7	96	48	1
NMTAP	2	288	7
NMHLD	3	0	2	48
NMHLD	3	0	3	48
NMHLD	3	72	2	48
NMHLD	3	72	3	48
NMTAP	3	144	1
NMTAP	3	144	4
NMSTR	3	192	0
NMSCR	3	192	0	96	48	3
NMTAP	3	192	5
NMHLD	4	0	6	72
NMHLD	4	72	4	72
NMTAP	4	144	5
NMTAP	4	192	2
NMSTR	4	192	7
BRSI_	4	192	7	96	48	3
BRHLD	5	0	1	72
NMTAP	5	72	3
NMTAP	5	96	2
NMTAP	5	144	3
NMTAP	5	144	5
NMHLD	5	192	6	72
NMTAP	5	264	4
NMTAP	5	288	5
NMTAP	5	336	2
NMTAP	5	336	4
NMHLD	6	0	1	72
NMTAP	6	72	3
NMTAP	6	96	2
NMTAP	6	144	3
NMTAP	6	144	5
NMTAP	6	192	4
NMHLD	6	192	6	72
NMTAP	6	264	7
NMTAP	6	288	6
NMTAP	6	336	0
NMTAP	6	336	5
NMHLD	7	0	1	72
NMTAP	7	0	4
NMTAP	7	72	3
NMTAP	7	96	1
NMTAP	7	144	2
NMTAP	7	144	4
NMHLD	7	192	5	72
NMTAP	7	264	4
NMTAP	7	288	5
NMTAP	7	336	3
NMTAP	7	336	6
NMHLD	8	0	2	72
NMHLD	8	0	7	72
NMTAP	8	96	2
NMTAP	8	96	7
NMTAP	8	144	1
NMTAP	8	144	6
NMTAP	8	192	0
NMTAP	8	192	5
BRTAP	8	240	7
BRTAP	8	288	7
NMTAP	9	0	3
BRHLD	9	0	5	72
NMTAP	9	72	0
NMTAP	9	96	4
NMTAP	9	144	1
NMTAP	9	144	3
NMHLD	9	192	2	72
NMTAP	9	264	7
NMTAP	9	288	3
NMTAP	9	336	4
NMTAP	9	336	6
NMHLD	10	0	5	72
NMTAP	10	72	4
NMTAP	10	96	6
NMTAP	10	144	3
NMTAP	10	144	7
NMHLD	10	192	2	72
NMTAP	10	264	3
NMTAP	10	288	1
NMTAP	10	336	0
NMTAP	10	336	4
NMHLD	11	0	5	72
NMTAP	11	0	7
NMTAP	11	72	4
NMTAP	11	96	5
NMTAP	11	144	3
NMTAP	11	144	6
NMHLD	11	192	2	72
NMTAP	11	192	7
NMTAP	11	264	3
NMTAP	11	288	2
NMTAP	11	336	1
NMTAP	11	336	4
NMHLD	12	0	0	48
NMHLD	12	0	5	48
NMHLD	12	72	1	48
NMHLD	12	72	6	48
NMTAP	12	144	2
NMTAP	12	144	7
NMHLD	12	192	4	48
NMHLD	12	192	6	48
NMHLD	12	264	3	48
NMHLD	12	264	5	48
NMTAP	12	336	2
NMTAP	12	336	4
BRSTR	13	0	1
NMSCL	13	0	1	96	96	6
NMTAP	13	96	6
NMTAP	13	144	5
NMTAP	13	192	4
NMHLD	13	240	3	96
NMSTR	13	336	4
NMSI_	13	336	4	96	48	2
NMSTR	14	48	6
NMSI_	14	48	6	96	48	4
NMHLD	14	144	0	96
NMTAP	14	240	3
NMTAP	14	288	1
NMTAP	14	336	4
NMSTR	15	0	2
NMSLR	15	0	2	96	96	6
NMTAP	15	96	5
NMTAP	15	192	7
NMTAP	15	240	7
NMTAP	15	336	4
NMHLD	15	336	6	96
NMTAP	16	48	7
NMSTR	16	96	0
NMSI_	16	96	0	96	48	5
NMTAP	16	144	1
NMTAP	16	192	2
NMSTR	16	288	3
NMSV_	16	288	3	96	96	4
NMTAP	17	0	5
NMTAP	17	96	7
NMTAP	17	144	7
NMTAP	17	192	3
NMHLD	17	240	2	96
NMSTR	17	336	3
NMSI_	17	336	3	96	48	5
NMSTR	18	48	1
NMSI_	18	48	1	96	48	3
NMHLD	18	144	6	96
NMTAP	18	240	4
NMTAP	18	288	6
NMTAP	18	336	1
NMSTR	19	0	3
NMSI_	19	0	3	96	96	6
NMTAP	19	96	2
NMTAP	19	144	2
NMTAP	19	192	2
CNSI_	19	192	6	0	48	1
NMSTR	19	240	2
NMSCL	19	240	2	96	192	5
BRTAP	19	336	3
NMTAP	20	288	3
NMSTR	20	288	5
NMSCR	20	288	5	96	96	0
NMTAP	21	0	2
CNSUL	21	96	0	0	96	4
NMSTR	21	96	4
NMSUR	21	96	4	96	96	1
NMTAP	21	192	2
CNSUL	21	288	1	0	96	3
NMSTR	21	288	3
NMSUR	21	288	3	96	96	0
NMHLD	22	0	2	192
NMTAP	22	192	0
NMSTR	22	288	2
NMSCL	22	288	2	96	96	7
NMTAP	22	288	3
NMTAP	23	0	4
NMSTR	23	96	3
NMSUL	23	96	3	96	96	6
CNSUR	23	96	7	0	96	3
NMTAP	23	192	5
NMSTR	23	288	4
NMSUL	23	288	4	96	96	7
CNSUR	23	288	6	0	96	4
NMHLD	24	0	5	192
NMTAP	24	192	7
NMHLD	24	288	3	192
NMTAP	24	288	4
BRTAP	25	0	0
NMTAP	25	96	2
NMTAP	25	144	3
NMTAP	25	192	4
NMTAP	25	240	3
NMSTR	25	288	6
NMSI_	25	288	6	96	48	4
NMHLD	26	0	0	96
NMTAP	26	96	3
NMTAP	26	144	3
NMTAP	26	192	2
NMTAP	26	240	4
NMHLD	26	288	4	96
NMTAP	27	0	1
NMSTR	27	48	0
NMSCR	27	48	0	96	48	3
NMTAP	27	48	5
NMTAP	27	144	0
NMSTR	27	144	7
NMSCL	27	144	7	96	48	4
NMTAP	27	240	0
NMTAP	27	240	7
BRTAP	27	336	2
BRTAP	27	336	6
NMTAP	28	48	1
NMTAP	28	72	3
NMTAP	28	96	2
NMTAP	28	144	4
NMTAP	28	144	5
NMTAP	28	192	4
NMTAP	28	192	5
NMSTR	28	240	6
BRSI_	28	240	6	96	48	3
NMSTR	28	288	3
NMSLR	28	288	3	96	96	0
BRTAP	28	336	6
NMTAP	29	48	1
CNSI_	29	96	0	0	48	4
NMTAP	29	96	1
NMTAP	29	144	1
NMSTR	29	240	6
BRSI_	29	240	6	96	48	2
NMSTR	29	288	2
NMSLR	29	288	2	96	96	7
BRTAP	29	336	6
NMTAP	30	48	0
NMTAP	30	96	0
CNSI_	30	96	7	0	48	3
NMTAP	30	144	0
NMTAP	30	240	4
NMTAP	30	288	4
BRSTR	30	336	2
NMSCR	30	336	2	96	48	4
NMSTR	31	0	5
NMSI_	31	0	5	96	48	7
NMTAP	31	48	2
NMTAP	31	96	5
NMSTR	31	144	2
NMSI_	31	144	2	96	48	0
NMTAP	31	192	4
NMTAP	31	240	2
NMSTR	31	288	5
NMSV_	31	288	5	96	48	2
NMSTR	31	336	2
NMSCR	31	336	2	96	96	7
NMTAP	32	0	5
NMTAP	32	48	0
NMTAP	32	96	1
BRTAP	32	144	2
NMSTR	32	240	1
BRSI_	32	240	1	96	48	4
NMSTR	32	288	4
NMSLL	32	288	4	96	96	7
BRTAP	32	336	1
NMTAP	33	48	6
NMTAP	33	96	6
CNSI_	33	96	7	0	48	3
NMTAP	33	144	6
NMSTR	33	240	1
NMSI_	33	240	1	96	48	5
NMTAP	33	288	3
BRTAP	33	336	1
NMSTR	34	48	7
BRSI_	34	48	7	96	48	3
NMTAP	34	96	0
NMSTR	34	144	1
BRSI_	34	144	1	96	48	5
NMTAP	34	144	7
NMTAP	34	240	1
NMSTR	34	240	4
BRSCR	34	240	4	96	48	7
NMTAP	34	336	2
BRTAP	34	336	4
NMTAP	35	48	0
NMTAP	35	48	1
NMTAP	35	96	7
NMTAP	35	144	6
NMTAP	35	192	0
NMTAP	35	192	5
NMSTR	35	240	1
NMSI_	35	240	1	96	48	4
NMSTR	35	288	4
NMSI_	35	288	4	96	48	1
NMSTR	35	336	1
NMSI_	35	336	1	96	48	6
NMSTR	36	0	6
BRSI_	36	0	6	96	24	4
NMSLL	36	0	6	96	96	0
NMTAP	36	48	6
CNSV_	36	120	4	0	72	7
NMTTP	36	144	0	C	1	M1
NMTAP	36	288	1
NMTAP	36	288	6
NMHLD	37	0	3	96
NMTAP	37	0	4
NMTAP	37	96	1
NMSTR	37	144	1
NMSCL	37	144	1	96	48	6
NMSTR	37	240	3
BRSCL	37	240	3	96	96	5
BRTAP	37	336	4
NMSTR	38	96	4
NMSI_	38	96	4	96	48	7
NMSUR	38	96	4	96	48	0
NMTAP	38	192	4
NMTAP	38	288	1
NMTAP	38	288	6
NMTAP	39	0	3
NMTAP	39	0	4
NMHLD	39	48	3	96
NMTAP	39	48	4
NMSTR	39	144	1
NMSCL	39	144	1	96	48	6
NMSTR	39	240	3
BRSCL	39	240	3	96	96	5
NMTTP	39	336	0	C	1	M1
NMTAP	40	192	4
NMTAP	40	192	5
NMTAP	40	240	3
NMSTR	40	288	2
NMSI_	40	288	2	96	48	4
NMTAP	40	336	5
NMTAP	41	0	2
NMSTR	41	0	6
NMSI_	41	0	6	96	48	2
NMSTR	41	96	1
NMSI_	41	96	1	96	48	5
NMTAP	41	96	6
NMTAP	41	192	1
NMSTR	41	192	7
NMSI_	41	192	7	96	48	3
NMSTR	41	288	0
NMSI_	41	288	0	96	48	4
NMTAP	41	288	7
NMTAP	42	0	0
NMSTR	42	0	6
NMSI_	42	0	6	96	48	2
NMSTR	42	96	1
NMSI_	42	96	1	96	48	5
NMTAP	42	96	6
NMTAP	42	192	0
NMTAP	42	192	1
NMHLD	42	288	6	96
BRTAP	43	0	7
BRTAP	43	96	0
BRTAP	43	96	1
BRTAP	43	144	3
BRTAP	43	144	7
BRTAP	43	240	6
BRTAP	43	240	7
BRTAP	43	288	0
BRTAP	43	288	4
BRTAP	44	0	2
BRTAP	44	0	3
BRTAP	44	48	0
BRTAP	44	48	4
BRTAP	44	144	4
BRTAP	44	144	5
BRTAP	44	192	3
BRSTR	44	192	7
NMSI_	44	192	7	96	48	3
NMSTR	44	288	0
BRSI_	44	288	0	96	48	4
NMTAP	44	288	7
NMTAP	45	0	5
CNSI_	45	48	4	0	48	0
NMTAP	45	48	5
NMSTR	45	144	1
NMSCR	45	144	1	96	48	4
NMSTR	45	144	7
NMSCL	45	144	7	96	48	4
NMTAP	45	240	1
NMTAP	45	240	7
NMTAP	45	336	1
NMSTR	45	336	7
BRSCL	45	336	7	96	96	1
NMTAP	46	48	0
NMSTR	46	96	0
BRSF_	46	96	0	96	48	4
NMTTP	46	192	0	B	0	M1
NMTTP	46	192	0	C	1	M1
NMTTP	46	192	0	A	0	M1
NMTTP	46	192	4	B	0	M1
NMTTP	46	192	4	A	0	M1
BRTAP	47	0	2
NMHLD	47	0	6	72
NMTAP	47	72	4
NMTAP	47	96	5
NMTAP	47	144	2
NMTAP	47	144	4
NMHLD	47	192	1	72
NMTAP	47	264	3
NMTAP	47	288	2
NMTAP	47	336	3
NMTAP	47	336	5
NMHLD	48	0	6	72
NMTAP	48	72	7
NMTAP	48	96	5
NMTAP	48	144	0
NMTAP	48	144	4
NMHLD	48	192	1	72
NMTAP	48	192	3
NMTAP	48	264	0
NMTAP	48	288	1
NMTAP	48	336	2
NMTAP	48	336	7
NMTAP	49	0	3
NMHLD	49	0	6	72
NMTAP	49	72	4
NMTAP	49	96	6
NMTAP	49	144	3
NMTAP	49	144	5
NMHLD	49	192	2	72
NMTAP	49	192	4
NMTAP	49	264	3
NMTAP	49	288	1
NMTAP	49	336	2
NMTAP	49	336	4
NMHLD	50	0	3	72
NMHLD	50	0	5	72
NMTAP	50	96	3
NMTAP	50	96	5
NMTAP	50	144	4
NMTAP	50	144	6
NMTAP	50	192	3
NMTAP	50	192	7
BRTAP	50	240	0
BRTAP	50	288	0
BRHLD	51	0	2	72
NMTAP	51	0	4
NMTAP	51	72	7
NMTAP	51	96	3
NMTAP	51	144	4
NMTAP	51	144	6
NMHLD	51	192	5	72
NMTAP	51	264	0
NMTAP	51	288	4
NMTAP	51	336	1
NMTAP	51	336	3
NMHLD	52	0	2	72
NMTAP	52	72	3
NMTAP	52	96	1
NMTAP	52	144	0
NMTAP	52	144	4
NMHLD	52	192	5	72
NMTAP	52	264	4
NMTAP	52	288	6
NMTAP	52	336	3
NMTAP	52	336	7
NMTAP	53	0	0
NMHLD	53	0	2	72
NMTAP	53	72	3
NMTAP	53	96	2
NMTAP	53	144	1
NMTAP	53	144	4
NMTAP	53	192	0
NMHLD	53	192	5	72
NMTAP	53	264	4
NMTAP	53	288	5
NMTAP	53	336	3
NMTAP	53	336	6
NMHLD	54	0	2	48
NMHLD	54	0	7	48
NMHLD	54	72	1	48
NMHLD	54	72	6	48
NMTAP	54	144	0
NMTAP	54	144	5
NMHLD	54	192	1	48
NMHLD	54	192	7	48
NMHLD	54	264	2	48
NMHLD	54	264	6	48
NMTAP	54	336	3
NMTAP	54	336	5
NMSTR	55	0	4
NMSI_	55	0	4	96	48	2
NMHLD	55	72	4	72
NMSTR	55	192	4
NMSI_	55	192	4	96	48	6
NMHLD	55	264	4	72
NMSTR	56	0	4
NMSI_	56	0	4	96	48	1
NMHLD	56	72	4	72
NMTAP	56	192	0
NMTAP	56	192	4
NMTTP	56	288	1	A	0	M1
NMTTP	56	288	2	A	0	M1
NMTTP	56	288	2	D	0	M1
NMTTP	56	288	3	A	0	M1
NMTTP	56	288	3	D	0	M1
NMSTR	57	0	3
NMSI_	57	0	3	96	48	5
NMHLD	57	72	3	72
NMSTR	57	192	3
NMSI_	57	192	3	96	48	1
NMHLD	57	264	3	72
NMSTR	58	0	3
NMSI_	58	0	3	96	48	6
NMHLD	58	72	3	72
NMTAP	58	192	3
NMTAP	58	192	7
NMTTP	58	288	4	A	0	M1
NMTTP	58	288	5	A	0	M1
NMTTP	58	288	5	D	0	M1
NMTTP	58	288	6	A	0	M1
NMTTP	58	288	6	D	0	M1
NMSTR	59	0	5
NMSI_	59	0	5	96	48	3
NMHLD	59	72	5	72
NMSTR	59	192	5
NMSI_	59	192	5	96	48	7
NMHLD	59	264	5	72
NMSTR	60	0	5
NMSI_	60	0	5	96	48	1
NMHLD	60	72	5	72
NMTAP	60	192	0
NMTAP	60	192	6
NMTAP	60	288	3
NMTAP	60	288	4
NMSTR	61	0	2
NMSCL	61	0	2	96	48	7
NMHLD	61	72	2	72
NMSTR	61	192	2
NMSCR	61	192	2	96	48	5
NMHLD	61	264	2	72
NMTAP	62	0	2
NMTAP	62	48	3
NMTAP	62	96	4
NMTAP	62	144	5
NMTAP	62	192	6
NMTAP	62	240	7
NMTAP	62	288	0
NMTAP	62	336	1
BRHLD	63	0	2	288
NMTTP	63	48	4	E	0	M1
NMTTP	63	72	3	E	0	M1
NMTTP	63	96	2	E	0	M1
NMTTP	63	120	1	E	0	M1
NMTTP	63	144	0	E	0	M1
NMTTP	63	168	7	E	0	M1
NMTTP	63	192	6	E	0	M1
NMTTP	63	216	5	E	0	M1
NMTTP	63	240	4	E	0	M1
NMTTP	63	264	3	E	0	M1
NMTTP	63	288	2	E	0	M1
NMHLD	64	0	7	288
NMTTP	64	48	3	E	0	M1
NMTTP	64	72	4	E	0	M1
NMTTP	64	96	5	E	0	M1
NMTTP	64	120	6	E	0	M1
NMTTP	64	144	7	E	0	M1
NMTTP	64	168	0	E	0	M1
NMTTP	64	192	1	E	0	M1
NMTTP	64	216	2	E	0	M1
NMTTP	64	240	3	E	0	M1
NMTTP	64	264	4	E	0	M1
NMTTP	64	288	5	E	0	M1
NMHLD	65	0	3	288
NMTTP	65	48	5	D	0	M1
NMTTP	65	72	4	D	0	M1
NMTTP	65	96	3	D	0	M1
NMTTP	65	120	2	D	0	M1
NMTTP	65	144	1	D	0	M1
NMTTP	65	168	0	D	0	M1
NMTTP	65	192	7	D	0	M1
NMTTP	65	216	6	D	0	M1
NMTTP	65	240	5	D	0	M1
NMTTP	65	264	4	D	0	M1
NMTTP	65	288	3	D	0	M1
NMHLD	66	0	5	288
NMTTP	66	48	4	D	0	M1
NMTTP	66	72	5	D	0	M1
NMTTP	66	96	6	D	0	M1
NMTTP	66	120	7	D	0	M1
NMTTP	66	144	0	D	0	M1
NMTTP	66	168	1	D	0	M1
NMTTP	66	192	2	D	0	M1
NMTTP	66	216	3	D	0	M1
NMTTP	66	240	4	D	0	M1
NMTTP	66	264	5	D	0	M1
NMTTP	66	288	6	D	0	M1
BRTAP	67	0	0
NMTAP	67	48	6
NMTAP	67	72	4
NMTAP	67	96	5
NMTAP	67	144	2
NMTAP	67	168	4
NMTAP	67	192	3
NMTAP	67	240	6
NMTAP	67	264	4
NMTAP	67	288	5
NMTAP	67	336	2
NMTAP	67	360	4
NMTAP	68	0	3
NMTAP	68	48	6
NMTAP	68	72	4
NMTAP	68	96	5
NMTAP	68	144	1
NMTAP	68	168	3
NMTAP	68	192	2
NMTAP	68	240	5
NMTAP	68	264	4
NMTAP	68	288	6
NMTAP	68	336	2
NMTAP	68	360	3
BRTAP	69	0	0
NMSTR	69	48	0
NMSCR	69	48	0	96	48	3
NMSV_	69	48	0	96	48	3
NMSTR	69	144	0
NMSCL	69	144	0	96	48	5
NMSV_	69	144	0	96	48	5
NMTAP	69	240	0
BRTAP	69	336	2
BRTAP	69	336	7
NMTAP	70	48	1
NMTAP	70	72	0
NMTAP	70	96	1
NMTAP	70	144	2
NMTAP	70	144	7
NMTAP	70	192	4
NMTAP	70	192	5
NMSTR	70	240	6
BRSV_	70	240	6	96	48	3
NMSTR	70	288	3
NMSLR	70	288	3	96	96	0
BRTAP	70	336	6
NMTAP	71	48	1
CNSI_	71	96	0	0	48	4
NMTAP	71	96	1
NMTAP	71	144	1
NMSTR	71	240	6
BRSI_	71	240	6	96	48	2
NMSTR	71	288	2
NMSCR	71	288	2	96	48	4
BRTAP	71	336	6
NMTAP	72	48	0
CNSI_	72	48	4	0	48	7
NMTAP	72	96	0
CNSI_	72	96	7	0	48	3
NMTAP	72	144	0
NMTAP	72	240	4
NMTAP	72	288	4
BRSTR	72	336	2
NMSI_	72	336	2	96	48	4
NMSTR	73	0	5
NMSI_	73	0	5	96	48	0
NMTAP	73	48	2
NMTAP	73	96	5
NMSTR	73	144	2
NMSI_	73	144	2	96	48	7
NMTAP	73	192	7
NMTAP	73	240	2
NMSTR	73	288	5
NMSV_	73	288	5	96	48	2
NMSTR	73	336	2
NMSCR	73	336	2	96	48	4
NMTAP	74	0	5
NMTAP	74	48	7
NMTAP	74	96	0
CNSI_	74	96	4	0	48	7
BRTAP	74	144	1
NMSTR	74	240	1
BRSV_	74	240	1	96	48	4
NMSTR	74	288	4
NMSI_	74	288	4	96	48	2
BRTAP	74	336	1
CNSI_	75	48	2	0	48	7
NMTAP	75	48	6
NMTAP	75	96	6
CNSI_	75	96	7	0	48	3
NMTAP	75	144	6
NMSTR	75	240	1
NMSI_	75	240	1	96	48	5
NMTAP	75	288	3
BRTAP	75	336	1
NMTAP	76	48	6
NMSTR	76	48	7
BRSI_	76	48	7	96	48	3
NMTAP	76	96	0
NMSTR	76	144	1
BRSI_	76	144	1	96	48	5
NMTAP	76	144	7
NMTAP	76	240	1
NMSTR	76	240	4
BRSCR	76	240	4	96	48	7
NMTAP	76	288	3
NMTAP	76	336	2
BRTAP	76	336	4
NMTAP	77	48	0
NMTAP	77	48	1
NMTAP	77	96	7
NMTAP	77	144	6
NMTAP	77	192	0
NMTAP	77	192	5
NMSTR	77	240	1
NMSI_	77	240	1	96	48	4
NMSTR	77	288	4
NMSI_	77	288	4	96	48	1
NMSTR	77	336	1
NMSI_	77	336	1	96	48	6
NMSTR	78	0	6
NMSCL	78	0	6	96	48	4
BRSLL	78	0	6	96	96	0
NMTAP	78	48	6
NMTTP	78	144	0	C	1	M1
CNSV_	78	144	4	0	48	7
NMTAP	78	288	2
NMTAP	78	288	5
NMHLD	79	0	3	96
NMTAP	79	0	4
NMTAP	79	96	1
NMSTR	79	144	1
NMSCL	79	144	1	96	48	6
NMSTR	79	240	3
BRSCL	79	240	3	96	96	5
BRTAP	79	336	4
NMSTR	80	96	4
NMSI_	80	96	4	96	48	7
NMSUR	80	96	4	96	48	0
NMTAP	80	192	4
NMTAP	80	288	1
NMTAP	80	288	6
NMTAP	81	0	3
NMTAP	81	0	4
NMHLD	81	48	3	96
NMTAP	81	48	4
NMSTR	81	144	1
NMSCL	81	144	1	96	48	6
NMSTR	81	240	3
BRSCL	81	240	3	96	96	5
NMTTP	81	336	0	C	1	M1
NMTAP	82	192	4
NMTAP	82	192	5
NMTAP	82	240	3
NMSTR	82	288	2
NMSI_	82	288	2	96	48	4
NMTAP	82	336	5
NMTAP	83	0	2
NMSTR	83	0	6
NMSI_	83	0	6	96	48	2
NMSTR	83	96	1
NMSI_	83	96	1	96	48	5
NMTAP	83	96	6
NMTAP	83	192	1
NMSTR	83	192	7
NMSI_	83	192	7	96	48	3
NMSTR	83	288	0
NMSI_	83	288	0	96	48	4
NMTAP	83	288	7
NMTAP	84	0	0
NMSTR	84	0	6
NMSI_	84	0	6	96	48	2
NMSTR	84	96	1
NMSI_	84	96	1	96	48	5
NMTAP	84	96	6
NMTAP	84	192	0
NMTAP	84	192	1
NMHLD	84	288	6	96
BRTAP	85	0	7
BRTAP	85	96	0
BRTAP	85	96	1
BRTAP	85	144	3
BRTAP	85	144	7
BRTAP	85	240	6
BRTAP	85	240	7
BRTAP	85	288	0
BRTAP	85	288	4
BRTAP	86	0	2
BRTAP	86	0	3
BRTAP	86	48	0
BRTAP	86	48	4
BRTAP	86	144	4
BRTAP	86	144	5
BRTAP	86	192	3
BRSTR	86	192	7
NMSI_	86	192	7	96	48	3
NMSTR	86	288	0
BRSI_	86	288	0	96	48	4
NMTAP	86	288	7
BRTAP	87	0	5
CNSI_	87	48	4	0	48	0
BRTAP	87	48	5
NMSTR	87	144	1
NMSCR	87	144	1	96	48	4
NMSTR	87	144	7
NMSCL	87	144	7	96	48	4
NMTAP	87	240	1
NMTAP	87	240	7
NMTAP	87	336	1
NMSTR	87	336	7
BRSCL	87	336	7	96	96	1
NMTAP	88	48	0
NMSTR	88	96	0
NMSI_	88	96	0	96	48	4
BRTAP	88	192	7
NMSTR	88	288	3
BRSI_	88	288	3	96	48	7
NMTAP	88	288	5
BRTAP	89	0	6
BRTAP	89	48	6
CNSI_	89	48	7	0	48	3
NMSTR	89	144	2
NMSCL	89	144	2	96	48	7
NMSTR	89	144	4
NMSCR	89	144	4	96	48	7
NMTAP	89	240	2
NMTAP	89	240	4
NMTAP	89	336	2
NMSTR	89	336	4
BRSCR	89	336	4	96	96	2
NMTAP	90	48	3
NMSTR	90	96	3
BRSF_	90	96	3	96	48	7
NMTTP	90	192	0	C	1	M1
NMTTP	90	192	3	B	0	M1
NMTTP	90	192	3	A	0	M1
NMTTP	90	192	7	B	0	M1
NMTTP	90	192	7	A	0	M1
NMSTR	91	0	1
NMSI_	91	0	1	96	48	3
NMSTR	91	0	5
NMSI_	91	0	5	96	48	1
NMTAP	91	96	1
NMTAP	91	96	5
NMTAP	91	192	0
NMTAP	91	192	4
NMTAP	91	240	3
NMTAP	91	240	7
NMTAP	91	288	2
NMTAP	91	288	6
NMSTR	91	336	1
NMSUR	91	336	1	96	48	5
NMTAP	91	336	5
NMSTR	92	48	6
NMSCL	92	48	6	96	48	3
NMTAP	92	96	6
NMSTR	92	144	0
NMSUR	92	144	0	96	48	4
NMSTR	92	240	6
NMSI_	92	240	6	96	48	1
NMSI_	92	240	6	96	48	3
NMTAP	92	336	6
NMSTR	93	48	0
NMSI_	93	48	0	96	48	5
NMSTR	93	48	4
NMSI_	93	48	4	96	48	1
NMTAP	93	144	0
NMTAP	93	144	4
NMTAP	93	240	2
NMTAP	93	240	6
NMTAP	93	288	3
NMTAP	93	288	7
NMTAP	93	336	0
NMSTR	93	336	4
NMSI_	93	336	4	96	48	6
NMTAP	94	48	1
NMTAP	94	96	2
CNSV_	94	96	6	0	48	0
NMHLD	94	144	3	96
NMTTP	94	240	7	E	0	M1
NMTTP	94	264	6	E	0	M1
NMTTP	94	288	5	E	0	M1
NMTTP	94	312	4	E	0	M1
NMTTP	94	336	3	E	0	M1
BRSTR	95	0	0
NMSI_	95	0	0	96	48	4
BRSTR	95	0	1
NMSI_	95	0	1	96	48	4
NMTAP	95	96	0
NMTAP	95	96	1
NMTAP	95	192	3
NMTAP	95	192	5
NMTAP	95	240	2
NMTAP	95	240	4
NMTAP	95	288	1
NMTAP	95	288	3
NMTAP	95	336	0
NMSTR	95	336	4
NMSCR	95	336	4	96	96	0
NMTAP	96	48	2
NMSTR	96	144	4
NMSLL	96	144	4	96	96	0
NMTAP	96	240	7
NMTAP	96	288	6
NMTAP	96	336	5
NMSTR	97	0	4
NMSI_	97	0	4	96	48	6
NMTAP	97	48	4
NMSTR	97	96	0
NMSI_	97	96	0	96	48	4
NMTAP	97	144	0
NMTAP	97	192	7
CNSI_	97	240	4	0	48	2
NMTAP	97	240	6
NMTAP	97	288	5
NMHLD	98	0	1	48
NMHLD	98	0	3	48
NMHLD	98	72	4	48
NMHLD	98	72	5	48
NMTAP	98	144	3
NMTAP	98	144	6
NMHLD	98	192	0	48
NMHLD	98	192	1	48
NMHLD	98	264	3	48
NMHLD	98	264	4	48
NMTAP	98	336	1
NMTAP	98	336	5
BRTAP	99	0	0
BRTAP	99	0	6
NMTAP	99	48	0
NMTAP	99	48	6
NMTAP	99	64	5
NMTAP	99	80	4
NMTAP	99	96	3
BRTAP	99	144	1
BRTAP	99	144	7
NMTAP	99	192	1
NMTAP	99	192	7
NMTAP	99	208	2
NMTAP	99	224	3
NMTAP	99	240	4
NMSTR	99	288	0
NMSI_	99	288	0	96	48	4
NMSTR	99	288	6
NMSI_	99	288	6	96	48	2
BRTAP	100	0	0
NMTTP	100	0	0	C	1	M1
NMTTP	100	0	2	B	0	M1
NMTTP	100	0	4	B	0	M1
BRTAP	100	0	6

T_REC_TAP	413
T_REC_BRK	70
T_REC_XTP	0
T_REC_BXX	0
T_REC_HLD	94
T_REC_XHO	0
T_REC_BHO	4
T_REC_BXH	0
T_REC_STR	125
T_REC_BST	7
T_REC_XST	0
T_REC_XBS	0
T_REC_TTP	76
T_REC_THO	0
T_REC_SLD	112
T_REC_BSL	27
T_REC_ALL	928
T_NUM_TAP	614
T_NUM_BRK	108
T_NUM_HLD	94
T_NUM_SLD	112
T_NUM_ALL	928
T_JUDGE_TAP	691
T_JUDGE_HLD	182
T_JUDGE_SLD	139
T_JUDGE_ALL	1012
TTM_EACHPAIRS	180
TTM_SCR_TAP	307000
TTM_SCR_BRK	280800
TTM_SCR_HLD	94000
TTM_SCR_SLD	168000
TTM_SCR_ALL	849800
TTM_SCR_S	813850
TTM_SCR_SS	839000
TTM_RAT_ACV	10128

